#TITLE:You've Got the Cash Reserves of a Tortilla;
#SUBTITLE:;
#ARTIST:Starship Amazing;
#TITLETRANSLIT:;
#SUBTITLETRANSLIT:;
#ARTISTTRANSLIT:;
#CREDIT:;
#BANNER:../fallback-bn.png;
#BACKGROUND:;
#LYRICSPATH:;
#CDTITLE:;
#MUSIC:1-03 You've Got the Cash Reserves of a Tortilla.ogg;
#OFFSET:0.153;
#SAMPLESTART:91.400;
#SAMPLELENGTH:12.000;
#SELECTABLE:YES;
#BPMS:0.000=229.991,768.500=460.082,772.500=920.164,780.500=1840.328,788.500=3680.656,808.500=230.041;
#STOPS:;
#BGCHANGES:;
// cache tags:
#FIRSTBEAT:1.000;
#LASTBEAT:828.750;
#SONGFILENAME:Songs/SSSC PACK/[JDongs] - You've Got the Cash Reserves of a Tortilla/YGTCROAT.sm;
#HASMUSIC:1;
#HASBANNER:1;
#MUSICLENGTH:208.692;
// end cache tags

//---------------dance-single - JDongs----------------
#NOTES:
     dance-single:
     JDongs:
     Challenge:
     13:
     1.000,1.000,0.537,1.000,0.405,1403.000,112.000,747.000,145.000,5.000:

0000
0000
0000
0001
0000
0000
0001
0000
0000
1000
0000
0001
,
1000
0000
0000
0010
0000
1000
0100
0000
0000
0010
0000
0000
,
0000
0000
0001
1000
0010
1000
0100
0010
,
0001
0000
0000
1000
0000
0000
0000
0000
0010
1000
0000
0000
,
0000
0000
0000
1000
0000
0000
0100
0000
0000
1000
0000
0001
,
1000
0000
0000
0010
0000
1000
0100
0000
0000
0010
0000
0000
,
0000
0000
0001
1000
0010
1000
0100
1000
,
0010
0000
0000
0100
0000
0000
0000
0000
0001
1000
0000
0000
,
0000
0000
0000
1000
0000
0000
0100
0000
0000
0010
0000
0001
,
0100
0000
0000
0001
0000
1000
0100
0000
0000
1001
0000
0000
,
0000
0000
0001
1000
0010
1000
0100
0010
,
0001
0000
0000
1000
0000
0000
0000
0000
0001
0100
0000
0000
,
0000
0000
0000
0000
1000
0000
0000
0000
0001
0000
0000
0000
1000
0000
0010
1000
,
0010
1000
0100
0010
0001
0000
1001
0000
,
0001
0100
0001
1000
0100
0010
0001
0010
,
0100
0000
0000
1000
0000
0000
0000
0000
0001
0100
0000
0000
,
0000
0001
0010
1100
,
0100
1000
0010
0101
,
0010
0000
0100
0000
0001
0000
0011
0011
,
0011
0000
0010
0000
0100
1000
0010
0000
,
0100
0001
1000
1001
,
0001
0100
0010
0110
,
0100
0000
0001
0000
0100
0000
0101
0101
,
0101
0000
0001
0000
0001
0010
0100
0000
,
1000
0001
0100
0110
,
0100
0001
0010
0110
,
1000
0000
0001
0000
0100
0000
0110
0101
,
0011
0000
0010
0000
0100
1000
0001
0000
,
0010
0100
1000
1001
,
0001
0100
0010
0110
,
0100
0000
0001
0000
0010
0000
0110
1100
,
1001
0000
0100
0000
0010
0100
0001
0000
,
0001
0000
2000
3020
0230
0320
2030
3200
,
0320
0032
0023
0230
2300
3020
0230
0302
,
2003
3020
0230
0302
0203
0320
2030
3200
,
0320
0032
0023
0230
2300
3200
0320
0032
,
2003
3020
0230
0320
0230
0302
2003
3200
,
2300
3002
2003
3200
0320
0230
2300
3020
,
2030
3002
0023
0032
2003
3200
2300
3002
,
0203
0302
0203
0320
2030
3020
0230
0302
,
2003
3200
2300
3020
0230
0320
2030
3200
,
0320
0032
0023
0032
0023
0230
2300
3002
,
0023
0230
2300
3200
2300
3020
0230
0320
,
0230
0302
0203
0320
2030
3200
0320
0032
,
0023
0230
2300
3020
0230
0320
2030
3200
,
0320
0230
2300
3002
0203
0320
0230
0302
,
0023
0230
0320
0032
2003
3002
0203
0320
,
0230
0302
0023
0230
2300
3020
2030
3002
,
2003
3000
1001
0000
0000
0000
1001
0000
,
1001
0000
1000
0001
0200
0310
0100
0001
,
0010
0100
1100
0000
0000
0000
1100
0000
,
1100
0000
0000
0000
0001
0000
1000
0000
0010
0000
1000
0000
0100
0010
0001
1000
,
0010
0100
0001
1000
1010
0000
0000
0000
0000
0000
0000
0000
1010
0000
0000
0000
,
1010
0000
0000
0000
0001
1000
0100
1000
0010
0100
0001
0100
0010
1000
0100
0010
,
0001
0010
0100
1000
0002
0000
0000
0000
0000
0000
0000
0000
2003
0000
0000
0000
,
0000
0000
0000
0000
3020
0000
0000
0000
0000
0000
0130
0001
1000
0000
0000
0000
,
0000
1010
0000
1001
,
1100
0000
0200
2300
3200
0320
0230
2300
,
3020
0000
0000
0000
0000
0000
0000
0000
2030
0000
0000
0000
0000
0000
0000
3000
1100
0000
0000
0000
0000
0000
0000
0000
0000
0000
0000
0000
0000
0000
0000
0000
0000
0000
0000
0000
0000
0000
0000
0000
0000
0000
0000
0000
0000
0000
0000
0000
1001
0000
0000
0000
0000
0000
0000
0000
MMMM
0000
0000
0000
0000
0000
0000
0000
,
1001
0000
0000
0000
0001
0000
0100
0000
0010
0000
0100
0000
0001
0010
0100
1000
,
0001
0010
0100
1000
1001
0000
0000
0000
0000
0000
0000
0000
1001
0000
0000
0000
,
1001
0000
0000
0000
0001
0100
0010
1000
0010
0100
0001
0010
0001
1000
0010
1000
,
0100
0010
0001
0010
0200
0000
0000
0000
0000
0000
0000
0000
2300
0000
0000
0000
,
0000
0000
0000
0000
3020
0000
0000
0000
0000
0000
0130
0001
1000
0000
0000
0000
,
0000
0000
2000
3200
0320
0230
2300
3002
,
0203
0320
0230
0302
0023
0230
2300
3020
,
0230
0320
2030
3200
2300
3002
0203
0302
,
2003
3020
2030
3002
0023
0032
2003
3002
,
2003
3020
2030
3200
0320
0230
2300
3200
,
0320
0230
2300
3002
0203
0320
0230
0302
,
0203
0320
0230
0302
0203
2300
3200
0302
,
0203
2300
3200
0302
0023
0230
2300
3200
,
0320
0032
0023
0230
2300
3200
2300
3002
,
0203
0302
2003
3200
2300
3002
0203
0302
,
0023
0032
2003
3020
2030
3002
0023
0032
,
2003
3020
0230
0302
0203
0320
2030
3020
,
0230
0302
0203
0302
2003
3002
2003
3020
,
2030
3200
0320
0032
0023
0230
2300
3020
,
0230
0302
0203
0320
2030
3200
0320
0230
,
2300
3020
0230
0302
0203
0320
2030
3200
,
0320
0000
0000
0000
0000
0000
0000
0000
0032
0000
0000
0000
0000
0000
0000
0003
1001
0000
0000
0000
0000
0000
0000
0000
0000
0000
0000
0000
0000
0000
0000
0000
0000
0000
0000
0000
0000
0000
0000
0000
0000
0000
0000
0000
0000
0000
0000
0000
1001
0000
0000
0000
0000
0000
0000
0000
0000
0000
0000
0000
0000
0000
0000
0000
,
1001
0000
0002
2003
3020
2030
3200
0320
,
0032
0023
1130
0000
0000
0000
0110
0000
,
0011
0000
0000
0000
0002
0000
2003
0000
3020
0000
2030
0000
3200
0320
0032
0023
,
0230
0000
0000
0000
2300
0000
0000
0000
3200
0000
0000
0000
0320
0000
0000
0030
0011
0000
0000
0000
0000
0000
0000
0000
0000
0000
0000
0000
0000
0000
0000
0000
0000
0000
0000
0000
0000
0000
0000
0000
0000
0000
0000
0000
0000
0000
0000
0000
1001
0000
0000
0000
0000
0000
0000
0000
0000
0000
0000
0000
0000
0000
0000
0000
,
1010
0000
0000
0000
0020
0230
0302
0203
0320
2030
3200
0320
0230
2300
3020
0230
,
0302
0023
0230
2300
3020
0000
0000
0000
0000
0000
0000
0000
0230
0000
0000
0000
,
0000
0000
0000
0000
0302
0000
0000
0000
0000
0000
0013
0100
1000
0000
0000
0000
,
0000
0000
1010
0010
1000
0100
0110
0100
,
0110
0100
2000
3002
2003
3020
0230
0302
,
0203
0000
0000
0000
0000
0000
0000
0000
0320
0000
0000
0000
0000
0000
0000
0030
1010
0000
0000
0000
0000
0000
0000
0000
1000
0000
0000
0000
0000
0000
0000
0000
0001
0000
0000
0000
0000
0000
0000
0000
0100
0000
0000
0000
0000
0000
0000
0000
0110
0000
0000
0000
0000
0000
0000
0000
0100
0000
0000
0000
0000
0000
0000
0000
,
0110
0000
0010
0000
2000
0000
3200
0000
0320
0000
0230
0000
2300
3002
0203
0320
,
0230
0000
0000
0000
0302
0000
0000
0000
0023
0000
0000
0000
0230
0000
0000
0300
1100
0000
0000
0000
0000
0000
0000
0000
1000
0000
0000
0000
0000
0000
0000
0000
0001
0000
0000
0000
0000
0000
0000
0000
0100
0000
0000
0000
0000
0000
0000
0000
0101
0000
0000
0000
0000
0000
0000
0000
0001
0000
0000
0000
0000
0000
0000
0000
,
0101
0000
0001
0000
0020
0230
2300
3200
0320
0032
0023
0230
2300
3020
0230
0320
,
2030
3200
0320
0032
0023
0000
0000
0000
0000
0000
0000
0000
0230
0000
0000
0000
,
0000
0000
0000
0000
2300
0000
0000
0000
0000
0000
3001
0100
0010
0000
0000
0000
,
0100
0000
0002
2003
3020
2030
3200
0320
,
0032
0023
0230
2300
3200
2300
3020
0230
,
0302
0203
0320
0230
0302
0023
0230
0320
,
0032
2003
3002
2003
3002
0023
0032
0023
,
0230
2300
3200
0320
0032
2003
3020
0230
,
0302
0203
0320
0230
0302
0023
0230
2300
,
3200
0320
0230
2300
3020
0230
0302
2003
,
3020
0230
0302
0203
0320
2030
3200
0320
,
0230
2300
3020
0230
0320
2030
3200
2300
,
3002
0203
0302
2003
3002
2003
3200
0320
,
0230
2300
3002
0203
0320
2030
3200
0320
,
0230
2300
3200
0320
0032
0203
0320
0230
,
0302
0023
0230
2300
3002
0023
0230
2300
,
3002
0023
0230
2300
3200
0320
0032
2003
,
3020
2030
3200
2300
3020
2030
3200
2300
,
3020
0230
0302
0203
0320
0230
0302
0203
,
0320
2030
3100
0000
0100
0000
0010
0000
,
0001
1000
0010
1000
0100
0000
0100
0010
,
0001
0000
0001
0000
0001
0001
0010
0000
,
0010
0000
0100
0000
1000
0000
0000
0000
0000
0000
0000
0000
1000
0100
1000
0100
,
0010
0001
0010
0100
1000
0000
0010
0000
1000
0000
0100
0000
0011
0000
0010
0000
,
0001
0010
0100
1000
0010
0100
0101
0001
,
0010
0100
1000
0100
0010
0001
1001
1000
,
0010
1000
0100
0010
0001
0010
1100
0100
,
0010
0001
2000
3010
2000
3100
0020
0130
,
2000
3002
2003
3020
2030
3100
0020
0230
,
0320
0031
0020
0130
2000
3020
2030
3200
,
2300
0000
3020
0000
2030
0000
3100
0000
0010
0000
0001
0000
0020
0230
2300
3200
,
0320
0032
0023
0230
2300
3000
0100
0000
0010
0000
0100
0000
1000
0000
0010
0000
,
0100
0001
0100
0010
0100
0010
0100
0001
,
0010
0100
1000
0001
1000
0010
1000
0100
,
1000
0010
0100
0001
0100
0010
1000
0100
,
0010
0001
0010
0100
1000
0001
0010
0100
,
1000
0010
1000
0010
1000
0010
1000
0001
,
1000
0001
1000
0100
1000
0100
0010
0100
,
0010
0100
1000
0001
1000
0001
0100
0010
,
0100
0010
0100
0001
0100
0001
0010
0001
,
0010
0001
1000
0010
0100
0001
0100
0010
,
1000
0100
0010
0100
1000
0100
0010
0001
,
0010
0100
0010
0100
0010
0100
1000
0010
,
1000
0010
0100
0010
0100
0001
0010
0001
,
0010
0100
0010
0100
1000
0001
1000
0010
,
0100
0001
0100
0010
1000
0010
0100
0001
,
0010
0100
1000
0100
1000
0010
0100
0010
,
0100
0001
0100
0001
0100
0001
0010
0001
,
0010
0100
0010
0100
0010
0100
1000
0100
,
1000
0010
0100
0010
1000
0100
0010
0001
,
0010
0100
1000
0100
0010
0100
1000
0010
,
0100
0001
0011
0000
0000
0000
0110
0000
,
0110
0000
0001
0010
0100
0010
0001
0010
,
0100
1000
1100
0000
0000
0000
1010
0000
,
0101
0000
0000
0000
0001
0000
0100
0000
0010
0000
0100
0000
0001
0010
0100
1000
,
0100
0010
0001
0010
0011
0000
0000
0000
0000
0000
0000
0000
0011
0000
0000
0000
,
0011
0000
0000
0000
1000
0001
0100
0001
0010
0100
1000
0100
1000
0010
0100
0001
,
0100
0010
1000
0100
0010
0000
0000
0000
0000
0000
0000
0000
0001
0000
0000
0000
,
0000
0000
0000
0000
1000
0000
0000
0000
0000
0000
0010
0100
0001
0000
0000
0000
,
0000
0000
0110
0000
1001
0000
0110
0101
,
0011
0110
0200
2300
3020
0230
0320
2030
,
3200
0000
0000
0000
0000
0000
0000
0000
0320
0000
0000
0000
0000
0000
0000
0030
0011
0000
0000
0000
0000
0000
0000
0000
0000
0000
0000
0000
0000
0000
0000
0000
0110
0000
0000
0000
0000
0000
0000
0000
0000
0000
0000
0000
0000
0000
0000
0000
1100
0000
0000
0000
0000
0000
0000
0000
0000
0000
0000
0000
0000
0000
0000
0000
,
1001
0000
0000
0000
0002
0000
0203
0000
0320
0000
0230
0000
0302
0023
0230
2300
,
3002
0000
0000
0000
0023
0000
0000
0000
0230
0000
0000
0000
2300
0000
0000
3000
1001
0000
0000
0000
0000
0000
0000
0000
0000
0000
0000
0000
0000
0000
0000
0000
0101
0000
0000
0000
0000
0000
0000
0000
0000
0000
0000
0000
0000
0000
0000
0000
0011
0000
0000
0000
0000
0000
0000
0000
0110
0000
0000
0000
0000
0000
0000
0000
,
1100
0000
1001
0000
0002
0203
0320
2030
3002
0203
0320
2030
3200
0320
0032
2003
,
3200
0320
0032
2003
3002
0000
0000
0000
1010
0000
0000
0000
2013
0000
0000
0000
,
0110
0000
0000
0000
3002
0000
0000
0000
1100
0000
0013
1000
1100
0000
0000
0000
,
0110
0000
1001
0010
0100
0001
1001
1000
,
1100
0100
0020
0032
2003
3200
0320
0230
,
2300
0000
0000
0000
0000
0000
0000
0000
3020
0000
0000
0000
0000
0000
0000
0030
0110
0000
0000
0000
0000
0000
0000
0000
0100
0000
0000
0000
0000
0000
0000
0000
0001
0000
0000
0000
0000
0000
0000
0000
0010
0000
0000
0000
0000
0000
0000
0000
0110
0000
0000
0000
0000
0000
0000
0000
0100
0000
0000
0000
0000
0000
0000
0000
,
1100
0000
1000
0000
0020
0000
0230
0000
0320
0000
2030
0000
3200
0320
0230
2300
,
3002
0000
0000
0000
0023
0000
0000
0000
0230
0000
0000
0000
2300
0000
0000
3000
1001
0000
0000
0000
0000
0000
0000
0000
0001
0000
0000
0000
0000
0000
0000
0000
0100
0000
0000
0000
0000
0000
0000
0000
0010
0000
0000
0000
0000
0000
0000
0000
0110
0000
0000
0000
0000
0000
0000
0000
0100
0000
0000
0000
0000
0000
0000
0000
,
0101
0000
0001
0000
0020
0230
2300
3200
2300
3200
0320
0032
0023
0230
2300
3200
,
0320
0032
2003
3020
0230
0000
0301
0000
0010
0000
0100
0000
2000
0000
3010
0000
,
0100
0000
0010
0000
2000
0000
3100
0000
0010
0000
0001
0010
0100
0000
1000
0000
,
0001
1000
1010
0010
0100
0001
0011
0010
,
0110
0100
2000
3200
2300
3020
0230
0302
,
0203
0000
0000
0000
0000
0000
0000
0000
0320
0000
0000
0000
0000
0000
0000
0030
0110
0000
0000
0000
0000
0000
0000
0000
0100
0000
0000
0000
0000
0000
0000
0000
0001
0000
0000
0000
0000
0000
0000
0000
0010
0000
0000
0000
0000
0000
0000
0000
0110
0000
0000
0000
0000
0000
0000
0000
0100
0000
0000
0000
0000
0000
0000
0000
,
1100
0000
1000
0000
0002
0000
0203
0000
0320
0000
0230
0000
0302
0023
0230
0320
,
0032
0000
0000
0000
2003
0000
0000
0000
3020
0000
0000
0000
0230
0000
0000
0300
0101
0000
0000
0000
0000
0000
0000
0000
0001
0000
0000
0000
0000
0000
0000
0000
0010
0000
0000
0000
0000
0000
0000
0000
0100
0000
0000
0000
0000
0000
0000
0000
1001
0000
0000
0000
0000
0000
0000
0000
0100
0000
0000
0000
0000
0000
0000
0000
,
1001
0000
0001
0000
0200
0320
0230
0302
0023
0230
2300
3200
0320
0032
2003
3020
,
0230
0302
0023
0230
2300
0000
3100
0000
0010
0000
0001
0000
0020
0000
0130
0000
,
1000
0000
0010
0000
0200
0000
0310
0000
1000
0000
0100
0010
0001
0000
0010
0000
,
0100
1000
1M1M
0020
0230
0302
M2M3
0320
,
2030
3200
M32M
0032
0023
0230
23MM
3020
,
0230
0320
2M3M
3200
0320
0032
2MM3
3002
,
0023
0230
23MM
3020
0230
0302
M2M3
0320
,
2030
3200
M32M
0032
0023
0230
23MM
3002
,
2003
3020
M23M
0320
2030
3200
M32M
0032
,
0023
0230
23MM
3200
2300
3020
2M3M
3020
,
0230
0320
2M3M
3200
2300
3002
M2M3
0302
,
2003
3200
23MM
3002
0203
0302
2MM3
3020
,
2030
3002
MM23
0032
2003
3020
2M3M
3200
,
2300
3020
2M3M
3200
0320
0032
2MM3
3200
,
0320
0032
MM23
0230
2300
3002
MM23
0230
,
2300
3020
M23M
0302
2003
3020
M23M
0302
,
0023
0230
M32M
0230
2300
3002
2MM3
3020
,
0230
0302
M2M3
0320
2030
3200
M32M
0032
,
0023
0230
M32M
0230
2300
3002
M2M3
0320
,
0230
0300
MMMM
0000
0000
0000
0000
0000
,
0000
MMMM
0000
0000
,
0000
0000
0000
0000
,
0000
MMMM
0000
0000
,
0000
0000
0000
0000
,
0000
0000
0000
0000
,
0000
0000
0000
0000
,
0000
0000
0000
0000
,
0000
0000
0000
0000
,
0000
0000
0000
0000
,
0000
0000
0000
0000
0000
0000
0000
0000
MMMM
M000
000M
M000
000M
M000
000M
M000
000M
M000
000M
M000
000M
M000
000M
M000
000M
M000
000M
M000
000M
M000
000M
M000
,
000M
M000
000M
M000
000M
M000
000M
0000
M000
0000
000M
0000
M000
0000
000M
0000
M000
0000
000M
0000
M000
0000
000M
0000
M000
0000
000M
0000
M000
0000
000M
0000
,
0000
0000
0000
0000
M000
000M
M000
000M
0000
M000
0000
000M
0000
M000
0000
000M
,
0000
M000
0000
000M
0000
M000
0000
0000
0000
000M
0000
0000
0000
M000
0000
0000
,
0000
000M
0000
0000
0000
M000
0000
0000
0000
000M
0000
0000
0000
M000
0000
0000
,
0000
000M
0000
000M
0000
0000
0000
0000
0000
0000
0000
0000
0000
0000
0000
0000
;
