#TITLE:Discord;
#SUBTITLE:;
#ARTIST:Speedcore Industries;
#TITLETRANSLIT:;
#SUBTITLETRANSLIT:;
#ARTISTTRANSLIT:;
#CREDIT:;
#BANNER:../speedcore rejects ban.png;
#BACKGROUND:../speedcore rejects bg.png;
#LYRICSPATH:;
#CDTITLE:;
#MUSIC:Speedcore Industries - Discord.ogg;
#OFFSET:-0.087;
#SAMPLESTART:100.038;
#SAMPLELENGTH:12.000;
#SELECTABLE:YES;
#BPMS:0.000=240.000;
#STOPS:;
#BGCHANGES:;
// cache tags:
#FIRSTBEAT:32.000;
#LASTBEAT:585.000;
#SONGFILENAME:Songs/Speedcore Rejects/Discord - [Rynker]/discord.sm;
#HASMUSIC:1;
#HASBANNER:1;
#MUSICLENGTH:155.363;
// end cache tags

//---------------dance-single - Rynker----------------
#NOTES:
     dance-single:
     Rynker:
     Challenge:
     13:
     0.984,1.000,0.084,0.406,0.557,994.000,13.000,63.000,1.000,0.000:

0000
0000
0000
0000
,
0000
0000
0000
0000
,
0000
0000
0000
0000
,
0000
0000
0000
0000
,
0000
0000
0000
0000
,
0000
0000
0000
0000
,
0000
0000
0000
0000
,
0000
0000
0000
0000
,
1000
0100
0010
0001
,
1000
0010
0100
0001
,
1000
0010
1000
0010
,
0100
0001
1000
0100
,
0010
0001
0010
0001
,
1000
0001
0100
0010
,
1000
0001
1000
0001
,
0010
0000
0000
0000
0100
0000
0000
0000
1000
0100
1000
0000
0001
0000
0100
0000
,
0020
0000
2030
0000
,
3200
0000
0320
0000
,
0032
0000
2003
0000
,
3020
0000
0230
0000
,
0302
0000
0023
0000
,
0230
0000
2300
0000
,
3002
0000
0203
0000
,
0320
0000
0230
0000
,
0301
1000
0100
0010
,
0001
0010
0100
1000
,
0001
0000
0000
0000
0100
0000
0000
0000
0001
1000
0001
1000
0001
0000
0000
0000
,
0100
0000
0000
0000
0010
0000
0000
0000
1000
0001
1000
0100
0010
0001
1000
0001
,
1000
0001
0010
0100
,
1000
0001
0100
0010
,
0100
0000
0000
0000
0001
0000
0000
0000
1000
0100
1000
0100
1000
0000
0000
0000
,
0001
0000
0000
0000
0100
0000
0000
0000
0001
1000
0001
0100
0010
0100
0001
1000
,
0002
0000
1003
0000
,
1000
0000
1000
0000
,
0022
0000
0000
0000
0000
0030
0000
0003
1000
0001
0100
0000
0001
0000
1000
0000
,
0100
0000
0000
0000
0000
0000
0000
0000
1000
0100
0010
0001
1000
0001
1000
0100
,
2000
0000
3001
0000
,
0001
0000
0001
0000
,
2020
0000
0000
0000
0000
0000
0030
0000
3001
0100
0010
0000
1000
0000
0100
0000
,
0010
0000
0000
0000
0000
0000
0000
0000
0001
0100
0010
1000
0001
1000
0010
0100
,
0001
1000
0100
0010
0100
1000
0001
0100
,
0010
0100
0001
1000
0100
0010
0001
1000
,
0001
0000
0100
0000
0010
0000
1000
0000
0100
1000
0001
0000
1000
0001
1000
0000
,
0001
0000
0100
0000
0010
0000
1000
0000
0010
0100
0001
1000
0100
0010
0100
1000
,
0001
0010
0100
1000
0001
0100
0010
0100
,
0001
1000
0100
0010
0001
0100
0010
0100
,
0001
0000
0010
0000
0100
0000
1000
0000
0001
0010
0100
0000
1000
0100
0010
0000
,
0001
0000
1000
0000
0001
0000
0100
0000
0001
0100
0010
0100
0001
1000
0100
1000
,
0001
0100
0010
0100
0001
1000
0010
0100
,
0001
1000
0100
0010
0001
0010
0100
1000
,
0001
0000
0010
0000
0100
0000
1000
0000
0100
1000
0001
0000
1000
0001
0010
0000
,
0001
0000
0100
0000
0010
0000
0100
0000
0001
1000
0010
0100
0001
1000
0100
0010
,
0001
0010
0100
1000
0010
0100
0001
0010
,
0001
0100
0010
1000
0100
0010
0100
1000
,
0010
0000
0100
0000
0001
0000
0100
0000
0010
1000
0001
0000
0100
0001
1000
0000
,
0001
0000
0010
0000
0100
0000
1000
0000
0100
0010
0001
0010
0100
1000
0001
0100
,
0001
1000
1010
0001
,
0101
0000
1000
0000
1100
0000
0001
1000
,
1100
0000
0000
0000
0001
0000
0000
0000
0100
0001
0100
0000
0001
0100
0000
0000
,
0101
0000
0000
0000
1000
0000
0000
0000
0001
0010
0001
1000
0100
0010
0001
1000
,
0001
1000
1100
0001
,
0101
0000
1000
0000
1010
0000
0001
0100
,
0101
0000
0000
0000
0001
0000
0000
0000
1000
0100
1000
0000
0100
1000
0000
0000
,
1100
0000
0000
0000
1000
0000
0000
0000
0100
0010
0001
0010
0100
1000
0001
1000
,
0001
1000
0010
0100
,
0001
0000
1000
0000
0100
0000
0010
0001
,
1000
0000
0000
0000
0001
0000
0000
0000
0100
0001
0100
0000
0010
1000
0000
0000
,
0001
0000
0000
0000
1000
0000
0000
0000
0001
1000
0100
0010
0001
1000
0001
1000
,
0010
0100
0001
0100
,
0010
0000
1000
0000
0001
0000
0010
0100
,
1000
0000
0000
0000
0001
0000
0000
0000
1000
0010
1000
0000
0001
1000
0000
0000
,
0010
0000
0000
0000
0100
0000
0000
0000
0001
1000
0001
1000
0001
0010
0100
1000
,
0002
0023
0230
2300
,
3002
0000
0203
0000
0320
0000
1030
0001
,
0020
0000
0000
0000
0230
0000
0000
0000
1300
0001
0100
0000
0001
0100
0000
0000
,
0002
0000
0000
0000
0023
0000
0000
0000
0130
1000
0001
0100
0010
0100
0001
1000
,
0002
2003
3020
0230
,
0302
0000
0023
0000
0230
0000
1300
0100
,
0020
0000
0000
0000
0032
0000
0000
0000
1003
0100
1000
0000
0001
0100
0000
0000
,
0002
0000
0000
0000
2003
0000
0000
0000
3010
0100
0001
1000
0001
1000
0100
0010
,
0002
2003
3020
0230
,
0302
0000
0023
0000
0230
0000
1300
0100
,
0020
0000
0000
0000
0032
0000
0000
0000
1003
0001
0100
0000
0001
0100
0000
0000
,
0002
0000
0000
0000
0023
0000
0000
0000
0130
1000
0100
0010
0001
1000
0001
0100
,
0020
2030
3200
0320
,
0032
0000
0203
0000
0320
0000
1030
0001
,
0100
0000
0000
0000
1010
0000
0000
0000
0001
1000
0001
0000
1000
0001
0000
0000
,
1000
0000
0000
0000
1000
0000
0000
0000
0001
1000
0010
0100
0001
1000
0001
1000
,
0001
0010
0100
1000
0001
1000
0010
0100
,
0001
1000
0100
0010
0001
1000
0010
1000
,
0001
0000
0010
0000
0100
0000
1000
0000
0001
1000
0001
0000
1000
0100
0010
0000
,
0001
0000
1000
0000
0001
0000
0100
0000
0001
0100
0010
0100
0001
1000
0010
1000
,
0001
0100
0010
0100
0001
1000
0010
0100
,
0001
1000
0100
0010
0001
0010
0100
1000
,
0001
0000
0010
0000
0100
0000
1000
0000
0001
0010
0001
0000
0010
0100
1000
0000
,
0001
0000
0010
0000
0100
0000
1000
0000
0001
1000
0010
0100
0001
1000
0100
0010
,
0001
0010
0100
1000
0010
0100
0001
0010
,
0001
0100
0010
1000
0100
0010
0100
1000
,
0010
0000
0100
0000
0001
0000
0100
0000
0010
1000
0001
0000
0100
0001
1000
0000
,
0001
0000
0010
0000
0100
0000
1000
0000
0100
0010
0001
0010
0100
1000
0001
0010
,
0001
0010
0100
1000
0001
0100
0010
0100
,
0001
1000
0100
0010
0001
0100
0010
0100
,
0001
0000
0010
0000
0100
0000
1000
0000
0001
0010
0100
0000
1000
0100
0010
0000
,
0001
0000
1000
0000
0001
0000
0100
0000
0001
0100
0010
1000
0001
1000
0010
0100
,
0001
0100
0010
0100
0001
1000
0010
0100
,
0001
1000
0100
0010
0001
0010
0100
1000
,
0001
0000
0010
0000
0100
0000
1000
0000
0100
1000
0001
0000
1000
0001
0010
0000
,
0001
0000
0100
0000
0010
0000
0100
0000
0001
1000
0010
0100
0001
1000
0100
0010
,
0001
0010
0100
1000
0010
0100
0001
0010
,
0001
0100
0010
1000
0100
0010
0100
1000
,
0010
0000
0100
0000
0001
0000
0100
0000
0010
1000
0001
0000
0100
0001
1000
0000
,
0001
0000
0010
0000
0100
0000
1000
0000
0001
0100
0010
1000
0001
1000
0001
0100
,
0001
0010
0100
1000
0001
0100
0010
0100
,
0001
1000
0100
0010
0001
0100
0010
0100
,
0001
0000
0010
0000
0100
0000
1000
0000
0001
1000
0001
0000
0100
0010
1000
0000
,
0001
0000
1000
0000
0001
0000
0100
0000
0001
0010
0100
0010
0001
1000
0010
1000
,
0001
0100
0010
0100
0001
1000
0010
0100
,
0001
1000
0100
0010
0001
0010
0100
1000
,
0001
0000
0010
0000
0100
0000
1000
0000
0100
1000
0001
0000
1000
0001
0010
0000
,
0001
0000
0100
0000
0010
0000
0100
0000
0001
1000
0100
0010
0001
1000
0010
0100
,
0001
0010
0100
1000
0010
0100
0001
0010
,
0001
0100
0010
1000
0100
0010
0100
1000
,
0010
0000
0100
0000
0001
0000
0100
0000
0010
1000
0001
0000
0100
0001
1000
0000
,
0001
0000
0010
0000
0100
0000
1000
0000
0001
0100
0001
0100
0010
1000
0010
0100
,
0001
0010
0100
1000
0001
0100
0010
0100
,
0001
1000
0100
0010
0001
0100
0010
0100
,
0001
0000
0010
0000
0100
0000
1000
0000
0001
0010
0100
0000
1000
0100
0010
0000
,
0001
0000
1000
0000
0001
0000
0100
0000
0001
0010
0100
0010
0001
1000
0001
1000
,
0100
0010
0001
1000
0010
1000
0001
0100
,
0001
1000
0100
0010
0001
0010
0001
0010
,
0100
0000
1000
0000
0001
0000
0100
0000
0010
1000
0001
0000
1000
0001
0100
0000
,
0001
0000
0100
0000
0010
0000
0100
0000
0001
1000
0010
0100
0001
1000
0010
0100
,
0001
0010
0100
1000
0010
0100
0001
0010
,
0001
0100
0010
1000
0010
1000
0010
0100
,
0001
0000
1000
0000
0001
0000
0100
0000
0010
1000
0001
0000
0100
0001
1000
0000
,
0001
0000
0010
0000
0100
0000
1000
0000
0100
0010
0001
0010
0100
1000
0001
0010
,
0100
0010
0100
1000
0001
0100
0010
0100
,
0001
1000
0100
0010
0001
0100
0010
0100
,
0001
0000
0010
0000
0100
0000
1000
0000
0001
0010
0100
0000
1000
0100
0010
0000
,
0001
0000
1000
0000
0001
0000
0010
0000
0100
0010
0100
1000
0001
0100
0001
1000
,
0020
0000
0030
0000
,
0000
0000
0000
0000
,
0000
0000
0000
0000
,
0000
0000
0000
0000
,
0000
0000
0000
0000
,
0000
0000
0000
0000
,
0000
00M0
0000
0000
;
