#TITLE:MAXX Nintendo;
#SUBTITLE:;
#ARTIST:DJ Tepples;
#TITLETRANSLIT:;
#SUBTITLETRANSLIT:;
#ARTISTTRANSLIT:;
#CREDIT:;
#BANNER:ba.png;
#BACKGROUND:bg.jpg;
#LYRICSPATH:;
#CDTITLE:!cleaner88hpi.png;
#MUSIC:maxxnintendo.mp3;
#OFFSET:-0.800;
#SAMPLESTART:32.820;
#SAMPLELENGTH:13.060;
#SELECTABLE:YES;
#DISPLAYBPM:105.000:740.000;
#BPMS:0.000=300.000,76.000=150.000,78.000=300.000,158.000=280.000,190.000=300.000,222.000=150.000,238.000=300.000,270.000=140.000,278.000=666666.688,286.000=745.000,293.000=680.000,294.000=660.000,295.000=630.000,296.000=555.000,297.000=480.001,298.000=400.002,299.000=390.002,300.000=380.002,301.000=370.002,302.000=360.003,303.000=290.003,304.000=270.004,305.000=240.004,306.000=150.003,307.000=137.003,307.500=105.003,308.000=320.003,482.000=342.002,482.250=383.002,482.500=426.002,482.750=436.802,483.000=441.182,483.250=449.422,483.500=470.021,483.750=498.021,484.000=534.021,484.250=571.620,484.500=608.419,484.750=640.419,485.000=642.819,485.250=702.018,485.500=720.838,485.750=739.017,486.000=739.998,486.250=746.858,486.500=773.678,486.750=819.277,487.000=856.876,487.250=912.875,487.500=936.075,487.750=964.875,488.000=986.474,488.250=1007.274,488.500=1031.274,488.750=1052.876,489.000=1089.678,489.250=1096.878,489.500=1100.078,489.750=1107.279,490.000=1113.679,490.250=1122.480,490.500=1131.280,490.750=1138.481,491.000=1134.481,491.250=1136.881,491.500=1147.281,491.750=1130.480,492.000=1133.681,492.250=1136.881,492.500=1138.481,492.750=1174.483,494.000=2099.999;
#STOPS:;
#BGCHANGES:;
// cache tags:
#FIRSTBEAT:0.000;
#LASTBEAT:482.000;
#SONGFILENAME:Songs/Hard Songs Megapack Volume 9/MAXX Nintendo/maxxnintendo.sm;
#HASMUSIC:1;
#HASBANNER:1;
#MUSICLENGTH:98.455;
// end cache tags

//---------------dance-single - good f**king luck----------------
#NOTES:
     dance-single:
     good f**king luck:
     Beginner:
     15:
     1.000,1.000,1.000,0.193,1.000,982.000,225.000,19.000,134.000,11.000:
1001
0010
0000
0000
0000
0000
0000
0000
0000
0000
0000
0000
0000
0000
0000
0000
0000
0000
0000
0000
1000
0100
0000
0000
0000
0000
0000
0000
0000
0000
0000
0000
0000
0000
0000
0000
0000
0000
0000
0000
0000
0000
0000
0000
0000
0000
0000
0000
,
0000
0000
0000
0000
,
1001
0010
0000
0000
0000
0000
0000
0000
0000
0000
0000
0000
0000
0000
0000
0000
0000
0000
0000
0000
1000
0001
0000
0000
0000
0000
0000
0000
0000
0000
0000
0000
0000
0000
0000
0000
0000
0000
0000
0000
0000
0000
0000
0000
0000
0000
0000
0000
,
0000
0000
0000
0000
,
1001
0010
0000
0000
0000
0000
0000
0000
0000
0000
0000
0000
0000
0000
0000
0000
0000
0000
0000
0000
1000
0100
0000
0000
0000
0000
0000
0000
0000
0000
0000
0000
0000
0000
0000
0000
0000
0000
0000
0000
0000
0000
0000
0000
0000
0000
0000
0000
,
0000
0000
0000
0000
0000
0000
0000
0000
0000
0000
0000
0000
0000
0000
0000
0000
0000
0000
0000
0000
0000
0000
0000
0000
0000
0000
0000
0000
0000
0000
0000
0000
0000
0000
0000
0000
1000
0010
0000
0000
0000
0000
0000
0000
0000
0000
0000
0000
,
1001
0010
0000
0000
0000
0000
0000
0000
0000
0000
0000
0000
0000
0000
0000
0000
0000
0000
0000
0000
1000
0100
0000
0000
0000
0000
0000
0000
0000
0000
0000
0000
0000
0000
0000
0000
0000
0000
0000
0000
0000
0000
0000
0000
0000
0000
0000
0000
,
2002
0000
0000
0000
0000
0000
0000
0000
0000
0000
0000
0000
0000
0000
0000
3003
,
0100
0010
0000
0000
0000
0000
0000
0000
0000
0000
0100
1000
0000
0000
0000
0000
0000
0000
0000
0000
0000
0000
0000
0000
,
0100
0010
0000
0000
0000
0000
0000
0000
0000
0000
0100
1000
0000
0000
0000
0000
0000
0000
0000
0000
0000
0000
0000
0000
,
0100
0010
0000
0000
0000
0000
0000
0000
0000
0000
0100
0001
0000
0000
0000
0000
0000
0000
0000
0000
0000
0000
0000
0000
,
0100
0010
0000
0000
0000
0000
0000
0000
0000
0000
0100
0001
0000
0000
0000
0000
0000
0000
0000
0000
0000
0000
0000
0000
,
0100
0010
0000
0000
0000
0000
0000
0000
0000
0000
0100
1000
0000
0000
0000
0000
0000
0000
0000
0000
0000
0000
0000
0000
,
0100
0010
0000
0000
0000
0000
0000
0000
0000
0000
0100
1000
0000
0000
0000
0000
0000
0000
0100
0010
0000
0000
0000
0000
,
0100
0010
0000
0000
0000
0000
0000
0000
0000
0000
0100
0001
0000
0000
0000
0000
0000
0000
0000
0000
0000
0000
0000
0000
,
0100
0010
0000
0000
0000
0000
0000
0000
0000
0000
0100
0001
0000
0000
0000
0000
0000
0000
0000
0000
0000
0000
0000
0000
,
1000
0100
0000
0100
0010
0100
0001
0100
,
1000
0100
0000
0100
0010
0100
0001
0100
,
1000
0100
0000
0100
0010
0100
0001
0100
,
1000
0100
0000
0010
0000
0001
0000
0001
0010
0000
0100
0000
0000
0000
0100
0000
,
0010
0100
0001
0100
0010
0100
0000
0100
,
0010
0100
0001
0100
0010
0100
0000
0100
,
0010
0100
0001
0100
0020
0230
0300
0200
,
2310
0001
0000
0000
0000
0000
3200
0000
0000
0000
0000
0000
0300
0000
0000
0000
0000
0000
0002
0000
0000
0000
0000
0000
0113
0000
0000
0000
0000
0000
0000
0000
0000
0000
0000
0000
0110
0000
0000
0000
0000
0000
0000
0000
0000
0000
0000
0000
,
0000
0101
0000
0101
0101
0000
1001
0000
,
0000
1001
0000
1001
1001
0000
0101
0000
,
0000
1010
0000
1010
1010
0100
0011
0100
,
1010
0100
0011
0100
1001
0000
0011
0000
,
0000
0011
0000
0101
0101
0000
0110
0000
,
0000
1010
0000
0101
0101
0000
1001
0000
,
0000
1100
0000
0110
0110
1000
0101
0010
,
1100
0010
0101
0010
1100
0000
0101
0000
,
0000
0101
0000
0110
0110
0000
1010
0000
,
0000
0101
0000
0101
0101
0000
1010
0000
,
0000
0101
0000
0101
0101
0010
0101
0010
,
1100
0010
0101
0010
1001
0000
0101
0000
,
0000
0101
0000
0101
0101
0000
0101
0000
,
0000
0110
0000
0110
0110
0000
1100
0000
,
0000
0101
0000
1001
0110
0110
0110
0110
,
0110
0000
0110
0000
0110
0000
0110
0000
1000
0100
1000
0100
1000
0100
1000
0100
,
1000
0100
1000
0100
1000
0100
1000
0100
1000
0100
1000
0100
1000
0100
1000
0100
,
1000
0100
1000
0100
1000
0100
1000
0100
1000
0010
1000
0010
1000
0010
1000
0010
,
1000
0010
1000
0010
1000
0001
1000
0001
1000
0001
1000
0001
1000
0001
1000
0001
,
1000
0100
1000
0100
1000
0100
1000
0100
1000
0010
1000
0010
1000
0010
1000
0010
,
1000
0010
1000
0010
1000
0010
1000
0010
1000
0010
1000
0010
1000
0010
1000
0010
,
1000
0010
1000
0010
1000
0010
1000
0010
1000
0001
1000
0001
1000
0001
1000
0001
,
1000
0001
1000
0001
0100
0001
0100
0001
0100
0001
0100
0001
0100
0001
0100
0001
,
0010
1000
0010
1000
0010
1000
0010
1000
0001
1000
0001
1000
0011
1000
0001
1000
,
0001
1000
0001
1000
0011
1000
0001
1000
0001
1000
0001
1000
0011
1000
0001
1000
,
0001
1000
0001
1000
0011
1000
0001
1000
0001
0100
0001
0100
1001
0100
0001
0100
,
0001
0100
0001
0100
1001
0010
0001
0010
0001
0010
0001
0010
1001
0010
0001
0010
,
0001
1000
0001
1000
0101
1000
0001
1000
0001
0010
0001
0010
0101
0010
0001
0010
,
0001
0010
0001
0010
0101
0010
0001
0010
0001
0010
0001
0010
0101
0010
0001
0010
,
0001
0010
0001
0010
0101
0010
0001
0010
1000
0100
1000
0100
1001
0100
1000
0100
,
1000
0100
1000
0100
1001
0010
1000
0010
1000
0010
1000
0010
1100
0010
1100
0010
,
1100
0000
0001
0000
1100
0000
0001
0000
1100
0000
0001
0000
1100
0000
0001
0000
0010
0100
0010
0100
1010
0100
0010
0100
0010
0100
1010
0100
0010
0100
0010
0100
,
1010
0100
0010
0100
0010
0100
1010
0100
0010
0100
0010
0100
0011
0100
0010
0100
0010
0100
0010
0100
1010
0100
0010
0100
0010
0100
1010
0100
0010
0100
0010
0100
,
1010
0100
0010
0100
0010
0100
1010
0100
0010
0100
0010
0100
0011
0100
0010
0100
0001
1000
0001
1000
0101
1000
0001
1000
0001
1000
0101
1000
0001
1000
0001
1000
,
0101
1000
0001
1000
0001
1000
0101
1000
0001
1000
0001
1000
0011
1000
0001
1000
0001
1000
0001
1000
0101
1000
0001
1000
0001
1000
0101
1000
0001
1000
0001
1000
,
0101
1000
0001
1000
0001
1000
0101
1000
0001
1000
0001
1000
0011
1000
0001
1000
0001
0000
0100
0000
0001
0000
0100
0000
1011
0000
0100
0000
0001
0000
0100
0000
,
0001
0100
0011
0100
1001
0100
0001
0100
0011
0100
0001
0100
1001
0100
0011
0100
,
0001
0100
0001
0100
1011
0100
0001
0100
0001
0100
0001
0100
1011
0100
0001
0100
,
0001
0100
0011
0100
1001
0100
0001
0100
0011
0100
0001
0100
1001
0100
0011
0100
,
0001
0100
0001
0100
1011
0100
0001
0100
1000
0010
1000
0010
1101
0010
1000
0010
,
1000
0010
1100
0010
1001
0010
1000
0010
1100
0010
1000
0010
1001
0010
1100
0010
,
1000
0010
1000
0010
1101
0010
1000
0010
1000
0010
1000
0010
1101
0010
1000
0010
,
1000
0010
1100
0010
1001
0010
1000
0010
1100
0010
1000
0010
1001
0010
1101
0010
,
1001
0010
1001
0010
1101
0010
1001
0010
0002
0000
0100
0000
0000
0100
0000
0000
,
0100
0000
0000
0100
0000
0000
0010
0000
0000
0000
0100
0000
0000
0100
0000
0000
,
0100
0000
0000
0100
0000
0000
0013
0000
2002
0000
0000
0000
0000
0000
0000
0000
,
0000
0000
0000
0000
,
0000
0000
0000
0000
0000
0000
0000
0000
0M00
00M0
0M00
00M0
0M00
00M0
0M00
00M0
,
0M00
00M0
0M00
00M0
0M00
00M0
0M00
00M0
0M00
00M0
0M00
00M0
0M00
00M0
0M00
00M0
,
0M00
00M0
0M00
00M0
0M00
00M0
0M00
00M0
0M00
00M0
0M00
00M0
0M00
00M0
0M00
00M0
,
0M00
00M0
0M00
00M0
0M00
00M0
0M00
00M0
0M00
00M0
0M00
00M0
0M00
00M0
0M00
00M0
,
0M00
0000
0000
0000
0000
0000
0000
0000
0000
0000
0000
0000
00M0
0000
0000
0000
0000
0000
0000
0000
0000
0000
0000
0000
0M00
0000
0000
0000
0000
0000
0000
0000
0000
0000
0000
0000
00M0
0000
0000
0000
0000
0000
0000
0000
0000
0000
0000
0000
0M00
0000
0000
0000
0000
0000
0000
0000
0000
0000
0000
0000
00M0
0000
0000
0000
0000
0000
0000
0000
0000
0000
0000
0000
0M00
0000
0000
0000
0000
0000
0000
0000
0000
0000
0000
0000
00M0
0000
0000
0000
0000
0000
0000
0000
0000
0000
0000
0000
0M00
0000
0000
0000
0000
0000
0000
0000
00M0
0000
0000
0000
0000
0000
0000
0000
0M00
0000
0000
0000
0000
0000
0000
0000
00M0
0000
0000
0000
0000
0000
0000
0000
0M00
0000
0000
0000
0000
0000
0000
0000
00M0
0000
0000
0000
0000
0000
0000
0000
0M00
0000
0000
0000
0000
0000
00M0
0000
0000
0000
0000
0000
0M00
0000
0000
0000
0000
0000
00M0
0000
0000
0000
0000
0000
0M00
0000
0000
0000
0000
0000
00M0
0000
0000
0000
0000
0000
0M00
0000
0000
0000
0000
0000
00M0
0000
0000
0000
0000
0000
,
0M00
0000
0000
0000
00M0
0000
0000
0000
0M00
0000
0000
0000
00M0
0000
0000
0000
0M00
0000
0000
0000
00M0
0000
0000
0000
0M00
0000
0000
0000
00M0
0000
0000
0000
0M00
0000
0000
0000
00M0
0000
0000
0000
0M00
0000
0000
0000
00M0
0000
0000
0000
0M00
0000
0000
00M0
0000
0000
0M00
0000
0000
00M0
0000
0000
0M00
0000
0000
00M0
0000
0000
0M00
0000
0000
00M0
0000
0000
0M00
0000
0000
00M0
0000
0000
0M00
0000
0000
00M0
0000
0000
0M00
0000
0000
00M0
0000
0000
0M00
0000
0000
00M0
0000
0000
0MM0
0000
0000
0MM0
0000
0000
0MM0
0000
0000
0MM0
0000
0000
0MM0
0000
0000
0MM0
0000
0000
0MM0
0000
0000
0MM0
0000
0000
0MM0
0000
0000
0MM0
0000
0000
0MM0
0000
0000
0MM0
0000
0000
0MM0
0000
0000
0MM0
0000
0000
0000
0000
0000
0000
0000
0000
3003
0000
0000
0000
0000
0000
0000
0000
0000
0000
0000
0000
0000
0000
0000
0000
0000
0000
0000
0000
0000
0000
0000
0000
0000
0000
0000
0000
0000
0000
0000
0000
0000
0000
0000
0000
0000
0000
0000
0000
0000
0000
0000
0000
0000
0000
0000
0000
,
1000
0100
0011
0001
1000
0100
0011
0001
,
1000
0100
0011
0001
1000
0100
0011
0001
,
1000
0100
0011
0001
1000
0100
0011
0001
,
1000
0100
0011
0001
1000
0110
0010
0011
,
1000
0010
0110
0001
1000
0010
0110
0001
,
1000
0010
0110
0001
1000
0010
0110
0001
,
1000
0010
0110
0001
1000
0010
0110
0001
,
1000
0010
0110
0001
1000
0110
0110
0110
,
1000
0100
0011
0001
1000
0100
0011
0001
,
1000
0100
0011
0001
1000
0100
0011
0001
,
1000
0100
0011
0001
1000
0100
0011
0001
,
1000
0100
0011
0001
1000
0110
0010
0011
,
1000
0010
0110
0001
1000
0010
0110
0001
,
1000
0010
0110
0001
1000
0010
0110
0001
,
0110
0110
0110
0000
1100
1100
1100
0000
,
1100
1100
0011
0011
0101
0101
1010
1010
,
0100
0010
0000
0000
0000
0000
0000
0000
0000
0100
1000
0000
0000
0000
0000
0000
0000
0000
0000
0000
0000
0000
0000
0000
,
1000
0001
0000
0000
0000
0000
0000
0000
0000
1000
0100
0000
0000
0000
0000
0000
0000
0000
0000
0000
0000
0000
0000
0000
,
0010
0100
0000
0000
0000
0000
0000
0000
0000
0100
1000
0000
0000
0000
0000
0000
0000
0000
0000
0000
0000
0000
0000
0000
,
1000
1000
2002
0000
0000
0000
0000
3003
,
0100
0010
0000
0000
0000
0000
0000
0000
0000
0100
1000
0000
0000
0000
0000
0000
0000
0000
0000
0000
0000
0000
0000
0000
,
1000
0001
0000
0000
0000
0000
0000
0000
0000
1000
0100
0000
0000
0000
0000
0000
0000
0000
0000
0000
0000
0000
0000
0000
,
0100
0010
0000
0000
0000
0000
0000
0000
0000
0100
1000
0000
0000
0000
0000
0000
0000
0000
0000
0000
0000
0000
0000
0000
,
1000
0100
0000
0000
0000
0000
0100
0010
0000
0000
0000
0000
0100
1000
0000
0000
0000
0000
0100
0001
0000
0000
0000
0000
,
0100
0010
0000
0000
0000
0000
0000
0000
0000
0100
1000
0000
0000
0000
0000
0000
0000
0000
0000
0000
0000
0000
0000
0000
,
1000
0001
0000
0000
0000
0000
0000
0000
0000
1000
0100
0000
0000
0000
0000
0000
0000
0000
0000
0000
0000
0000
0000
0000
,
0100
0010
0000
0000
0000
0000
0000
0000
0000
0010
0100
0000
0000
0000
0000
0000
0000
0000
0100
0010
0000
0000
0000
0000
,
0100
0010
0000
0000
0000
0000
2002
0000
0000
0000
0000
0000
0000
0000
0000
0000
0000
0000
0000
0000
0000
3003
0000
0000
,
0100
0010
0000
0000
0000
0000
0000
0000
0000
0100
1000
0000
0000
0000
0000
0000
0000
0000
0000
0000
0000
0000
0000
0000
,
1000
0001
0000
0000
0000
0000
0000
0000
0000
1000
0100
0000
0000
0000
0000
0000
0000
0000
0000
0000
0000
0000
0000
0000
,
0010
0001
0000
0000
0000
0000
0000
0000
0000
0001
0010
0000
0000
0000
0000
0000
0000
0000
0010
0001
0000
0000
0000
0000
,
0010
0001
0000
0000
0000
0000
2002
0000
0000
0000
0000
0000
0000
0000
0000
0000
0000
0000
0000
0000
0000
3003
0000
0000
,
1010
0001
0000
1000
0000
0000
1000
0000
0000
1010
0100
0000
1000
0000
0000
1000
0000
0000
1000
0000
0000
1000
0000
0000
,
1010
0001
0000
1000
0000
0000
1000
0000
0000
1010
0100
0000
1000
0000
0000
1000
0000
0000
1000
0000
0000
1000
0000
0000
,
1001
0100
0000
0001
0000
0000
0001
0000
0000
0101
0010
0000
0001
0000
0000
0001
0000
0000
0001
0000
0000
0001
0000
0000
,
1001
0100
0000
0001
0000
0000
0001
0000
0000
0101
0010
0000
0001
0000
0000
0001
0000
0000
0001
0000
0000
0001
0000
0000
,
0110
0001
0000
0100
0000
0000
0100
0000
0000
0110
1000
0000
0100
0000
0000
0100
0000
0000
0100
0000
0000
0100
0000
0000
,
0110
0001
0000
0100
0000
0000
0100
0000
0000
0110
1000
0000
0100
0000
0000
0100
0000
0000
0110
0000
0000
0000
0000
0000
,
0110
0000
0000
1001
0000
0000
0000
0000
,
0110
0000
0000
1001
0000
0000
0000
0000
,
0110
0110
0000
1001
0110
0110
0000
1001
,
0110
0110
0000
1001
0110
0110
0000
1001
,
2002
0000
0000
0000
,
0000
0000
3003
0000
;

//---------------dance-single - Copied from----------------
#NOTES:
     dance-single:
     Copied from:
     Challenge:
     15:
     1.000,1.000,0.234,0.142,1.000,969.000,23.000,14.000,134.000,0.000:
1000
0010
0000
0000
0000
0000
0000
0000
0000
0000
0000
0000
0000
0000
0000
0000
0000
0000
0000
0000
1000
0100
0000
0000
0000
0000
0000
0000
0000
0000
0000
0000
0000
0000
0000
0000
0000
0000
0000
0000
0000
0000
0000
0000
0000
0000
0000
0000
,
0000
0000
0000
0000
,
1000
0010
0000
0000
0000
0000
0000
0000
0000
0000
0000
0000
0000
0000
0000
0000
0000
0000
0000
0000
1000
0001
0000
0000
0000
0000
0000
0000
0000
0000
0000
0000
0000
0000
0000
0000
0000
0000
0000
0000
0000
0000
0000
0000
0000
0000
0000
0000
,
0000
0000
0000
0000
,
1000
0010
0000
0000
0000
0000
0000
0000
0000
0000
0000
0000
0000
0000
0000
0000
0000
0000
0000
0000
1000
0100
0000
0000
0000
0000
0000
0000
0000
0000
0000
0000
0000
0000
0000
0000
0000
0000
0000
0000
0000
0000
0000
0000
0000
0000
0000
0000
,
0000
0000
0000
0000
0000
0000
0000
0000
0000
0000
0000
0000
0000
0000
0000
0000
0000
0000
0000
0000
0000
0000
0000
0000
0000
0000
0000
0000
0000
0000
0000
0000
0000
0000
0000
0000
1000
0010
0000
0000
0000
0000
0000
0000
0000
0000
0000
0000
,
1000
0010
0000
0000
0000
0000
0000
0000
0000
0000
0000
0000
0000
0000
0000
0000
0000
0000
0000
0000
1000
0100
0000
0000
0000
0000
0000
0000
0000
0000
0000
0000
0000
0000
0000
0000
0000
0000
0000
0000
0000
0000
0000
0000
0000
0000
0000
0000
,
2002
0000
0000
0000
0000
0000
0000
0000
0000
0000
0000
0000
0000
0000
0000
0003
,
3100
0010
0000
0000
0000
0000
0000
0000
0000
0000
0100
1000
0000
0000
0000
0000
0000
0000
0000
0000
0000
0000
0000
0000
,
0100
0010
0000
0000
0000
0000
0000
0000
0000
0000
0100
1000
0000
0000
0000
0000
0000
0000
0000
0000
0000
0000
0000
0000
,
0100
0010
0000
0000
0000
0000
0000
0000
0000
0000
0100
0001
0000
0000
0000
0000
0000
0000
0000
0000
0000
0000
0000
0000
,
0100
0010
0000
0000
0000
0000
0000
0000
0000
0000
0100
0001
0000
0000
0000
0000
0000
0000
0000
0000
0000
0000
0000
0000
,
0100
0010
0000
0000
0000
0000
0000
0000
0000
0000
0100
1000
0000
0000
0000
0000
0000
0000
0000
0000
0000
0000
0000
0000
,
0100
0010
0000
0000
0000
0000
0000
0000
0000
0000
0100
1000
0000
0000
0000
0000
0000
0000
0100
0010
0000
0000
0000
0000
,
0100
0010
0000
0000
0000
0000
0000
0000
0000
0000
0100
0001
0000
0000
0000
0000
0000
0000
0000
0000
0000
0000
0000
0000
,
0100
0010
0000
0000
0000
0000
0000
0000
0000
0000
0100
0001
0000
0000
0000
0000
0000
0000
0000
0000
0000
0000
0000
0000
,
1000
0100
0000
0100
0010
0100
0001
0100
,
1000
0100
0000
0100
0010
0100
0001
0100
,
1000
0100
0000
0100
0010
0100
0001
0100
,
1000
0100
0000
0010
0000
0001
0000
0001
0010
0000
0100
0000
0000
0000
0100
0000
,
0010
0100
0001
0100
0010
0100
0000
0100
,
0010
0100
0001
0100
0010
0100
0000
0100
,
0010
0100
0001
0100
0020
0030
0000
0200
,
2300
0001
0000
0000
0000
0000
0200
0000
0000
0000
0000
0000
3300
0000
0000
0000
0000
0000
0002
0000
0000
0000
0000
0000
0003
0000
0000
0000
0000
0000
0000
0000
0000
0000
0000
0000
0010
0000
0000
0000
0000
0000
0000
0000
0000
0000
0000
0000
,
0000
0001
0000
0001
0001
0000
0001
0000
,
0000
0001
0000
0001
0001
0000
0001
0000
,
0000
0010
0000
0010
0010
0100
0001
0100
,
0010
0100
0001
0100
0001
0000
0001
0000
,
0000
0001
0000
0001
0001
0000
0010
0000
,
0000
0010
0000
0001
0001
0000
0001
0000
,
0000
0100
0000
0010
0010
1000
0001
0010
,
0100
0010
0001
0010
0100
0000
0001
0000
,
0000
0001
0000
0010
0010
0000
0010
0000
,
0000
0001
0000
0001
0001
0000
0010
0000
,
0000
0001
0000
0001
0001
0010
0001
0010
,
0100
0010
0001
0010
0001
0000
0001
0000
,
0000
0001
0000
0001
0001
0000
0001
0000
,
0000
0010
0000
0010
0010
0000
0100
0000
,
0000
0001
0000
0001
0010
0010
0010
0010
,
0010
0000
0010
0000
0010
0000
0010
0000
1000
0100
1000
0100
1000
0100
1000
0100
,
1000
0100
1000
0100
1000
0100
1000
0100
1000
0100
1000
0100
1000
0100
1000
0100
,
1000
0100
1000
0100
1000
0100
1000
0100
1000
0010
1000
0010
1000
0010
1000
0010
,
1000
0010
1000
0010
1000
0001
1000
0001
1000
0001
1000
0001
1000
0001
1000
0001
,
1000
0100
1000
0100
1000
0100
1000
0100
1000
0010
1000
0010
1000
0010
1000
0010
,
1000
0010
1000
0010
1000
0010
1000
0010
1000
0010
1000
0010
1000
0010
1000
0010
,
1000
0010
1000
0010
1000
0010
1000
0010
1000
0001
1000
0001
1000
0001
1000
0001
,
1000
0001
1000
0001
0100
0001
0100
0001
0100
0001
0100
0001
0100
0001
0100
0001
,
0010
1000
0010
1000
0010
1000
0010
1000
0001
1000
0001
1000
0001
1000
0001
1000
,
0001
1000
0001
1000
0001
1000
0001
1000
0001
1000
0001
1000
0001
1000
0001
1000
,
0001
1000
0001
1000
0001
1000
0001
1000
0001
0100
0001
0100
0001
0100
0001
0100
,
0001
0100
0001
0100
0001
0010
0001
0010
0001
0010
0001
0010
0001
0010
0001
0010
,
0001
1000
0001
1000
0001
1000
0001
1000
0001
0010
0001
0010
0001
0010
0001
0010
,
0001
0010
0001
0010
0001
0010
0001
0010
0001
0010
0001
0010
0001
0010
0001
0010
,
0001
0010
0001
0010
0001
0010
0001
0010
1000
0100
1000
0100
1000
0100
1000
0100
,
1000
0100
1000
0100
1000
0010
1000
0010
1000
0010
1000
0010
1000
0010
1000
0010
,
1000
0000
0001
0000
1000
0000
0001
0000
1000
0000
0001
0000
1000
0000
0001
0000
0010
0100
0010
0100
0010
0100
0010
0100
0010
0100
0010
0100
0010
0100
0010
0100
,
0010
0100
0010
0100
0010
0100
0010
0100
0010
0100
0010
0100
0010
0100
0010
0100
0010
0100
0010
0100
0010
0100
0010
0100
0010
0100
0010
0100
0010
0100
0010
0100
,
0010
0100
0010
0100
0010
0100
0010
0100
0010
0100
0010
0100
0010
0100
0010
0100
0001
1000
0001
1000
0001
1000
0001
1000
0001
1000
0001
1000
0001
1000
0001
1000
,
0001
1000
0001
1000
0001
1000
0001
1000
0001
1000
0001
1000
0001
1000
0001
1000
0001
1000
0001
1000
0001
1000
0001
1000
0001
1000
0001
1000
0001
1000
0001
1000
,
0001
1000
0001
1000
0001
1000
0001
1000
0001
1000
0001
1000
0001
1000
0001
1000
0001
0000
0100
0000
0001
0000
0100
0000
0001
0000
0100
0000
0001
0000
0100
0000
,
0001
0100
0001
0100
0001
0100
0001
0100
0001
0100
0001
0100
0001
0100
0001
0100
,
0001
0100
0001
0100
0001
0100
0001
0100
0001
0100
0001
0100
0001
0100
0001
0100
,
0001
0100
0001
0100
0001
0100
0001
0100
0001
0100
0001
0100
0001
0100
0001
0100
,
0001
0100
0001
0100
0001
0100
0001
0100
1000
0010
1000
0010
1000
0010
1000
0010
,
1000
0010
1000
0010
1000
0010
1000
0010
1000
0010
1000
0010
1000
0010
1000
0010
,
1000
0010
1000
0010
1000
0010
1000
0010
1000
0010
1000
0010
1000
0010
1000
0010
,
1000
0010
1000
0010
1000
0010
1000
0010
1000
0010
1000
0010
1000
0010
1000
0010
,
1000
0010
1000
0010
1000
0010
1000
0010
0002
0000
0100
0000
0000
0100
0000
0000
,
0100
0000
0000
0100
0000
0000
0010
0000
0000
0000
0100
0000
0000
0100
0000
0000
,
0100
0000
0000
0100
0000
0000
0013
0000
2002
0000
0000
0000
0000
0000
0000
0000
,
0000
0000
0000
0000
,
0000
0000
0000
0000
0000
0000
0000
0000
0M00
00M0
0M00
00M0
0M00
00M0
0M00
00M0
,
0M00
00M0
0M00
00M0
0M00
00M0
0M00
00M0
0M00
00M0
0M00
00M0
0M00
00M0
0M00
00M0
,
0M00
00M0
0M00
00M0
0M00
00M0
0M00
00M0
0M00
00M0
0M00
00M0
0M00
00M0
0M00
00M0
,
0M00
00M0
0M00
00M0
0M00
00M0
0M00
00M0
0M00
00M0
0M00
00M0
0M00
00M0
0M00
00M0
,
0M00
0000
0000
0000
0000
0000
0000
0000
0000
0000
0000
0000
00M0
0000
0000
0000
0000
0000
0000
0000
0000
0000
0000
0000
0M00
0000
0000
0000
0000
0000
0000
0000
0000
0000
0000
0000
00M0
0000
0000
0000
0000
0000
0000
0000
0000
0000
0000
0000
0M00
0000
0000
0000
0000
0000
0000
0000
0000
0000
0000
0000
00M0
0000
0000
0000
0000
0000
0000
0000
0000
0000
0000
0000
0M00
0000
0000
0000
0000
0000
0000
0000
0000
0000
0000
0000
00M0
0000
0000
0000
0000
0000
0000
0000
0000
0000
0000
0000
0M00
0000
0000
0000
0000
0000
0000
0000
00M0
0000
0000
0000
0000
0000
0000
0000
0M00
0000
0000
0000
0000
0000
0000
0000
00M0
0000
0000
0000
0000
0000
0000
0000
0M00
0000
0000
0000
0000
0000
0000
0000
00M0
0000
0000
0000
0000
0000
0000
0000
0M00
0000
0000
0000
0000
0000
00M0
0000
0000
0000
0000
0000
0M00
0000
0000
0000
0000
0000
00M0
0000
0000
0000
0000
0000
0M00
0000
0000
0000
0000
0000
00M0
0000
0000
0000
0000
0000
0M00
0000
0000
0000
0000
0000
00M0
0000
0000
0000
0000
0000
,
0M00
0000
0000
0000
00M0
0000
0000
0000
0M00
0000
0000
0000
00M0
0000
0000
0000
0M00
0000
0000
0000
00M0
0000
0000
0000
0M00
0000
0000
0000
00M0
0000
0000
0000
0M00
0000
0000
0000
00M0
0000
0000
0000
0M00
0000
0000
0000
00M0
0000
0000
0000
0M00
0000
0000
00M0
0000
0000
0M00
0000
0000
00M0
0000
0000
0M00
0000
0000
00M0
0000
0000
0M00
0000
0000
00M0
0000
0000
0M00
0000
0000
00M0
0000
0000
0M00
0000
0000
00M0
0000
0000
0M00
0000
0000
00M0
0000
0000
0M00
0000
0000
00M0
0000
0000
0MM0
0000
0000
0MM0
0000
0000
0MM0
0000
0000
0MM0
0000
0000
0MM0
0000
0000
0MM0
0000
0000
0MM0
0000
0000
0MM0
0000
0000
0MM0
0000
0000
0MM0
0000
0000
0MM0
0000
0000
0MM0
0000
0000
0MM0
0000
0000
0MM0
0000
0000
0000
0000
0000
0000
0000
0000
3003
0000
0000
0000
0000
0000
0000
0000
0000
0000
0000
0000
0000
0000
0000
0000
0000
0000
0000
0000
0000
0000
0000
0000
0000
0000
0000
0000
0000
0000
0000
0000
0000
0000
0000
0000
0000
0000
0000
0000
0000
0000
0000
0000
0000
0000
0000
0000
,
1000
0100
0001
0001
1000
0100
0001
0001
,
1000
0100
0001
0001
1000
0100
0001
0001
,
1000
0100
0001
0001
1000
0100
0001
0001
,
1000
0100
0001
0001
1000
0100
0001
0001
,
1000
0010
0010
0001
1000
0010
0010
0001
,
1000
0010
0010
0001
1000
0010
0010
0001
,
1000
0010
0010
0001
1000
0010
0010
0001
,
1000
0010
0010
0001
1000
0010
0010
0010
,
1000
0100
0001
0001
1000
0100
0001
0001
,
1000
0100
0001
0001
1000
0100
0001
0001
,
1000
0100
0001
0001
1000
0100
0001
0001
,
1000
0100
0001
0001
1000
0100
0001
0001
,
1000
0010
0010
0001
1000
0010
0010
0001
,
1000
0010
0010
0001
1000
0010
0010
0001
,
0010
0010
0010
0000
0100
0100
0100
0000
,
0010
0010
0100
0100
0001
0001
1000
1000
,
0100
0010
0000
0000
0000
0000
0000
0000
0000
0100
1000
0000
0000
0000
0000
0000
0000
0000
0000
0000
0000
0000
0000
0000
,
1000
0001
0000
0000
0000
0000
0000
0000
0000
1000
0100
0000
0000
0000
0000
0000
0000
0000
0000
0000
0000
0000
0000
0000
,
0010
0100
0000
0000
0000
0000
0000
0000
0000
0100
1000
0000
0000
0000
0000
0000
0000
0000
0000
0000
0000
0000
0000
0000
,
1000
1000
0002
0000
0000
0000
0000
0003
,
0100
0010
0000
0000
0000
0000
0000
0000
0000
0100
1000
0000
0000
0000
0000
0000
0000
0000
0000
0000
0000
0000
0000
0000
,
1000
0001
0000
0000
0000
0000
0000
0000
0000
1000
0100
0000
0000
0000
0000
0000
0000
0000
0000
0000
0000
0000
0000
0000
,
0100
0010
0000
0000
0000
0000
0000
0000
0000
0100
1000
0000
0000
0000
0000
0000
0000
0000
0000
0000
0000
0000
0000
0000
,
1000
0100
0000
0000
0000
0000
0100
0010
0000
0000
0000
0000
0100
1000
0000
0000
0000
0000
0100
0001
0000
0000
0000
0000
,
0100
0010
0000
0000
0000
0000
0000
0000
0000
0100
1000
0000
0000
0000
0000
0000
0000
0000
0000
0000
0000
0000
0000
0000
,
1000
0001
0000
0000
0000
0000
0000
0000
0000
1000
0100
0000
0000
0000
0000
0000
0000
0000
0000
0000
0000
0000
0000
0000
,
0100
0010
0000
0000
0000
0000
0000
0000
0000
0010
0100
0000
0000
0000
0000
0000
0000
0000
0100
0010
0000
0000
0000
0000
,
0100
0010
0000
0000
0000
0000
0002
0000
0000
0000
0000
0000
0000
0000
0000
0000
0000
0000
0000
0000
0000
0003
0000
0000
,
0100
0010
0000
0000
0000
0000
0000
0000
0000
0100
1000
0000
0000
0000
0000
0000
0000
0000
0000
0000
0000
0000
0000
0000
,
1000
0001
0000
0000
0000
0000
0000
0000
0000
1000
0100
0000
0000
0000
0000
0000
0000
0000
0000
0000
0000
0000
0000
0000
,
0010
0001
0000
0000
0000
0000
0000
0000
0000
0001
0010
0000
0000
0000
0000
0000
0000
0000
0010
0001
0000
0000
0000
0000
,
0010
0001
0000
0000
0000
0000
0002
0000
0000
0000
0000
0000
0000
0000
0000
0000
0000
0000
0000
0000
0000
0003
0000
0000
,
1010
1000
1000
1010
1000
1000
1000
1000
,
1010
1000
1000
1010
1000
1000
1000
1000
,
0101
0001
0001
0101
0001
0001
0001
0001
,
0101
0001
0001
0101
0001
0001
0001
0001
,
0110
0100
0100
0110
0100
0100
0100
0100
,
0110
0100
0100
0110
0100
0100
0110
0100
,
0110
0000
0000
0011
0000
0000
0000
0000
,
0110
0000
0000
0011
0000
0000
0000
0000
,
1010
0010
0000
0001
1010
0010
0000
0001
,
1010
0010
0000
0001
1010
0010
0000
0001
,
0002
0000
0000
0000
,
0000
0000
0003
0000
;
