#TITLE:Xepher;
#SUBTITLE:;
#ARTIST:Tatsh;
#TITLETRANSLIT:;
#SUBTITLETRANSLIT:;
#ARTISTTRANSLIT:;
#CREDIT:;
#BANNER:Xepher-b.png;
#BACKGROUND:Xepher-bg.png;
#LYRICSPATH:;
#CDTITLE:cdtitle_bmiidx.png;
#MUSIC:Xepher.ogg;
#OFFSET:-6.460;
#SAMPLESTART:53.040;
#SAMPLELENGTH:12.000;
#SELECTABLE:YES;
#BPMS:0.000=169.900,132.000=84.950,134.000=169.900;
#STOPS:;
#BGCHANGES:;
// cache tags:
#FIRSTBEAT:16.000;
#LASTBEAT:320.000;
#SONGFILENAME:Songs/new encore/xepher/xepher.sm;
#HASMUSIC:1;
#HASBANNER:1;
#MUSICLENGTH:130.000;
// end cache tags

//---------------dance-single - BEGINNER----------------
#NOTES:
     dance-single:
     BEGINNER:
     Beginner:
     1:
     0.147,0.211,0.085,0.000,0.000,123.000,11.000,0.000,0.000,0.000:
0000
0000
0000
0000
,
0000
0000
0000
0000
,
0000
0000
0000
0000
,
0000
0000
0000
0000
,
1001
0000
0000
0000
,
0000
0000
0000
0000
,
0000
0000
0000
0000
,
0000
0000
0000
0000
,
0001
0000
0100
0000
,
0001
0000
0000
0000
,
0100
0000
0000
0000
,
0001
0000
0000
0000
,
1000
0000
0100
0000
,
0110
0000
0000
0000
,
0000
0000
0000
0000
,
1000
0000
0000
1000
,
0000
0000
0000
0001
,
0000
0000
0000
0010
,
0010
0000
0001
0000
,
0010
0000
0000
0010
,
0000
0000
0000
1000
,
0000
0000
0000
0100
,
0100
0000
0100
0100
,
0100
0100
0000
0000
,
0010
0000
0000
0000
,
0010
0010
0000
0000
,
1000
0000
0010
0000
,
1000
1000
0000
0000
,
0010
0000
0001
0000
,
0010
0000
1000
0000
,
0010
0000
0100
0000
,
0010
0000
0100
0000
,
0100
0100
0100
0100
,
0100
0000
0000
0000
,
1000
0000
0001
0000
,
1000
0000
0010
0000
,
1000
0000
0001
0000
,
0100
0000
1000
0000
,
0100
0000
0010
0000
,
0100
0000
1001
0000
,
0110
0000
1001
0000
,
0000
0000
0000
0000
,
0000
0000
1000
1000
,
1000
1000
1000
0000
,
0000
1000
0000
0000
,
0000
0010
0000
0000
,
0000
0100
0100
0000
,
0010
0000
0100
0000
,
0000
0001
0000
0000
,
0000
0100
0000
0000
,
0000
0010
0010
0000
,
0010
0010
0010
0000
,
0100
0000
0010
0000
,
0100
0000
0001
0000
,
0100
0000
0001
0000
,
0100
0000
0110
0000
,
0000
0000
1000
0000
,
0000
0000
0001
0000
,
0000
0000
0100
0000
,
0000
0000
0001
0001
,
0001
0001
0001
0000
,
0000
0000
1000
0000
,
0000
0000
0001
0000
,
0100
0000
0001
0000
,
1000
0000
0001
0000
,
0100
0000
0001
0000
,
0100
0000
0010
0000
,
0100
0000
1001
0000
,
0110
0000
1001
0000
,
0000
0000
0000
0000
,
0000
0000
1000
0000
,
0001
0000
1000
0000
,
0000
1000
1000
0000
,
0000
0010
0010
0000
,
0000
1000
1000
0000
,
0000
0100
0100
0000
,
0000
0000
1001
0000
,
0000
0000
1000
1000
,
1000
1000
1001
0000
;

//---------------dance-single - BASIC----------------
#NOTES:
     dance-single:
     BASIC:
     Easy:
     6:
     0.353,0.462,0.277,0.154,0.046,265.000,36.000,20.000,0.000,0.000:
0000
0000
0000
0000
,
0000
0000
0000
0000
,
0000
0000
0000
0000
,
0000
0000
0000
0000
,
1001
0000
0000
0010
,
0010
0000
0000
1000
,
0010
0000
0100
0000
,
0001
0000
0010
0000
,
1000
0000
0100
0000
,
0001
0000
0000
0000
,
0010
0000
0000
0000
,
1000
0000
0000
0000
,
0001
0000
0010
0000
,
1010
0000
0000
0000
,
0000
0000
0000
0000
,
0001
1000
0001
1001
,
0010
1000
0010
0110
,
1000
0100
1000
1100
,
0100
1000
0100
0000
0010
0100
0010
0000
,
0001
0100
0001
1010
,
0001
0100
0010
1001
,
0100
1000
0010
0101
,
0010
0000
0000
0000
0010
0100
0010
0100
,
0020
1030
0100
0001
,
0010
0010
0001
0100
,
0020
0130
1000
0010
,
0001
0000
0001
0000
0100
1000
0100
0000
,
0002
0103
0010
1000
,
0100
0100
0001
0010
,
0100
0010
2000
3100
,
0010
1000
0010
1000
,
0010
0010
0100
0100
,
0100
0001
0100
0001
0100
0001
0100
0001
,
0100
0000
0001
1000
,
0010
0000
0110
0000
,
0010
0100
0001
1000
,
0010
1000
0100
0000
,
0010
0010
0010
0000
,
1000
0100
0010
0001
,
1000
0000
1010
0000
,
0110
0000
2002
0000
,
0000
0000
3003
0010
,
0010
0010
0110
0110
,
0101
0000
0000
0000
0101
0000
0000
0000
0011
0000
0000
0001
0000
0000
0001
0000
,
0000
0001
0000
0000
1001
0000
0000
0000
0010
0000
0000
0010
0000
0000
0010
0000
,
0000
0010
0000
0000
0011
0000
0000
0000
1000
0000
0000
1000
0000
0000
1000
0000
,
0000
1000
0000
0000
1001
0000
0000
0000
0010
0000
1000
0000
0010
0000
0000
0000
,
0001
0000
0100
0000
0001
0000
0000
0000
0010
0000
0000
0010
0000
0000
0100
0000
,
0000
0100
0000
0000
0101
0000
0000
0000
1000
0000
0000
1000
0000
0000
0100
0000
,
0000
0100
0000
0000
1100
0000
0000
0000
0010
0000
0000
0010
0000
0000
0001
0000
,
0000
0001
0000
0000
0011
0000
0000
0000
0101
0000
0000
0000
0000
0000
0000
0000
,
0010
1000
0010
1000
0020
0000
0230
0000
,
0302
2003
3020
0230
,
0302
2003
3020
0100
,
0100
0130
2000
0010
,
0010
3010
1001
1000
,
0100
1000
0001
0100
,
0010
0100
1000
0001
,
0010
0001
1000
0100
,
0010
0100
0001
0001
,
0100
0100
0101
1000
,
0010
0100
0001
0100
,
0010
0000
1000
0010
,
0100
0001
1000
0010
,
1000
0100
1001
0000
,
0010
0100
0001
0000
,
1000
0100
0010
1000
,
0001
0000
1010
0000
,
0101
0000
1001
0100
,
0000
0010
0000
1000
,
0000
0100
1100
0000
,
1010
0000
0110
0010
,
0010
1010
1000
1000
,
1000
1001
0001
0001
,
0001
0001
0001
0000
0100
0000
0100
0000
,
0100
0100
0100
0000
1000
0000
1000
0000
,
1000
1000
2000
0020
0000
0000
0000
0000
,
0000
3030
1000
0100
,
0010
0001
2002
0000
,
0000
0000
0000
0000
,
3003
0000
0000
0000
;

//---------------dance-single - ADVANCED----------------
#NOTES:
     dance-single:
     ADVANCED:
     Medium:
     8:
     0.462,0.523,0.269,0.192,0.142,360.000,35.000,25.000,0.000,0.000:
0000
0000
0000
0000
,
0000
0000
0000
0000
,
0000
0000
0000
0000
,
0000
0000
0000
0000
,
0101
0000
0000
0000
0000
0000
0000
0000
0000
0010
0100
0010
,
0100
0000
0000
0001
,
0010
0000
1000
0000
,
0001
0000
0100
0000
,
0010
0000
1000
0000
,
1001
0000
0000
0000
,
0100
0000
0000
0000
,
0001
0000
0000
0000
,
1000
0000
0010
0000
,
0202
0000
0000
0000
,
0000
0000
0303
0000
,
0001
0000
0000
0100
0000
0000
0001
0000
0000
1000
0000
0000
1001
0000
0000
0000
,
0100
0000
0000
0001
0000
0000
0100
0000
0000
0010
0000
0000
1000
0000
1000
0000
,
1000
0000
0000
0001
0000
0000
1000
0000
0000
0100
0000
0000
1000
0100
1000
0000
,
0010
1000
0010
1000
0010
0100
0010
0100
,
0010
0000
0000
0100
0000
0000
0001
0000
0000
0100
0000
0000
0011
0000
0000
0000
,
0100
0000
0000
1000
0000
0000
0010
0000
0000
1000
0000
0000
0100
0000
0100
0000
,
0100
0000
0000
0010
0000
0000
1000
0000
0000
0010
0000
0000
1001
0000
0000
0000
,
1100
0000
0000
0000
0010
1000
0010
1000
,
0020
0000
0130
0000
0001
1000
0010
1000
,
0200
0000
0301
0000
1000
0010
1000
0001
,
2000
0000
3100
0000
0001
1000
0010
1000
,
0100
0000
0000
0000
1000
0000
0000
0000
0001
0010
0000
1000
0000
0001
0100
0000
,
2000
0000
3010
0000
0100
1000
0010
1000
,
0200
0000
0310
0000
0001
0001
0001
1000
,
0010
0100
0010
1000
0100
0001
0100
0000
,
0010
0100
0010
0100
0020
0000
1030
0000
,
0001
0010
0001
0010
0100
0010
0100
0010
,
1000
0001
1000
0001
1000
0010
1000
0010
,
2010
0010
3010
0001
,
0100
0000
0000
0000
0010
1000
0100
0000
,
0001
0100
0010
0000
1000
0100
1000
0010
,
0100
0001
0100
0010
0100
0000
0000
0000
,
0010
0100
1001
0000
,
0010
1000
0100
0000
0010
0001
0100
0010
,
1000
0000
1001
0000
,
0110
0000
0102
1000
,
0100
1000
0013
1000
,
0100
0100
0101
0011
,
0101
0000
0000
0000
0011
0000
0000
0000
0101
0000
0000
1000
0000
0000
0010
0000
,
0000
0100
0000
0000
1010
0000
0000
0000
0001
0000
0000
0010
0000
0000
0001
0000
,
0000
0100
0000
0000
1000
0000
0100
0000
1000
0000
0000
0100
0000
0000
1000
0000
,
0000
0001
0000
0000
0100
0010
0100
0000
1000
0000
0100
0000
1000
0000
0100
0000
,
1000
0000
0010
0000
1000
0000
0010
0000
1000
0000
0000
0001
0000
0000
0010
0000
,
0000
0100
0000
0000
0101
0000
0000
0000
0010
0000
0000
1000
0000
0000
0100
0000
,
0000
0010
0000
0000
1000
0000
0001
0000
1000
0000
0000
0001
0000
0000
0100
0000
,
0000
1000
0000
0000
0110
0000
0000
0000
0101
0000
0000
0000
0000
0000
0000
0000
,
1000
0100
1000
0100
2000
0000
3200
0000
,
0320
0032
2003
3200
,
0320
0031
2100
3100
,
1000
1000
0201
0301
,
0100
0100
1001
0010
,
0100
0000
0001
0000
0010
1000
0100
1000
,
0010
0100
0001
0100
1000
0001
0100
0010
,
1000
0001
0100
0010
0001
0100
0010
0100
,
0001
0100
0010
0100
1000
0001
1000
0001
,
1000
0001
1000
0001
1001
0000
0100
0000
,
0010
0100
0001
1000
,
1010
0000
2000
0100
,
0010
3001
0002
0010
,
0100
1003
0010
1000
,
0001
1000
0010
0100
,
0001
0100
0001
0000
0010
1000
0100
1000
,
0001
0000
1010
0000
,
0011
0000
1001
1100
,
0000
0101
0000
0110
,
0000
0011
1001
0000
,
0010
0000
0010
0000
1000
0010
1000
0000
,
0100
0100
0100
0000
0001
0010
0100
0000
,
1000
0000
1000
0000
1000
0000
0000
0000
0010
0000
1000
0000
0100
0000
0001
0010
,
0000
0001
0010
0000
0001
0000
0000
0000
1000
0000
0010
0000
0001
0000
0100
0010
,
0000
0100
0010
0000
0001
0000
0000
0000
1000
0000
0100
0000
0010
0000
1000
0001
,
0000
1000
0001
0000
0200
0000
0002
0000
0000
0000
0000
0000
0000
0000
0000
0000
,
0000
0000
0303
0000
0001
0010
0100
1000
,
0001
0010
0100
1000
2002
0000
0000
0000
,
0000
0000
0000
0000
,
3003
0000
0000
0000
;

//---------------dance-single - EXTREME----------------
#NOTES:
     dance-single:
     EXTREME:
     Hard:
     10:
     0.645,0.800,0.354,0.185,0.400,517.000,46.000,24.000,0.000,0.000:
0000
0000
0000
0000
,
0000
0000
0000
0000
,
0000
0000
0000
0000
,
0000
0000
0000
0000
,
1002
0000
0000
0000
0000
0000
0000
0000
0000
0103
0010
1000
,
0020
0000
0000
0100
,
0230
0000
2300
0000
,
3002
0000
0203
0000
,
0320
0000
0032
0000
,
0203
0000
0020
0300
,
2030
0000
0000
0000
,
3002
0000
0000
0000
,
0203
0000
2300
0000
,
0002
0000
0000
0000
,
0000
0000
3003
0000
,
0001
0010
0000
0001
0010
0000
1000
0001
0000
1000
0001
0000
1001
0000
0000
0000
,
0010
0100
0000
0010
0100
0000
1000
0010
0000
1000
0010
0000
0110
0000
0110
0000
,
1000
0001
0000
1000
0001
0000
0100
1000
0000
0100
1000
0000
0001
1000
0001
0000
,
0100
0001
0101
0000
1000
0100
1100
0000
,
0010
1000
0000
0010
0100
0000
0010
1000
0000
0010
0100
0000
1001
0000
0000
0000
,
0001
0010
0000
0001
1000
0000
0001
0010
0000
0001
1000
0000
0101
0000
0101
0000
,
0100
0010
0000
0100
1000
0000
0100
0010
0000
0100
0001
0000
0110
0000
0000
0000
,
1001
0000
0000
0000
0000
0000
0000
0000
0001
0010
0001
0010
0001
0010
0001
0000
,
0011
0000
0011
0000
0010
1000
0100
1000
,
1010
0000
1010
0000
0100
1000
0010
0100
,
0101
0000
0101
0000
0010
0001
0010
1000
,
1001
0000
0000
0000
1001
0000
0000
0000
0100
0010
0000
1000
0000
0001
0100
0000
,
1001
0000
0000
0000
1001
0000
0000
0000
0100
0000
0010
0100
0000
0010
1000
0000
,
1010
0000
0000
0000
1010
0000
0000
0000
0100
0000
0001
0100
0000
1000
0001
0000
,
0010
0000
1000
0000
0001
0000
1000
0100
0000
0010
0000
0001
1000
0000
0100
0000
,
0001
0010
0100
1000
2010
0000
3001
0000
,
0001
0100
0001
0100
0001
0010
0001
0010
,
0001
1000
0001
1000
0001
1000
0001
1000
0001
1000
0001
1000
0001
1000
0001
1000
,
0002
0000
1000
1003
1010
0001
1000
0010
,
1000
0000
0000
0000
0100
1000
0010
1000
,
0001
0100
0010
0100
1000
0010
0101
0000
,
0010
1000
0101
0000
0110
0000
1000
0000
,
0100
0001
1000
0010
1000
0000
0100
0000
,
1000
0010
0001
0010
0100
1000
0001
1000
,
0010
0000
0000
0000
0010
0100
0010
0100
,
0010
0001
0010
0001
1000
0010
0100
0010
,
0001
0100
0001
1000
0100
0010
1000
0001
,
0100
0010
1000
0001
0010
1000
0110
0000
,
0100
0000
0001
0000
0110
0000
0000
0000
0001
0100
0000
0010
0001
0000
0010
0100
,
0000
1000
0010
0000
0101
0000
0000
0000
1000
0001
0000
0010
1000
0000
0001
0100
,
0000
0010
0001
0000
0011
0000
0011
0000
0100
1000
0000
0001
0100
0000
0010
0100
,
0000
0001
0010
0000
0100
1000
0100
0000
0010
0000
0100
0000
1001
0000
0000
0000
,
0100
0000
0010
0000
1001
0000
0000
0000
0100
0010
0000
1000
0001
0000
0100
1000
,
0000
0010
0001
0000
0101
0000
0000
0000
1000
0100
0000
0001
0010
0000
0100
1000
,
0000
0100
0001
0000
1001
0000
1001
0000
0100
0010
0000
0100
0001
0000
1000
0100
,
0000
0010
0001
0000
0110
0000
0000
0000
1010
0000
0000
0000
0000
0000
0000
0000
,
0010
0100
0010
0100
0010
0100
0010
0000
0020
0000
0000
0000
1000
0000
0000
0000
,
0100
0031
2000
0100
,
0010
0000
3001
0000
0010
0100
0010
1000
,
0001
0100
1000
0000
0001
0010
0001
1000
,
0010
0100
0001
0000
1001
0010
0100
0010
,
1000
0001
0010
0001
0100
1000
0100
0010
,
0001
0100
0001
0010
1000
0100
0010
0001
,
0100
0010
1000
0001
0010
1000
0100
0001
,
1000
0000
0010
0000
0001
0000
0100
0000
1000
0001
1000
0001
1000
0001
1000
0001
,
1000
0001
1000
0001
1000
0001
1000
0001
1000
0000
0100
0000
1000
0000
0010
0000
,
0100
0001
0100
1000
0001
0010
1000
0100
,
1000
0000
0000
0000
1000
0100
0001
0100
,
0010
1000
0100
1000
0001
0010
1100
0000
,
0010
0001
1100
0000
0101
0010
0100
0001
,
0100
1000
0001
0010
0100
0000
0010
0000
,
0001
0010
0100
1000
0001
0100
0010
1000
,
0100
0000
0000
0000
0100
0001
0100
1000
,
0010
0001
0010
0100
0001
1000
0010
1000
,
0100
0001
0100
1000
0001
0010
1000
0010
,
0100
0001
0100
0010
2010
0000
0000
0000
,
0010
0000
0000
0000
3010
0000
0000
0000
0100
0010
0100
0010
0100
0000
0100
0010
,
0000
0100
0010
0000
0100
0000
0100
0000
0001
0010
0001
0010
0001
0000
0001
1000
,
0000
0001
0100
0000
1000
0000
1000
0000
0010
0001
0010
0001
0010
0000
0100
0010
,
0000
0100
1000
0000
0001
0000
0001
0000
1000
0100
1000
0100
1000
0000
0010
0001
,
0000
0010
1000
0000
0100
0000
0100
0000
0010
0100
0010
0100
0010
0000
0001
0010
,
0000
0001
0100
0000
2000
0000
0002
0000
0000
0000
0000
0000
0000
0000
0000
0000
,
0000
0000
3003
0000
1000
0100
0010
0001
,
0010
0100
1000
0100
2002
0000
0000
0000
,
0000
0000
0000
0000
,
3003
0000
0000
0000
;

//---------------dance-single - HAZARD----------------
#NOTES:
     dance-single:
     HAZARD:
     Challenge:
     11:
     0.736,0.923,0.585,0.354,0.473,548.000,76.000,46.000,0.000,0.000:
0000
0000
0000
0000
,
0000
0000
0000
0000
,
0000
0000
0000
0000
,
0000
0000
0000
0000
,
0201
0000
0000
0000
0000
0000
0000
0000
0000
0301
0010
0100
,
2000
0000
0000
0010
,
0020
3000
0002
0030
,
0200
0003
0020
0300
,
2000
0030
0200
3000
,
0020
0300
2000
0030
,
0002
3000
0000
0000
,
0200
0003
0000
0000
,
0020
0300
0002
0030
,
0200
0000
0000
0000
,
0000
0000
0303
0000
,
1000
0100
0000
0010
0001
0000
1000
0100
0000
0010
0001
0000
0101
0000
0000
0000
,
0010
0100
0000
0001
1000
0000
0010
0100
0000
0001
1000
0000
1001
0000
1001
0000
,
0100
0001
0000
0010
1000
0000
0100
0001
0000
0010
1000
0000
0001
1000
0001
0000
,
0100
0010
0101
0000
0010
1000
0101
0000
,
0010
0100
0000
1000
0010
0000
0001
1000
0000
0100
0001
0000
1010
0000
0000
0000
,
1000
0100
0000
0010
0001
0000
1000
0010
0000
0001
0100
0000
1010
0000
1010
0000
,
0100
0010
0000
0001
1000
0000
0010
1000
0000
0100
0001
0000
1010
0000
0000
0000
,
1001
0000
0010
0000
0001
0000
1000
0000
0001
0100
0001
0100
0001
0100
0001
0100
,
0101
0000
0000
0000
1001
0000
0000
0000
0010
0000
1000
0100
0000
1000
0001
0000
,
0110
0000
1010
0000
0001
0001
0100
0100
,
0110
0000
0000
0000
1001
0000
0000
0000
0010
0000
0100
0001
0000
0010
0100
0000
,
1010
0000
0000
0000
0011
0000
0000
0000
1000
0010
0000
0001
0000
0010
1000
0000
,
0102
0000
0000
0000
1003
0000
0000
0000
0100
0000
1000
0100
0000
0100
0001
0000
,
1020
0000
0000
0000
0031
0000
0000
0000
0100
0000
0001
1000
0000
1000
0100
0000
,
0010
0000
0010
0000
0010
0000
0010
0100
0000
0001
0000
0010
1000
0000
0001
0000
,
0100
0001
1000
0100
2010
0000
3001
0000
,
0001
0001
0010
0010
0100
0100
1000
1000
,
0010
0100
0010
0100
0001
1000
0001
1000
0010
0100
0010
0100
0001
1000
0001
1000
,
1002
0000
0010
0103
1001
0001
0010
0001
,
1000
0100
0010
0001
0100
0010
1000
0010
,
0001
1000
0010
0001
1000
0010
1001
0000
,
0010
0100
1001
0000
0110
0001
1000
0001
,
0010
0100
1000
0010
1000
0001
0100
0010
,
1000
0010
0001
0010
0100
1000
0001
1000
,
0010
0100
0010
1000
0020
0100
1000
0130
,
2000
0010
0001
3010
0002
1000
0010
1000
,
0100
0010
1000
0010
0103
0010
1000
0001
,
0100
0010
1000
0001
0100
0010
0101
0000
,
0010
0000
1000
0000
0101
0000
0000
0000
1000
0100
0000
0010
0001
0000
0100
0001
,
0000
0100
0010
0000
1001
0000
0000
0000
1000
0100
0000
0010
0100
0000
0001
0010
,
0000
1000
0100
0000
1001
0000
1001
0000
0100
0010
0000
1000
0100
0000
0010
0001
,
0000
0010
1000
0000
0100
0010
0100
0000
0001
0000
0100
0000
0011
0000
0000
0000
,
1000
0000
0010
0000
1001
0000
0000
0000
0100
0010
0000
1000
0001
0000
1000
0010
,
0000
0010
0001
0000
0110
0000
0000
0000
0001
0100
0000
1000
0010
0000
0100
0001
,
0000
0001
1000
0000
0110
0000
0110
0000
1000
0100
0000
0010
0001
0000
0100
0010
,
0000
0010
1000
0000
0110
0000
0000
0000
1010
0000
0100
0000
0010
0000
1000
0000
,
0100
0010
0100
0010
0100
0010
0100
0010
0202
0000
0303
0000
2200
0000
3300
0000
,
0220
0330
0202
0303
2002
3003
0220
0330
,
2200
3300
0022
0033
1020
0000
0130
0000
,
0012
1003
0120
0031
,
1200
0000
0310
0000
1001
0010
0100
0001
,
1000
0000
0100
0000
0010
0000
0001
1000
0001
0000
0010
0000
0100
0000
1000
0000
,
0001
0000
0100
0000
0001
0010
0001
1000
0001
0000
0100
0000
0010
0000
0001
0000
,
1000
0000
0010
0000
0100
0010
0100
0001
0100
0000
1000
0000
0010
0000
0001
0000
,
0010
0000
0100
0000
1000
0000
0010
0000
1000
0010
1000
0010
1000
0010
1000
0010
,
1000
0001
1000
0001
1000
0001
1000
0001
1001
0000
0100
0000
0010
0000
0100
0000
,
1000
0001
1000
0010
0001
0010
0100
1000
,
0010
0100
0001
0010
0100
1000
0001
1000
,
0010
0001
0010
1000
0100
0010
0101
0000
,
1000
0010
1100
0000
0101
0010
1000
0001
,
1000
0010
0100
0001
0100
1000
0010
0100
,
0001
1000
0100
0001
1000
0100
0010
1000
,
0100
0010
0100
0001
1010
0100
0001
1000
,
0110
0001
0010
0100
1001
0010
0110
0001
,
1000
0010
0101
1000
0001
0100
1010
0001
,
0100
1000
0011
0100
1001
0000
0000
0000
,
0110
0000
0000
0000
0110
0000
0000
0000
0101
0010
0001
0010
0001
0000
1000
0010
,
0000
0001
0010
0000
1100
0000
1100
0000
0010
1000
0010
0100
0010
0000
0001
0100
,
0000
0010
0100
0000
1001
0000
1001
0000
1000
0001
1000
0001
1000
0000
0010
0100
,
0000
0001
1000
0000
0011
0000
0011
0000
1000
0001
1000
0010
1000
0000
0100
0001
,
0000
1000
0010
0000
0110
0000
0110
0000
0001
1000
0001
1000
0001
0000
0100
0001
,
0000
0010
1000
0000
0002
0000
2000
0000
0000
0000
0000
0000
0000
0000
0000
0000
,
0000
0000
0000
3003
0000
0000
1000
0100
0010
0001
0010
0100
,
1000
0100
0010
0001
0010
0100
2002
0000
0000
0000
0000
0000
,
0000
0000
0000
0000
,
3003
0000
0000
0000
;
