#TITLE:Lost Land of Lyonesse;
#SUBTITLE:;
#ARTIST:Secret Sphere;
#TITLETRANSLIT:;
#SUBTITLETRANSLIT:;
#ARTISTTRANSLIT:;
#CREDIT:;
#BANNER:BN.png;
#BACKGROUND:BG.png;
#LYRICSPATH:;
#CDTITLE:CDTitle.gif;
#MUSIC:Secret Sphere - Lost land of lyonesse.mp3;
#OFFSET:-0.140;
#SAMPLESTART:61.748;
#SAMPLELENGTH:12.000;
#SELECTABLE:YES;
#BPMS:0.000=169.670,232.000=65.790,240.000=129.330,300.000=169.670,403.000=129.870,547.000=170.010,563.000=85.010,579.000=169.890;
#STOPS:;
#BGCHANGES:;
// cache tags:
#FIRSTBEAT:0.000;
#LASTBEAT:649.000;
#SONGFILENAME:Songs/keyboard/Lost Land of Lyonesse/Lost land of lyonesse.sm;
#HASMUSIC:1;
#HASBANNER:1;
#MUSICLENGTH:266.922;
// end cache tags

//---------------dance-single - Blank----------------
#NOTES:
     dance-single:
     Blank:
     Hard:
     13:
     1.000,1.000,0.667,0.420,1.000,1855.000,178.000,112.000,0.000,0.000:

0001
0100
0010
1000
0010
0100
0001
1000
0100
0010
0100
1000
0001
0010
0100
0010
,
0001
1000
0010
1000
0001
0100
0010
1000
0100
0010
0001
0100
0010
1000
0100
0010
,
0001
0100
0010
1000
0100
0010
0100
1000
0001
0100
0001
1000
0010
1000
0100
0010
,
0001
0100
0010
0100
0001
1000
0001
0010
0100
1000
0010
0100
0001
0010
0100
1000
,
0001
1000
0100
0010
0001
0100
0010
0100
0001
1000
0001
0100
0001
0010
0001
1000
,
0100
0010
0001
0100
0010
0100
0001
1000
0001
0100
0010
1000
0001
0100
0001
1000
,
0010
0100
0010
1000
0100
1000
0010
0100
0001
0010
0001
0100
0010
1000
0100
0010
,
0001
0100
0010
1000
0100
0010
0100
1000
0001
0100
0010
0100
0001
1000
0100
0010
,
1001
0100
0010
0001
0100
0010
0100
0001
1000
0001
0010
0100
1000
0100
0010
0100
,
1000
0001
0100
0001
1000
0010
1000
0100
0010
0001
1000
0010
1000
0001
0100
0001
,
0010
0100
1000
0100
0010
0001
0010
0100
0010
0001
1000
0010
1000
0100
0010
0100
,
1000
0010
1000
0001
0100
0001
0010
0001
0100
0010
1000
0100
0010
0100
1000
0001
,
0100
0001
1000
0100
1000
0010
0100
0010
1000
0100
1000
0001
0100
0001
0100
0010
,
1000
0001
0010
0100
0010
0001
0010
0100
1000
0010
0100
0010
1000
0001
1000
0100
,
0010
0001
0100
0010
0100
0001
1000
0010
0100
0001
1000
0100
1000
0010
1000
0001
,
0100
0001
0010
0100
1000
0010
0100
0010
1000
0001
0100
0010
1000
0100
0010
0001
,
0100
0000
0000
0010
0000
0000
1000
0000
0110
0000
0000
0001
0000
0000
1000
0000
,
0110
0000
0000
0001
0000
0000
0010
0000
0101
0000
0000
0000
1010
0000
0000
0000
,
1000
0100
0010
0001
0100
0010
1000
0100
0010
0001
1000
0010
1000
0001
0010
0100
,
0010
0001
1000
0100
0010
0100
1000
0010
0100
0001
0010
0100
0010
0001
1000
0010
,
1000
0000
0000
0000
0110
0000
0001
0000
0000
0000
1000
0000
0001
0100
0010
1000
,
0100
0000
0000
0010
1001
0000
0100
0000
0000
0000
0100
0010
1000
0000
0000
0000
,
0001
0010
0001
1000
0010
1000
0100
0010
0001
0100
0010
1000
0100
1000
0001
0010
,
0001
1000
0010
0100
0001
0010
0100
0010
0001
1000
0100
0010
0100
1000
0001
0100
,
0011
1010
0110
0101
,
1100
1001
0011
0110
,
0011
0100
0010
1000
0100
0010
0100
1000
0010
0100
0001
0010
0001
1000
0010
1000
,
0001
0100
0010
1000
0001
0100
0001
0010
0001
1000
0010
0100
0001
0010
0100
1000
,
0110
0000
0110
1100
0000
0101
0011
0000
,
1100
1010
0000
0101
1010
0000
0110
0000
,
1001
0100
0010
0100
0001
0010
0100
1000
0100
0010
0100
1000
0001
0100
0001
1000
,
0010
1000
0100
0010
0001
1000
0100
1000
0001
0010
0001
1000
0010
0100
0001
1000
,
0100
0100
0100
0100
,
0100
0100
0100
0100
,
0100
0010
0001
1000
0100
0010
0001
0010
0100
1000
0001
0100
0010
1000
0001
0010
,
0100
0010
0001
1000
0010
1000
0001
0010
0001
1000
0100
0010
0001
0100
0010
1000
,
0110
0110
0110
0110
,
0101
0101
0101
0101
,
1010
0100
0010
0001
1000
0100
0010
0100
1000
0001
0100
0010
0100
0001
1000
0100
,
0010
0100
1000
0001
0010
0100
0010
0001
1000
0010
0100
0010
1000
0001
0100
0010
,
1001
0100
0010
0100
0001
1000
0010
1000
0001
0100
0001
0010
0100
1000
0001
0010
,
0100
1000
0001
0010
0100
0010
0001
1000
0010
1000
0001
0010
0001
1000
0010
0100
,
0001
1000
0100
0010
0100
1000
0001
0010
0100
0010
0001
0100
0010
1000
0100
0010
,
0100
1000
0001
0100
0010
1000
0001
0100
0001
1000
0010
0100
0001
0010
0100
0010
,
0001
0100
0010
1000
0100
1000
0010
0100
0001
1000
0001
0010
0100
0010
0001
1000
,
0010
0100
0010
1000
0001
1000
0100
0010
0100
1000
0001
0100
0010
1000
0010
1000
,
0100
0010
0001
0010
0100
1000
0001
1000
0100
0010
0100
0010
0001
1000
0100
0010
,
0100
1000
0001
0100
0001
1000
0100
1000
0001
0010
0001
1000
0010
1000
0001
1000
,
0100
0010
0001
0010
0100
1000
0010
0100
0001
0010
0001
1000
0010
1000
0100
0010
,
0001
0010
0100
1000
0100
0010
0001
0100
0001
0010
0100
1000
0020
0000
0000
0030
,
1100
0001
0100
0010
0100
0001
1000
0010
1000
0100
0010
0001
0010
0100
1000
0001
,
0010
0100
1000
0001
0100
0010
1000
0100
1000
0001
0100
0001
1000
0010
0100
0001
,
0010
0100
0010
0001
0100
0010
1000
0100
0010
0100
1000
0010
0100
0001
1000
0010
,
0100
0010
1000
0001
0010
0001
0100
0001
1000
0010
0100
0001
1000
0010
1000
0010
,
0100
0001
0010
0001
1000
0010
0100
0001
0010
0100
1000
0100
0010
0001
1000
0001
,
0100
0010
0100
0001
0010
0100
1000
0010
0100
0001
0100
0010
1000
0100
1000
0001
,
0010
0001
1000
0100
0010
0100
1000
0001
0100
0001
1000
0010
1000
0001
0010
0100
,
0010
0001
1000
0010
1000
0100
0010
0001
0100
0010
1000
0100
0010
0001
1000
0010
,
0202
0000
0000
0000
0000
0000
0000
0303
,
2002
0000
0000
0000
0000
0000
0000
3003
,
2000
0000
0000
0001
3000
0000
0200
0000
0000
1000
0300
0000
0002
0000
0000
1000
,
0003
0000
0200
0000
0000
0010
0300
0000
1002
0000
0000
0010
0003
0000
2100
0000
,
0000
0010
3000
0000
0120
0000
0000
0001
0030
0000
2100
0000
0000
0010
3000
0000
,
1002
0000
0000
0100
0003
0000
0120
0000
0000
1000
0030
0000
2010
0000
0000
0001
,
3000
0000
0012
0000
0000
0100
0003
0000
0210
0000
0000
1000
0300
0000
0021
0000
,
0000
0001
0030
0000
2001
0000
0000
0010
3000
0000
2010
0000
0000
0100
3000
0000
,
0202
0000
0303
0110
0000
0000
2020
0000
3030
1001
0000
0000
0022
0000
0033
1100
,
0000
0000
0220
0000
0330
0011
0000
0000
2200
0000
3300
0110
0000
0000
0022
0000
,
0033
1001
0000
0000
2020
0000
3030
0110
0000
0000
2002
0000
3003
0011
0000
0000
,
0220
0000
0330
1010
0000
0000
0220
0000
0330
1001
0000
0000
0022
0000
0033
0110
,
0000
0000
2200
0000
3300
1010
0000
0000
0022
0000
0033
1001
0000
0000
2002
0000
,
3003
0110
0000
0000
0022
0000
0033
1100
0000
0000
2020
0000
3030
0110
0000
0000
,
0101
2000
3200
0320
,
2030
3002
0023
0230
,
0302
0023
0230
2300
,
3001
0000
0000
0000
0000
0000
0010
1000
0010
1000
0010
0000
0000
0000
0000
0000
,
0000
0000
0100
0001
0100
0000
0000
0000
0000
0000
0000
0000
0000
0000
0001
1000
,
0001
1000
0000
0000
0110
0000
0000
0000
0000
0000
1001
0000
0000
0000
0000
0000
,
0022
0000
0000
0000
0000
0000
0000
0033
2200
0000
0000
0000
0000
0000
0000
3300
,
2002
0000
0000
0000
0000
0000
0000
0000
0000
0000
0000
0000
0000
0000
0000
3003
,
2002
0000
0000
0000
0000
0000
0000
3003
0011
0000
0000
0000
0110
0000
0000
0000
,
1100
0010
0001
0100
0010
0100
0001
0010
0100
1000
0001
0100
0001
1000
0010
1000
,
0100
0010
0001
0100
0010
0100
0001
0010
0100
1000
0001
1000
0100
0010
0100
1000
,
0001
0100
0010
0100
0001
1000
0010
1000
0001
0010
0001
1000
0100
0010
0001
0100
,
0010
1000
0100
1000
0010
0100
0001
0010
0100
1000
0001
0010
0100
1000
0100
0010
,
0001
0100
0010
1000
0100
0010
0001
0010
0100
1000
0001
1000
0100
0010
0001
0100
,
0010
0100
0010
0100
0001
1000
0001
0100
0010
1000
0010
0100
0001
1000
0010
0100
,
0022
0000
0000
0000
0000
0033
0110
0000
2020
0000
0000
0000
0000
0000
0000
3030
,
0100
0000
0001
0010
0100
1000
0100
0010
0001
0000
0100
0010
1000
0100
0010
0100
,
1001
0010
0100
1000
0001
0100
0001
1000
0100
1000
0001
0010
0001
1000
0100
1000
,
0001
0100
0001
1000
0010
1000
0001
0010
0001
0100
0010
0100
0001
1000
0001
1000
,
0010
1000
0100
0010
0001
0010
0100
1000
0001
0100
0010
0100
0001
0010
0100
1000
,
0100
0010
0001
1000
0001
0010
0100
0010
0001
0010
0100
1000
0001
0100
0001
1000
,
0100
0010
0100
1000
0010
0100
0010
1000
0100
0010
0100
1000
0001
0100
0001
0100
,
0001
0010
0100
1000
0100
0010
0001
0100
0010
1000
0100
0010
0001
0010
0100
1000
,
0220
0000
0000
0000
0000
0330
1010
0000
0202
0000
0000
0000
0000
0000
0000
0303
,
1000
0100
0010
0100
1000
0001
0100
0010
0100
0001
1000
0010
0100
0001
0010
0001
,
1000
0000
0000
0000
0100
0010
0001
1000
0100
0000
0000
0000
0010
0001
0100
0010
,
1000
0000
0000
0001
0000
0000
0100
0000
0000
0000
0000
0000
0001
0000
1000
0000
,
0100
0000
0010
0000
0001
0000
1000
0000
1100
0000
0000
0000
0000
0101
0000
0000
,
0000
0110
0000
0000
1001
0000
1000
1000
,
0110
0000
0000
1000
0000
0000
0001
0010
0100
1000
0000
0000
1000
0010
0100
0001
0000
0000
0010
0000
0000
0010
0000
0000
,
1100
0000
0000
0010
0000
0000
0001
0100
0010
1000
0000
0000
0100
0010
0001
1000
0000
0000
0100
0000
0000
0100
0000
0000
,
1010
0000
0000
0100
0000
0000
0001
1000
0100
1000
0000
0000
0010
0100
0001
0010
0000
0000
1000
0000
0000
1000
0000
0000
,
1100
0110
1000
1100
0100
0011
1100
0100
,
0011
0000
0000
0100
0000
0000
1000
0100
0010
0001
0000
0000
1000
0010
0100
0001
0000
0000
0001
0000
0000
0001
0000
0000
,
1010
0000
0000
0001
0000
0000
0100
0010
1000
0100
0000
0000
0010
0001
0100
0010
0000
0000
1000
0000
0000
1000
0000
0000
,
1001
0000
0000
1000
0000
0000
0100
0010
0001
0010
0000
0000
0100
0010
1000
0001
0000
0000
0100
0000
0000
0100
0000
0000
,
1010
0000
0000
0101
0000
0000
0010
0000
0000
1100
0000
0000
0010
0000
0000
1001
0000
0000
1000
0100
0010
0001
1000
0001
,
0010
0100
1000
0001
1000
0100
0010
0001
0100
0010
1000
0100
0010
0001
1000
0100
1000
0001
0010
0001
0100
0010
1000
0100
,
0010
0001
0010
0100
1000
0001
0100
0001
1000
0100
0010
0100
1000
0001
0010
0100
0010
0001
1000
0010
1000
0001
0100
0001
,
0100
0010
1000
0100
0010
0001
0100
0010
1000
0100
0010
0100
1000
0001
0010
0100
0010
0001
1000
0010
0100
0001
1000
0100
,
0010
0001
0010
0100
1000
0001
0200
0000
0000
0000
0000
0000
0000
0000
0000
0000
0300
0000
2000
0000
0000
0000
0000
0000
,
0000
0000
0000
0000
0000
0000
0000
3000
0100
0000
0000
0000
0020
0000
0000
0000
,
0000
0000
0000
0000
0000
0000
0000
0030
0001
0000
0100
0000
2000
0000
0000
0000
,
0000
0000
0000
0000
0000
0000
0000
3000
0010
0000
0000
0000
0200
0000
0000
0000
,
0000
0000
0000
0000
0310
0000
0002
0000
0000
0000
1003
0100
0020
0000
0000
0000
,
0000
0000
0000
0000
1030
0100
0010
0200
,
0000
0000
0300
0010
0001
1000
0200
0000
,
0000
0000
0000
0000
0000
0000
0000
0000
0000
0000
0000
0000
0000
0000
0000
0000
0000
0000
0000
0000
0000
0000
0000
0000
0000
0000
0000
0000
0000
0000
0000
0000
0000
0300
0000
0000
0010
0000
0000
0000
0001
0000
0000
0000
1000
0000
0000
0000
,
0100
0010
0001
0100
0010
0100
0001
0010
0100
0012
0000
0000
,
1000
0000
0000
0000
0000
0000
0000
0000
0000
0000
0000
0000
1000
0000
0000
0000
0000
0000
0000
0000
0000
0000
0000
0000
1000
0000
0000
0000
0000
0000
0000
0000
0000
0003
0000
0000
1000
0000
0000
0000
0100
0000
0000
0000
0010
0000
0000
0000
,
0100
1000
0001
0100
0001
1000
0010
1000
0100
0021
0000
0000
,
0001
0000
0000
0000
0000
0000
0000
0000
0000
0000
0000
0000
0001
0000
0000
0000
0000
0000
0000
0000
0000
0000
0000
0000
0001
0000
0000
0000
0000
0000
0000
0000
0000
0030
0000
0000
0001
0000
0000
0000
0010
0000
0000
0000
0100
0000
0000
0000
,
1000
0100
0010
0100
1000
0010
0100
0001
0010
1002
0000
0000
,
0000
1000
0000
0000
1003
0000
0200
0000
,
0000
0000
0000
0000
0000
0000
0000
0000
0000
0000
0000
0000
0000
0000
0000
0000
0000
0000
0000
0000
0000
0000
0000
0000
0000
0000
0000
0000
0000
0000
0000
0000
0000
0300
0000
0000
0010
0000
0001
0000
1000
0000
0100
0000
0010
0000
0100
0000
,
1000
0001
0100
0001
1000
0010
1000
0100
0010
0001
0010
0100
1000
0001
1000
0100
0010
0001
1000
0100
1000
0001
0010
0001
,
0100
0000
0010
0000
1000
0000
0100
0000
0010
0000
0100
0000
1000
0000
0100
0000
0020
0000
0000
0000
0000
0000
0000
0000
0000
0000
0000
0000
0000
0000
0000
0000
0000
0000
0030
0000
1100
0000
0000
0000
0000
0000
0010
0000
0000
0001
0000
0000
,
0100
0001
1000
0101
0010
1000
1100
0010
0100
1001
0010
0001
,
0110
1000
0001
0110
0100
0001
1100
0000
0000
1100
0010
0100
,
0011
0100
0010
1100
1000
0001
1001
0010
0100
0110
1000
0011
,
0100
0000
0000
0000
1010
0000
0000
0000
0001
0000
0000
0000
0011
0000
0000
0000
0100
0000
0000
0000
0010
0000
0000
0000
1100
0000
0000
0000
0010
0000
0000
0000
0001
0000
0000
0000
0110
0000
0000
0000
0000
0000
1000
0000
0000
0100
0000
0000
,
0011
0100
0010
1001
1000
0100
1010
0100
0001
1100
0010
0100
,
0011
1000
0010
0101
0010
1000
0110
0000
0000
1100
0010
0001
,
0110
1000
0001
1010
0100
0010
0011
0100
0010
1100
0100
1001
,
0010
0000
0000
0000
0101
0000
0000
0000
0010
0000
0000
0000
1100
0000
0000
0000
0010
0000
0000
0000
0001
0000
0000
0000
0100
0000
0000
0000
0010
0000
0000
0000
1000
0000
0000
0000
0100
0000
0000
0010
0000
0000
0001
0000
0000
1000
0000
0000
,
0100
0010
0100
1000
0001
0100
0010
0100
0001
1000
0010
0100
0001
0100
0010
1000
,
0100
1000
0001
0010
0001
0100
0010
1000
0100
0010
0001
0100
0010
1000
0100
1000
,
0001
0100
0001
0100
0010
1000
0100
0010
0100
1000
0001
0100
0010
0100
0001
1000
,
0010
1000
0001
0010
0100
1000
0010
0100
0010
1000
0100
0010
0102
0000
0000
0000
,
0000
0000
0003
0000
2000
0000
0000
3200
0000
0000
0320
0030
2001
0000
0000
0000
,
0000
0000
0000
0000
0000
0000
0000
0000
0000
0000
0000
3000
0201
0000
0000
0320
,
0000
0000
0000
0000
0000
0000
2030
0000
0000
3000
0000
0000
0201
0000
0000
0000
0000
0000
0000
0000
0000
0320
0000
0000
0000
0000
0000
0000
0000
0000
0030
0000
0010
0000
0100
0000
1000
0000
0000
0000
0000
0000
0000
0000
0100
0000
0010
0000
,
0001
0000
0000
0000
0000
0000
0000
0000
0000
0000
0000
0000
0000
0000
0000
0000
0000
0000
0000
0000
0000
0000
0000
0000
0000
0000
0000
0000
0000
0000
0000
0000
0010
0000
0000
0000
0000
0000
0000
0000
1000
0000
0000
0000
0000
0000
0000
0000
0100
0000
0000
0000
0000
0000
0010
0000
0000
0000
0000
0000
0001
0000
0000
0000
0000
0000
0100
0000
0000
0000
0000
0000
0010
0000
0000
0000
0000
0000
1000
0000
0000
0000
0000
0000
0100
0000
0000
0000
0000
0000
0010
0000
0000
0000
0000
0000
0100
0000
0000
0000
0000
0000
1000
0000
0000
0000
0000
0000
0001
0000
0000
0000
0000
0000
0100
0000
0000
0000
0000
0000
0001
0000
0000
0000
0000
0000
1000
0000
0000
0000
0000
0000
0010
0000
0000
0000
0000
0000
0100
0000
0000
0000
0000
0000
0001
0000
0000
0000
0000
0000
0000
0000
0000
0000
0000
0000
0010
0000
0000
0000
0000
0000
0000
0000
0000
0000
0000
0000
0100
0000
0000
0000
0000
0000
0000
0000
0000
0000
0000
0000
1000
0000
0000
0000
0000
0000
0000
0000
0000
0000
0000
0000
,
0001
0100
0010
0100
0001
1000
0010
0100
0001
1000
0100
0010
0100
1000
0001
0100
,
0010
0100
0001
1000
0010
0100
0001
0100
0010
1000
0100
0010
0100
1000
0001
0100
,
0001
1000
0010
1000
0100
0010
0001
0010
0100
1000
0001
0010
0100
0010
0001
1000
,
0010
0100
0001
1000
0110
0001
0100
0010
1000
0010
0100
0001
1010
0100
0010
0001
,
1000
0100
0010
0100
1000
0001
0100
0001
1000
0010
0100
0010
1000
0001
0100
0001
,
1000
0010
1000
0100
0010
0001
0100
0010
1000
0100
0010
0001
2200
0000
0000
0000
,
0000
3300
0011
0000
2002
0000
0000
0000
0000
0000
0000
3003
0110
0000
0001
0010
,
0100
1000
0100
0010
1001
0000
0100
0010
1000
0010
0100
0001
1100
0001
0100
0010
,
1000
0010
0100
0001
1000
0010
1000
0001
0100
0010
0100
0001
1000
0010
1000
0100
,
0010
0001
1000
0100
1000
0001
0010
0100
0010
0001
0010
0001
1000
0010
0100
0001
,
1000
0100
1000
0010
0100
0010
1000
0100
1000
0001
0010
0100
0010
0001
1000
0100
,
0010
0100
1000
0001
1100
0010
1000
0001
0100
0010
1000
0100
0011
0100
0010
1000
,
0100
0010
0001
0100
0010
1000
0100
1000
0001
0100
0001
1000
0010
1000
0100
0010
,
0001
0010
0100
1000
0001
0100
0010
0100
0001
1000
0001
0010
2200
0000
0000
0000
,
0000
3300
1010
0000
0220
0000
0000
0000
0000
0000
0000
0330
1100
0010
0001
0100
,
0010
1000
0100
0010
0100
1000
0001
0010
0001
0100
0010
1000
0110
0000
0000
0000
,
0001
1000
0001
1000
0011
0000
0000
0000
0100
0010
0001
1000
0110
0000
0000
0000
,
0101
1010
0000
0000
;
