#TITLE:Reasons To Live;
#SUBTITLE:;
#ARTIST:Dragonforce;
#TITLETRANSLIT:;
#SUBTITLETRANSLIT:;
#ARTISTTRANSLIT:;
#CREDIT:B. Abear;
#BANNER:Bn-Reasons.png;
#BACKGROUND:Bg-Reasons.png;
#LYRICSPATH:;
#CDTITLE:;
#MUSIC:Reasons to Live.ogg;
#OFFSET:-0.200;
#SAMPLESTART:63.020;
#SAMPLELENGTH:16.000;
#SELECTABLE:YES;
#BPMS:0.000=175.000,76.000=87.500,78.000=175.000,460.000=108.000,524.000=175.000,998.000=131.250;
#STOPS:178.000=1.029
,211.000=0.342
,212.000=0.343
,213.000=0.343
,214.000=0.343
,217.000=0.343
,218.000=1.028
,279.000=1.029
,376.000=1.028
,377.000=1.029
,410.000=0.343
,411.000=0.343
,412.000=0.343
,413.000=0.342
,416.000=0.343
,417.000=1.028
,458.000=1.028
,459.000=1.029
,920.000=1.029
,965.000=1.029
;
#BGCHANGES:;
// cache tags:
#FIRSTBEAT:12.000;
#LASTBEAT:1024.000;
#SONGFILENAME:Songs/Dragonforce/Reasons To Live/Reasons To Live.sm;
#HASMUSIC:1;
#HASBANNER:1;
#MUSICLENGTH:385.750;
// end cache tags

//---------------dance-single - B. Abear----------------
#NOTES:
     dance-single:
     B. Abear:
     Challenge:
     13:
     1.000,1.000,0.428,0.257,1.000,2464.000,165.000,99.000,103.000,0.000:



0000
0000
0000
0000
,
0000
0000
0000
0000
,
0000
0000
0000
0000
,
0001
0100
0010
1000
0001
1000
0100
0010
0001
1000
0001
0100
,
0010
0100
0001
1000
0100
0010
0001
1000
0001
0100
0010
0100
,
0110
1010
1001
0011
,
0001
0100
0010
1000
0001
1000
0100
0010
0001
1000
0001
0100
0010
1000
0001
0010
,
0100
1000
0001
0100
0010
1000
0001
1000
0001
0010
0100
1000
,
0001
0100
0010
0100
0001
1000
0100
0010
0001
1000
0001
1000
,
1001
0101
0000
1001
1100
0000
1001
0101
,
0000
0000
0000
1001
0000
0000
1100
0000
000M
0000
0000
0000
M000
0000
0000
0000
0M00
0000
00M0
0000
M000
0000
000M
0000
,
1000
0100
1000
0001
0100
0001
1000
0010
1000
0010
0100
0001
,
0010
0100
1000
0001
0010
0100
1000
0001
1000
0010
0100
0010
,
0110
1010
1001
0101
,
0110
0010
1000
1001
0001
0010
0110
0100
1000
1001
0001
0100
,
0010
1000
0001
0010
0100
1000
0001
0100
0010
1000
0001
1000
,
0100
0010
0001
0100
0010
1000
0010
0100
0001
1000
0100
0010
,
0110
1001
0000
1001
0110
0000
0110
1001
,
0000
0000
0000
1001
0000
0000
0110
0000
000M
0000
0000
0000
M000
0000
0000
0000
0M00
0000
00M0
0000
0000
0000
0000
0000
,
000M
0000
0000
0000
M000
0000
0000
0000
000M
0000
0000
0000
M0M0
0000
0000
0000
0M00
0000
0000
0000
MM00
0000
0000
0000
0001
0000
0000
0000
0000
0000
0100
0000
0000
0000
0000
0000
0010
0000
0000
1000
0000
0000
0010
0000
0000
0000
0000
0000
,
1000
0000
0001
0000
0010
0001
0010
0000
0100
0000
1000
0000
0001
1000
0001
0000
,
1000
0000
0010
0000
0100
0010
0100
0000
0001
0000
1000
0000
0100
1000
0100
0000
,
0010
0000
0001
0000
1000
0001
1000
0000
0001
0100
0010
1000
0001
1000
0100
0010
,
0001
1000
0001
0100
0010
1000
0001
0010
0100
0000
1000
0000
0001
0100
0001
0000
,
1000
0000
0010
0000
0100
0010
0100
0000
0001
0000
1000
0000
0100
1000
0100
0000
,
0010
0000
0001
0000
1000
0100
1000
0000
0001
0100
0000
0010
0000
1000
0100
0010
,
0001
0100
0001
0100
0001
0010
0001
0010
0100
1000
0001
0100
0001
0100
0010
1000
,
0001
0010
0001
0010
0100
1000
0100
1000
1MM1
0000
0000
0000
0000
0000
0000
0000
,
0000
0000
1MM1
0000
,
0000
0000
0000
0000
0000
0000
0000
0000
1000
0100
0010
0001
1000
0001
0100
0010
,
0100
0001
1000
0001
1000
0100
0010
0001
1000
0010
1000
0010
0100
0001
0100
0001
,
1000
0100
1000
0100
0010
0001
0100
0010
2000
0000
0000
0000
0000
0000
0000
0000
,
0000
0000
3002
0000
,
0000
0000
0000
0000
0000
0000
0000
0000
1003
0010
1000
0010
0100
0010
0100
0010
,
0100
0001
0100
0001
1000
0001
1000
0001
0010
0000
0010
0000
0010
0000
0010
0000
,
0100
0010
0001
0010
0100
0010
0001
0010
0100
1000
0001
0000
0100
0010
1000
0000
,
0001
0010
0100
0000
1000
0001
0100
0000
0010
0100
0001
0000
0010
0100
1000
0000
,
0001
0100
0010
0000
0100
0001
0010
0000
0100
1000
0001
0000
0100
0010
1000
0000
,
0001
0100
0010
0000
0100
0001
0010
0000
0100
1000
0001
0000
1000
0010
1000
0000
,
0001
0010
0100
0000
1000
0100
0010
0000
0002
0000
0103
0010
1000
0100
0010
0001
,
1000
0001
0100
0010
1000
0001
0010
0100
2000
0000
3001
0100
0010
1000
0001
0010
,
0001
1000
0010
0100
0001
1000
0001
0010
0100
1000
0001
0100
0001
0100
0010
1000
,
0001
0010
0001
0010
0100
1000
0100
1000
0001
0100
0001
0100
0010
0000
00M1
0100
,
0001
0100
0010
0000
00M1
0100
0001
0100
0110
0000
0000
0000
1010
0000
0000
0000
,
1001
0000
0000
0000
0011
0000
0000
0000
1MM1
0000
0000
0000
1000
0100
1000
0001
,
0100
0010
1000
0001
0010
0001
1000
0010
0100
0001
1000
0100
1000
0001
0010
0001
,
1000
0010
0100
0001
1000
0010
0100
0010
0100
0001
1000
0100
0010
0001
0010
0100
,
0010
0001
1000
0001
0100
0010
1000
0001
1000
0100
1000
0001
0010
0001
0100
0010
,
1000
0001
1000
0100
0010
0000
0010
0100
1000
0001
1000
0001
0100
0000
0010
0000
,
1000
0001
1000
0000
0001
0000
0010
0000
0100
1000
0100
0000
0010
0000
0001
0000
,
1000
0001
1000
0000
0010
0000
0100
0000
0001
0100
0001
0000
0101
0000
1000
0000
,
0101
1000
0101
0101
0001
2100
0000
3100
,
0010
0000
0001
0000
1000
0000
0001
0000
0100
0000
0010
0000
0100
0000
0001
0000
1000
0100
0000
0000
0000
0000
0000
0000
11MM
0000
0000
0000
0000
0000
0000
0000
,
M11M
0000
0000
MM11
0000
0000
1MM1
0000
0000
0001
0001
1000
,
1000
0000
0000
0000
0100
0000
0000
0000
0100
0000
0000
0000
001M
0000
0000
0000
0000
0000
0000
0000
0000
0000
0000
0000
MM11
0000
0000
0000
0000
0000
0000
0000
0000
0000
0000
0000
0001
0000
0000
0100
0000
0000
0010
0000
0000
1000
0000
0000
,
0001
1000
0100
1000
0001
0010
0001
0100
0010
1000
0001
0100
0001
1000
0100
0010
,
0001
1000
0010
1000
0001
0010
0100
1000
0001
0100
0010
1000
0001
0010
0001
1000
,
0010
0100
0001
1000
0100
1000
0001
0010
0100
1000
0010
0100
0010
0100
0001
1000
,
0001
0100
0010
1000
0001
0100
0010
0000
1020
0000
0000
0000
1030
0100
1000
0001
,
0010
0001
0100
0010
1000
0001
0010
0100
1000
0010
1000
0001
0100
0001
0010
0100
,
1000
0001
0010
0001
1000
0100
1000
0010
0100
0001
0100
0010
1000
0001
0010
0100
,
1000
0001
0010
0001
1000
0010
0100
0001
0100
0010
1000
0100
0010
0001
0010
0001
,
1000
0100
0010
0001
0010
0001
1000
0100
0010
0100
1000
0001
0200
0000
0000
0000
,
0000
0000
0000
0000
0000
0000
0000
0000
0310
0000
1000
0000
0001
0010
0100
0000
,
2000
0000
0000
0000
3001
0100
0110
0020
,
0000
0000
0000
0000
0000
0000
0000
0000
2000
0030
0000
0000
0000
0000
0000
0000
0000
0000
0000
0000
0000
0000
0000
0000
3002
0000
0000
0000
0000
0000
0000
0000
0000
0000
0000
0000
1003
0000
0000
0100
0000
0000
0010
0000
0000
0001
0000
0000
,
1000
0010
1000
0001
0010
0100
1000
0001
0100
0001
1000
0010
2000
0000
0000
0000
,
0000
0000
0000
0000
0000
0000
0000
0000
3001
0000
1000
0000
0100
0010
0001
0000
,
0020
0000
0000
0000
0130
1000
1100
0000
,
0110
0011
1010
4MM1
,
3001
0000
0100
0000
0010
1000
0010
0000
1000
0000
0001
0000
0010
0001
0010
0000
,
0100
0000
1000
0000
0001
1000
0001
0000
1000
0000
0010
0000
0100
0010
0100
0000
,
0001
0000
1000
0000
0100
1000
0100
0000
0010
0000
0001
0000
1000
0001
1000
0000
,
0001
0100
0010
1000
0001
1000
0100
0010
0001
1000
0001
0100
0010
1000
0001
0010
,
0100
0000
1000
0000
0001
0100
0001
0000
1000
0000
0010
0000
0100
0010
0100
0000
,
0001
0000
1000
0000
0100
1000
0100
0000
0010
0000
0001
0000
1000
0100
1000
0000
,
0001
0100
0010
1000
0001
1000
0100
0010
0001
0100
0001
0100
0001
0010
0001
0010
,
0100
1000
0001
0100
0001
0100
0010
1000
0001
0010
0001
0010
0100
1000
0100
1000
,
1MM1
0000
0000
0000
,
1MM1
0000
0000
0000
,
1000
0001
0100
0010
1000
0001
0100
0010
0100
0001
1000
0001
0010
0100
0010
0100
,
1000
0010
1000
0010
0100
0001
0100
0001
1000
0100
1000
0100
0010
0001
0100
0010
,
0200
0000
0000
0000
,
0320
0000
0000
0000
,
1030
0001
1000
0001
0100
0010
0100
0010
0100
0001
0100
0001
1000
0001
1000
0001
,
0010
0010
0010
0010
0400
0000
0000
0000
,
1300
0001
0010
0000
0001
1000
0100
0000
1000
0100
0010
0000
0001
1000
0010
0000
,
0100
0010
1000
0000
0100
0010
0001
0000
1000
0010
0100
0000
0010
1000
0100
0000
,
0010
0001
1000
0000
0010
0100
0001
0000
1000
0010
0100
0000
0010
1000
0100
0000
,
0010
0001
1000
0000
0001
0100
0001
0000
1000
0100
0010
0000
0001
0010
0100
0000
,
2000
0000
3010
0100
0001
0010
0100
1000
0001
1000
0010
0100
0001
1000
0100
0010
,
0002
0000
1003
0010
0100
0001
1000
0100
1000
0001
0100
0010
1000
0001
1000
0100
,
0010
0001
1000
0010
1000
0010
0100
0001
1000
0100
1000
0100
0010
0001
0010
0001
,
1000
0010
1000
0010
0100
0000
1M00
0010
1000
0010
0100
0000
1M00
0010
1000
0010
,
M11M
0000
0000
0000
1MM1
0000
0000
0000
0001
1000
0010
0100
0001
1000
0100
0010
,
0100
1000
0001
0100
0001
1000
0010
0100
0010
0100
0001
0100
0010
1000
0001
0010
,
0100
1000
0001
0010
0100
0010
0001
1000
0001
1000
0010
0100
0001
0100
0010
1000
,
0001
0010
0100
1000
0100
1000
0001
0000
0001
0100
0000
0010
1000
0001
1000
0001
,
0010
0001
0010
0001
1000
0010
1000
0010
0100
0000
0001
0000
1000
0100
1000
0000
,
0001
0000
0010
0000
0100
0010
0100
0000
1000
0000
0001
0000
0100
0001
0100
0000
,
0010
0000
1000
0000
0001
0100
0001
0000
1001
0000
1000
0000
1100
0000
0100
0000
,
0110
0000
0011
0000
0001
0000
1002
0000
0000
0000
1003
0010
0100
0001
1000
0100
,
0010
0000
0100
0000
1000
0000
0001
0000
1000
0100
0000
0000
0000
0000
0000
0000
11MM
0000
0000
0000
0000
0000
0000
0000
M11M
0000
0000
0000
0000
0000
0000
0000
,
MM11
0000
0000
1MM1
0000
0000
1000
1000
0010
0010
0100
0100
,
00M1
0000
0000
0000
M1M1
0000
0000
0000
0001
0100
0010
1000
0001
1000
0100
1000
,
0001
0010
0001
0100
0010
1000
0001
0100
0001
1000
0100
0010
0001
1000
0010
1000
,
0001
0010
0100
1000
0001
0100
0010
1000
0001
0010
0001
1000
0010
0100
0001
1000
,
0100
1000
0001
0010
0100
1000
0010
0000
0010
1000
0001
0000
2001
0000
0000
0000
,
3001
0100
0010
0000
1020
0000
0000
0000
1030
0100
1000
0001
0010
0001
0100
0010
,
1000
0001
0010
0100
1000
0010
1000
0001
0100
0001
0010
0100
1000
0001
0010
0001
,
1000
0100
1000
0010
0100
0001
0100
0010
1000
0001
0010
0100
1000
0001
0010
0001
,
1000
0010
0100
0001
0100
0010
1000
0100
0010
0001
0010
0001
1000
0100
0010
0001
,
0010
0001
1000
0100
0010
0100
1000
0001
0100
0010
0000
1000
0000
0001
0010
0100
,
1000
0001
1000
0001
0100
0001
0100
0001
1000
0100
0010
0001
0010
0001
1000
0100
,
0010
0001
0010
0001
1000
0001
1000
0001
04M0
0000
0000
0000
M340
0000
0000
0000
,
1031
0000
1000
0001
1000
0000
0012
0000
,
1003
0000
0010
0100
0010
0000
0201
0000
,
0310
0000
1000
0100
1000
0000
2100
0000
,
3001
0000
0010
0100
0010
0000
0210
0000
,
1300
0001
0100
0010
0100
0001
1000
0100
0010
0100
1000
1000
0002
0000
0000
0000
,
0103
0010
1000
0001
0010
0100
1000
0001
0100
0010
0100
0001
0020
0000
0000
0000
,
0130
1000
0100
1000
0001
0100
0001
0100
,
1010
0001
1100
0001
1100
0100
0011
1000
,
1001
0000
0001
0100
0001
0000
0210
0000
,
0301
0000
1000
0100
1000
0000
0012
0000
,
1003
0000
0000
0000
0000
0000
0000
0000
0000
0000
0000
0000
0010
0000
0000
0000
0000
0000
0100
0000
0000
0010
0000
0000
0100
0000
0000
0000
0000
0000
0000
0000
0001
0000
0000
0000
0000
0000
0000
0000
1000
0000
0000
0000
0000
0000
0000
0000
,
0100
0010
0002
0000
0000
0000
0000
0000
1003
0000
0020
0000
0000
0000
0000
0000
,
0130
0000
0000
0000
0000
0000
0000
0000
0001
0000
0000
0000
0000
0000
0000
0000
1000
0000
0000
0000
0000
0000
0000
0000
0200
0000
0000
0000
0000
0000
0000
0000
0000
0000
0000
0000
0000
0000
0000
0000
0000
0000
0310
0000
0000
0001
0000
0000
,
2000
0000
3001
0200
0000
0000
0000
0300
,
0001
0100
0001
0100
0010
1000
0010
1000
,
0011
1000
0101
1000
0101
0110
0010
1000
,
0101
0000
0001
0000
1000
0100
1000
0000
1001
0000
0001
0000
0100
0000
1010
0000
,
0000
0000
0010
0100
0010
0000
0101
0000
0001
0000
1000
0000
0100
0000
0010
0000
,
0011
0000
0001
0000
1001
0000
1000
0001
0100
0000
0010
0000
1001
0000
0100
0000
,
0000
0000
0001
1000
0001
0000
1000
0000
0044
0000
0000
0000
0000
0000
0033
0000
,
1001
0000
1000
0000
0001
0100
0001
0000
0101
0000
0100
0000
0010
0000
0101
0000
,
0000
0000
0001
1000
0100
0000
1100
0000
0100
0000
0011
0000
0100
0000
1000
0000
,
0002
0000
0003
0000
0200
0000
0310
1000
0001
0000
1000
0000
0011
0000
2002
0000
,
3003
2002
3003
2002
3003
2002
3003
0000
,
2002
0000
0003
3002
0000
0000
0103
0010
,
2000
0000
0000
3001
0010
0100
0010
0001
,
2000
0000
0000
0010
0000
3001
0020
0100
,
0100
0000
0031
1000
0001
0100
0010
0100
,
0002
0000
0000
0000
0000
0000
0000
0000
0000
0000
0000
0000
1003
0100
1000
0001
,
0100
0001
1000
0100
0010
0100
1000
0001
,
0200
0000
0000
0320
0000
0000
1030
0001
,
0011
0000
1000
0000
0000
0000
0001
0000
0011
0000
1000
0001
0100
0000
0010
0000
,
2010
0000
0001
0001
0000
0010
3010
0000
,
0000
0001
1000
0001
1000
0001
0100
0001
,
1100
0000
0001
0000
0100
0000
1010
0000
0001
0000
0200
0000
0000
0000
0310
1000
,
0001
0000
1200
0000
0000
0310
0001
1000
,
MMM0
0000
0201
0000
0000
0310
0000
1000
,
0002
0000
0000
0000
0000
0000
0000
0000
0000
2003
0000
0000
0000
0000
0000
0000
0000
0000
3100
0000
0010
0000
0001
0000
,
2001
0000
3010
1020
0000
0130
0000
0001
,
1001
0000
0000
0000
1100
0000
0001
0000
1000
0010
0100
0001
0011
0000
1000
0000
,
0002
0000
0000
0000
0000
0000
0013
0000
0000
0000
0000
0200
0000
0000
0000
0000
,
0000
0000
1000
0000
1300
0000
0100
0000
1000
0000
0100
0010
0001
0000
1000
0000
,
0001
0100
0010
0100
0001
0010
0100
0010
0001
0100
0010
0100
0001
0010
0100
0010
,
0001
0100
0010
0100
0001
0010
0100
0010
0002
0000
0003
0000
2000
0000
3020
0000
,
0030
0000
0100
0001
0000
1000
0000
0200
,
0000
0310
0001
1000
0010
1000
0001
0010
,
0100
1000
0100
0010
0100
1000
0010
0100
0010
1000
0100
0010
0100
1000
0010
0100
,
0001
0010
0100
0010
0001
0100
0010
0100
0001
0010
0100
0010
0001
0100
0010
0100
,
0001
0000
0000
0001
0000
0000
1000
0000
0000
0002
0000
0000
0000
0000
0003
0001
0000
0000
1000
0000
0000
0002
0000
0000
,
0000
0000
0003
0001
0000
0000
0010
0000
0000
0100
0000
0000
1100
0000
0000
1000
0000
0000
0001
0000
0000
0100
0000
0000
,
0010
1000
0010
1000
0001
0100
0010
1000
0010
1000
0001
0100
0010
1000
0001
1000
,
0100
0010
0000
0200
0000
0010
0010
0010
,
1300
0001
0100
0001
1000
0010
1000
0100
0010
0001
0010
0100
1000
0001
0100
0001
,
0010
0100
1000
0010
0100
0010
1000
0001
0010
0001
1000
0100
0010
0001
1000
0010
,
1000
0000
1000
0001
1000
0000
0100
0000
0010
0000
0001
0000
1000
0000
0010
0000
,
0101
1000
1000
0011
1000
1000
0101
0010
,
4000
0000
3001
0001
0010
0100
0010
0001
,
1000
0010
0100
0001
0200
0000
0310
1000
,
0002
0000
0013
0010
0100
1000
0001
0100
,
0002
0000
0000
0000
0023
0000
0000
0000
0230
0000
1300
0001
1000
0000
0001
0000
,
0200
0000
0010
0010
0320
0000
1000
0100
,
1030
0001
0010
0010
0100
1000
2000
3000
,
1002
0000
0000
0203
0000
0000
0320
0000
,
1030
0001
0100
0000
0001
0000
0001
1000
0100
0000
1000
0000
1000
0001
0100
0000
,
0001
0100
0010
1000
0001
0010
0100
1000
0001
1000
0010
0100
0001
1000
0100
1000
,
0001
0010
0100
1000
0001
0100
0010
1000
0001
1000
0100
0010
0100
1000
0001
0010
,
0001
1000
0010
0100
0001
1000
0010
0100
0001
1000
0100
1000
0001
0010
0001
0010
,
0100
1000
0001
0100
0010
1000
0100
0010
0100
0010
0001
1000
0001
0100
0010
1000
,
0001
0000
0000
0000
0100
0000
0000
0000
0010
0000
0000
0000
1000
0000
0000
0001
0000
0000
1000
0000
0000
0100
0000
0000
0010
0000
0000
0001
0000
0000
1000
0000
0000
0001
0000
0000
0100
0000
0000
0000
0010
0000
0000
0000
1000
0000
0000
0000
,
0001
0000
0000
0000
0010
0000
0000
0000
0100
0000
0000
0000
1000
0000
0000
0001
0000
0000
0100
0000
0000
0001
0000
0000
1000
0000
0000
0100
0000
0000
0010
0000
0000
0001
0000
0000
2000
0000
0000
0000
0000
0000
0000
0000
0000
0000
0000
0000
,
3404
0000
1303
0044
0000
0033
4400
0000
,
3311
1000
0100
0011
1000
0100
1001
0001
,
0200
0000
0320
2030
,
0000
0000
0000
3001
,
0021
0000
0230
2300
,
0000
0000
0000
0000
3001
0100
0010
1000
0001
0010
0100
1000
0001
1000
0001
0100
,
0010
0100
0001
1000
0100
1000
0001
0010
0100
1000
0001
0100
0001
1000
0001
0010
,
0100
1000
0001
0100
0001
1000
0010
0100
0001
0010
0001
1000
0100
1000
0001
0000
,
2002
0000
0000
0000
0000
0000
0000
0000
0000
0003
0000
0000
3001
0000
0000
0000
0010
0000
0000
0000
0100
0000
0000
0000
,
4000
0004
0000
0000
0000
0000
0000
0000
0000
0000
0000
0000
0000
0000
0000
0000
0000
0000
0000
0000
0000
3003
0000
0000
,
0001
0100
0010
1000
0001
1000
0100
0010
0100
1000
0001
1000
,
0010
0100
0001
1000
0010
1000
0001
0010
0100
1000
0001
1000
0010
0100
0001
1000
,
0100
0000
0000
0000
0010
0000
0000
0000
0001
0000
0000
1000
0001
0000
0100
0000
0010
0000
1000
0000
0001
0000
0000
0000
,
2000
0000
0000
0000
0000
0000
3001
0100
0020
0000
0000
0000
0000
0000
0030
0000
,
0100
0001
1000
0010
0100
0010
0100
0001
1000
0010
0100
0010
,
1000
0100
0010
0001
1000
0100
0010
0001
1000
0100
0010
0001
1000
0100
0010
0001
,
1000
0010
0100
0001
0010
0100
1000
0010
0100
0001
0010
0100
,
1000
0100
1000
0001
0100
0001
1000
0010
1000
0001
0010
0001
1000
0010
1000
0001
,
0011
0000
1001
0000
1010
0110
0101
1100
,
1001
0000
0000
M00M
0000
0000
0001
1000
0000
0000
0000
0000
1000
0004
0000
0000
0000
0000
0000
0000
0000
0003
0000
0000
,
1001
0000
1000
0000
0010
0100
0010
0000
0100
0000
0001
0000
1000
0100
1000
0000
,
0001
0010
0001
0010
0100
0010
0100
0010
0100
1000
0100
1000
0001
1000
0001
0000
,
1001
0000
0000
1000
0000
0000
0010
0000
0110
0000
0000
0100
0000
0000
0001
0000
,
2001
3200
0340
0000
,
0130
1000
0001
1000
0010
0100
0001
1000
0001
1000
0010
0100
0001
0100
0001
1000
,
0200
0000
0310
0001
1000
0100
0010
0001
1000
0001
0010
0001
1000
0100
0010
0001
,
1000
0001
0100
0001
1000
0010
0100
0010
1000
0001
0100
0001
1000
0100
0010
0001
,
1000
0000
0000
0010
0000
0000
0100
0000
0101
0000
0000
0000
0002
0000
0000
0000
,
1003
0000
0000
0100
0000
0000
0010
0000
0004
0000
0000
0000
0000
0000
0000
1003
,
0010
0000
0000
0100
0000
0000
0001
0000
1000
0000
0000
0001
0000
0000
0010
0000
,
0400
0000
0000
0000
0000
1300
0001
0100
,
0010
1000
0010
1000
0001
1000
0001
1000
0001
0010
0001
0010
0100
0010
0100
0010
,
0001
1000
0010
0100
0001
1000
0100
0010
0100
1000
0001
0010
0001
1000
0010
0100
,
0001
1000
0100
0010
0001
1000
0001
0100
0010
1000
0100
0010
0100
0010
0001
1000
,
0010
0100
0010
0100
0001
1000
0001
1000
0010
0100
0010
0100
0001
1000
0001
1000
,
0100
0010
0001
1000
0000
0001
1000
0000
0010
0100
0001
1000
0100
0010
0001
1000
,
0010
0100
0010
0000
1000
0001
1000
0000
0001
0010
0001
0000
1000
0100
1000
0000
,
0001
0010
0001
0000
0010
0100
0010
0000
0100
1000
0100
0000
1000
0001
1000
0000
,
0010
1000
0010
0000
0100
0001
0100
0000
0001
1000
0001
0000
1000
0100
1000
0000
,
0001
0010
0001
0000
0010
0100
0010
0000
0100
1000
0100
0000
1000
0001
1000
0000
,
0020
0000
0130
0001
1000
0001
0010
0100
1000
0001
1000
0010
0100
0001
1000
0100
,
0020
0000
0130
1000
0001
1000
0010
0100
0001
1000
0100
0010
0001
1000
0010
1000
,
0001
0100
0010
1000
0001
0100
0010
1000
0001
0100
0010
1000
0001
0100
0010
1000
,
0001
0010
0001
0010
0100
1000
0001
0010
0001
0010
0100
0010
0001
1000
0001
0000
,
1001
1100
0110
0011
,
1MM1
0000
0000
0000
0001
0010
0001
1000
0010
0100
0001
1000
0100
1000
0001
0100
,
0010
1000
0001
0010
0001
1000
0100
1000
0001
0100
0010
1000
0001
0100
0010
0100
,
0010
1000
0001
0010
0100
1000
0100
0010
0100
1000
0001
1000
0010
0100
0001
1000
,
0001
0010
0001
1000
0100
1000
0010
0100
0001
1000
0001
0010
0100
0000
0100
0010
,
0001
1000
0001
1000
0010
0000
0100
0000
0001
1000
0001
0000
1000
0000
0100
0000
,
0010
0001
0010
0000
0100
0000
1000
0000
0001
1000
0001
0000
0100
0000
0010
0000
,
1000
0010
1000
0000
1010
0000
0001
0000
1010
0000
0001
0000
1010
0000
1010
0000
,
1000
0000
0012
0000
0000
0000
0013
0000
0100
1000
0001
1000
0010
0100
0010
1000
,
0001
0010
0000
0000
0000
0000
0000
0000
0001
0000
0100
0000
0010
0000
1000
0000
0001
0000
1000
0000
0100
0000
0010
0000
0001
0000
1000
0000
0010
0000
0100
0000
,
0001
0010
0100
0010
0001
1000
0001
1000
0010
0100
0010
1000
0001
1000
0100
0010
,
0001
0000
0000
0010
0000
0000
0100
0000
0000
0010
0000
0000
0001
0000
1000
0000
0001
0000
1000
0000
0001
0000
1000
0000
0001
0000
1000
0000
0001
0000
1000
0000
0001
0000
1000
0000
0001
0000
1000
0000
0001
0000
1000
0000
0001
0000
1000
0000
,
0001
1000
0001
1000
0001
1000
0MM1
0000
0000
0000
0000
0000
2001
0000
0000
0000
0000
0000
0000
0000
0000
0000
0000
0000
,
3001
0010
0100
1001
,
1000
0000
0010
0000
0110
0000
0010
0100
,
0001
0000
1000
0100
0010
0100
1000
0001
,
1000
0010
0100
0001
1001
0000
1000
0000
,
1100
0000
0100
0010
0001
0000
1010
0000
,
0001
0000
0100
0010
1010
0000
1000
0000
,
1001
0000
0001
0010
0010
0000
0100
1000
,
1001
0000
0000
0001
0000
0000
0101
0000
0000
0000
0000
0000
MMM1
0000
0000
0000
0000
00M0
0000
0000
M000
0000
0000
0000
,
0000
0000
0000
0000
0000
0000
0000
0000
000M
0000
0000
0000
0000
0000
0000
0000
0000
0000
0000
0000
0000
0000
0000
0000
0000
0000
0000
0000
0000
0000
0000
0000
0000
0000
0000
0000
0000
0000
0000
0000
0M00
0000
0000
0000
0000
0000
0000
0000
0000
0000
0000
0000
0000
0000
0000
0000
0000
0000
0000
0000
0000
0000
0000
0000
0000
0000
0010
0000
0000
0000
0000
0000
0000
0000
0000
0000
0000
0000
0000
0000
000M
0000
0000
0000
0000
0000
0000
0000
0000
0000
0000
0000
0000
0000
0000
0000
0000
0000
0000
0000
0000
0000
0000
0000
0000
0000
0000
0000
0000
0000
0000
0000
00M0
0000
0000
0000
0000
0000
0000
0000
0000
0000
0000
0000
0000
0000
0000
0000
0000
0000
0000
0000
0000
0000
0000
0000
0000
0000
0000
0000
0000
0000
0000
0000
M000
0000
0000
0000
0000
0000
0000
0000
0000
0000
0000
0000
0000
0000
0000
0000
0000
0000
0000
0000
0000
0000
0000
0000
0000
0000
0000
0000
0000
0000
0000
0000
0000
0000
0000
0000
0000
0000
0000
0000
0M00
0000
0000
0000
0000
0000
0000
0000
,
0000
0000
0000
0000
0000
0000
0000
0000
0000
0000
0000
0000
0000
0000
0000
0000
000M
0000
0000
0000
0000
0000
0000
0000
0000
0000
0000
0000
0000
0000
0000
0000
0000
0000
0000
0000
0000
0000
0000
0000
0000
0000
0000
0000
0000
0100
0000
0000
0000
0000
0000
0000
0000
0000
0000
0000
0000
0000
0000
0000
0000
0000
0000
0000
00M0
0000
0000
0000
0000
0000
0000
0000
0000
0000
0000
0000
0000
0000
0000
0000
0000
0000
0000
0000
0000
0000
0000
0000
0000
0000
0000
0000
0000
0000
0000
0000
M000
0000
0000
0000
0000
0000
0000
0000
0000
0000
0000
0000
0000
0000
0000
0000
0000
0000
0000
0000
0000
0000
0000
0000
0M00
0000
0000
0000
0000
0000
0000
0000
0000
0000
0000
0000
0000
0000
0000
0000
0000
0000
0000
0000
0000
0000
0000
0000
0000
0000
0000
0000
0000
0000
0000
0000
0000
0000
0000
0000
0000
0000
0000
0000
0000
0000
0000
0000
0000
0000
0000
0000
0000
0000
0000
0000
0000
0000
0000
0000
0000
0000
0000
0000
0000
0000
0000
0000
000M
0000
0000
0000
0000
0000
0000
0000
,
0000
0000
0000
0000
0M00
0000
0000
0000
0000
00M0
0000
0000
0000
0000
M000
0000
0000
0000
0000
0000
0M00
0000
0000
0000
,
0000
00M0
0000
0000
0000
0000
0000
000M
0000
0000
0000
4000
0000
0000
0000
0000
0M00
0000
0000
0000
0000
0000
0000
0000
,
0000
000M
0000
00M0
0000
0000
0000
0000
0M00
0000
3000
000M
,
0000
M000
0000
0000
0M00
0000
00M0
0000
0000
M000
0000
0000
,
000M
0000
0000
0000
;
