#TITLE:Ich Bin Dein Gummibr;
#SUBTITLE:(Itt Van A Gumimaci)(Klubbtigerz Remix);
#ARTIST:Gummibr;
#TITLETRANSLIT:Ich Bin Dein Gummibar;
#SUBTITLETRANSLIT:;
#ARTISTTRANSLIT:Gummibar;
#CREDIT:;
#BANNER:Ich Bin Dein Gummibr-banner.PNG;
#BACKGROUND:Ich Bin Dein Gummibr-bg.PNG;
#LYRICSPATH:;
#CDTITLE:cmgcdtitle3.PNG;
#MUSIC:Ich Bin Dein Gummibr (Itt Van A Gumimaci)(Klubbtigerz Remix).ogg;
#OFFSET:0.020;
#SAMPLESTART:34.520;
#SAMPLELENGTH:13.520;
#SELECTABLE:YES;
#BPMS:0.000=140.000;
#STOPS:;
#BGCHANGES:;
// cache tags:
#FIRSTBEAT:0.500;
#LASTBEAT:274.000;
#SONGFILENAME:Songs/lvsb tourney pack/gummybear/Ich Bin Dein Gummibr (Itt Van A Gumimaci)(Klubbtigerz Remix).sm;
#HASMUSIC:1;
#HASBANNER:0;
#MUSICLENGTH:105.000;
// end cache tags

//---------------dance-single - Steps By CMG-UTOPIA----------------
#NOTES:
     dance-single:
     Steps By CMG-UTOPIA:
     Beginner:
     3:
     0.212,0.391,0.152,0.171,0.000,122.000,16.000,18.000,0.000,0.000:
0000
0000
1000
0000
,
0000
0000
0001
0000
,
0000
0000
0100
0000
,
0000
0000
0010
0000
,
0000
0000
0001
0000
,
0000
0000
1000
0000
,
0000
0000
0010
0000
,
0000
0000
0100
0000
,
0000
0000
1000
1000
,
1000
1000
1000
1000
,
0000
0000
0001
0001
,
0001
0001
0001
0001
,
0000
0000
0000
1000
,
0000
0001
0000
1000
,
0000
0001
0000
1000
,
0000
0001
0000
0000
,
1001
0000
0000
0100
,
0000
0010
0000
0100
,
0000
0010
0000
0100
,
0000
0010
0000
0000
,
0110
0000
1000
1000
,
0000
0000
0001
0001
,
0000
0000
1000
0000
,
0001
0000
1001
0000
,
0000
0000
0100
0100
,
0000
0000
0010
0010
,
0000
0000
0100
0000
,
0010
0000
0110
0000
,
0000
0000
2000
3000
,
0000
0000
0002
0003
,
0000
0000
1000
0000
,
0001
0000
2002
3003
,
0000
0000
0200
0300
,
0000
0000
0020
0030
,
0000
0000
0100
0000
,
0010
0000
0001
0001
,
0001
0001
0001
0001
,
0000
0000
1000
1000
,
0000
0000
0001
0000
,
1000
0000
1001
0000
,
0000
0000
0010
0010
,
0000
0000
0100
0100
,
0000
0000
0010
0000
,
0100
0000
0110
0000
,
0000
0000
0000
1000
,
1000
1000
0000
0001
,
0001
0001
0000
1001
,
1001
1001
2002
0000
,
3003
0000
0000
0100
,
0100
0100
0000
0010
,
0010
0010
0000
0110
,
0110
0110
0220
0000
,
0330
0000
2000
0000
,
3000
0000
0002
0000
,
0003
0000
0200
0000
,
0300
0000
0020
0000
,
0030
0000
0002
0000
,
0003
0000
2000
0000
,
3000
0000
0020
0000
,
0030
0000
0200
0000
,
0300
0000
1000
0000
,
0100
0000
0010
0000
,
0001
0000
1000
0000
,
0010
0000
0100
0000
,
0001
0000
1000
0000
,
0100
0000
0001
0000
,
0010
0000
1000
1000
,
1000
1000
1000
1000
,
0000
0000
1001
0000
;

//---------------dance-single - Steps By CMG-UTOPIA----------------
#NOTES:
     dance-single:
     Steps By CMG-UTOPIA:
     Easy:
     4:
     0.362,0.424,0.495,0.343,0.000,178.000,52.000,36.000,0.000,0.000:
0000
0000
1000
0001
,
0000
0000
0001
1000
,
0000
0000
1100
0000
,
0101
0000
2002
3003
,
0000
0000
0001
1000
,
0000
0000
1000
0001
,
0000
0000
0011
0000
,
1010
0000
2002
3003
,
0000
0000
1001
1001
,
1001
1001
1001
1001
,
0000
0000
0110
0110
,
0110
0110
0110
0110
,
0000
0000
0000
1000
,
0000
0001
0000
0100
,
0000
0010
0000
1000
,
0000
0001
0000
1001
,
2002
0000
3003
0010
,
0000
0100
0000
0001
,
0000
1000
0000
0010
,
0000
0100
0000
0220
,
0330
0000
0100
0010
,
0000
0000
0010
0100
,
0000
0000
1100
0000
,
1010
0000
0220
0330
,
0000
0000
0010
0100
,
0000
0000
0100
0010
,
0000
0000
0011
0000
,
0101
0000
0220
0330
,
0000
0000
2000
0001
,
3001
0000
0002
1000
,
1003
0000
2000
3001
,
0002
1003
1001
2002
,
3003
0000
0200
0010
,
0310
0000
0020
0100
,
0130
0000
0200
0310
,
0020
0000
0130
0000
0010
0100
0010
0100
,
0010
0100
0010
0100
0020
0000
0100
0000
,
0130
0000
0200
0010
,
0310
0000
0020
0130
,
0200
0310
0110
0220
,
0330
0000
0002
1000
,
1003
0000
2000
0001
,
3001
0000
0002
1003
,
2000
3001
1001
2002
,
3003
0000
0000
1100
,
0101
1001
0000
0011
,
1010
1001
0000
1001
,
0110
2001
0010
0100
,
0010
3001
0000
0011
,
0101
0110
0000
1100
,
1010
0110
0000
0110
,
1001
0210
0001
1000
,
0001
0310
1000
0100
,
0001
0000
0001
0100
,
1000
0000
1000
0010
,
0001
0000
0001
0010
,
1000
0000
0100
1000
,
0010
0000
0010
1000
,
0100
0000
0100
0001
,
0010
0000
0010
0001
,
0100
0000
0000
1000
,
0000
0001
0000
0100
,
0000
0010
0000
1000
,
0000
0100
0000
0010
,
0000
0001
0000
1000
,
0000
0001
0000
1000
,
0000
0001
1000
0001
,
1000
0001
1000
0001
,
0000
0000
1001
0000
;

//---------------dance-single - Steps By CMG-UTOPIA----------------
#NOTES:
     dance-single:
     Steps By CMG-UTOPIA:
     Medium:
     6:
     0.533,0.555,0.257,0.743,0.000,287.000,27.000,78.000,30.000,0.000:
0000
0000
2000
0100
,
0010
3001
0200
1000
,
0001
0310
0002
0010
,
0100
1003
0020
0001
,
1000
0130
2000
0001
,
0010
3100
0020
1000
,
0001
0130
0002
1000
,
0100
0013
0200
0001
,
1000
0310
1000
1100
,
0001
0101
2002
3MM3
,
M00M
0MM0
0001
0011
,
1000
1010
2002
3003
,
1001
1001
1000
0100
,
0010
0001
1000
0010
,
0100
0001
1000
0100
,
0001
0010
1000
0001
,
2002
0000
3003
2000
,
3100
0020
0031
2000
,
3010
0200
0301
0020
,
0130
2000
0001
0001
,
3001
0000
0020
0000
0001
0000
0130
M00M
,
0MM0
0000
0020
0000
1000
0000
0130
M00M
,
0MM0
0020
0001
1000
,
0001
0000
1000
0000
0200
0000
0330
M00M
,
0MM0
0000
0200
0000
1000
0000
0310
M00M
,
0MM0
0000
0200
0000
0001
0000
0310
M00M
,
0MM0
0200
1000
0001
,
1000
0000
0001
0000
0020
0000
0330
M00M
,
0MM0
2000
0000
0000
3001
0100
0001
0100
,
0000
0002
0000
0000
1003
0010
1000
0010
,
0000
1010
0000
1000
0010
0000
0000
0001
,
0010
0000
0000
0100
0010
0000
0110
0000
,
0000
0002
0000
0000
1003
0100
1000
0100
,
0000
2000
0000
0000
3001
0010
0001
0010
,
0000
0011
0000
0010
0001
0000
0000
0100
,
1000
0000
0000
0100
0010
1000
0001
0100
,
0010
1000
0001
0100
0010
2000
0001
0001
,
3000
0101
0000
0010
0100
0002
1000
1000
,
0003
1100
0000
1000
0002
0000
1003
0001
,
2000
0000
3001
1000
0010
0100
0001
1000
,
0000
1001
0000
1000
0001
0200
0010
0010
,
0300
0011
0000
0001
1000
0020
0100
0100
,
0030
1100
0000
0100
0020
0000
0130
0010
,
0200
0000
0310
0100
0010
1000
0001
0100
,
0000
0202
0000
0000
0300
0010
0010
0003
,
0010
0001
0100
0020
0000
0100
0100
0030
,
0100
0010
1000
0200
0000
0010
0010
0300
,
0010
0100
0001
1000
0002
0000
0023
0000
,
0230
0000
2300
0000
0000
0010
0010
3000
,
0010
1000
0100
0020
0000
0001
0001
0030
,
0001
0010
0100
2000
0000
0100
0100
3000
,
0100
1000
0010
0100
0002
0000
0203
0000
,
0320
2030
3001
0100
,
0202
0303
1000
0100
,
2200
3300
0001
0010
,
0022
0033
1000
0010
,
2020
3030
0100
0001
,
0202
0303
0010
1000
,
2020
3030
0100
1000
,
2200
3300
0010
0001
,
0022
0033
0002
0100
,
1000
0013
0200
1000
,
0010
0301
2000
0010
,
0001
3100
0020
0001
,
0100
1030
0002
0010
,
1000
0103
0020
1000
,
0100
0031
2000
0100
,
0001
3010
0200
0001
,
0010
1300
1001
0000
;

//---------------dance-single - Steps By CMG-UTOPIA----------------
#NOTES:
     dance-single:
     Steps By CMG-UTOPIA:
     Hard:
     10:
     1.000,1.000,0.276,1.000,0.500,561.000,29.000,157.000,16.000,29.000:
0000
1000
0100
0010
0001
0010
0100
1000
,
0000
0001
0100
0010
1000
0010
0100
0001
,
0000
1000
0010
0100
0001
0010
0001
0100
,
0010
1000
0010
0100
0001
0010
0100
1000
,
0000
0010
0001
0100
0010
2000
0002
0000
,
3003
0000
1000
0100
1000
0001
0100
0001
,
0000
0001
0010
0100
1000
0010
0100
0001
,
1000
0100
1000
0000
0001
0100
0001
0000
1000
0000
0010
0000
0100
0000
0001
0000
,
0000
0001
0010
0100
1000
1000
0001
0001
,
0100
0100
0010
0010
1000
0100
0010
0001
,
0000
0000
0001
0000
1000
0010
1000
0000
0001
0000
0001
0000
1000
0000
1000
0000
,
0010
0010
0100
0100
0001
0010
0100
1000
,
0001
0000
0000
0000
0100
0000
0000
0000
0010
0000
0000
0000
1000
0000
0000
0000
0010
0000
0000
0000
0100
0000
0000
0000
0001
0000
0000
0000
0000
0000
0010
0000
0000
0000
0000
0000
0001
0000
0000
0100
0000
0000
0001
0000
0000
0000
0000
0000
,
1000
0000
0000
0000
0010
0000
0000
0000
0000
0000
0000
0000
0200
0000
0000
0000
0000
0000
0000
0000
0000
0001
0000
0000
0300
0000
0000
0000
0000
0000
0000
0000
0010
0000
0000
0000
1000
0000
0000
0000
0010
0000
0000
0000
0000
0000
0000
0000
0100
0000
0000
0000
0001
0000
0000
0000
0100
0000
0000
0000
0000
0000
0000
0000
,
0010
0000
0100
0000
0000
0000
0000
0000
0110
0000
0000
0000
0100
0000
0000
0001
1000
0000
0000
0000
0010
0000
0000
0000
0100
0000
0000
0000
0001
0000
0000
0000
,
0010
0100
0000
2000
0000
0000
3001
0000
0010
0000
0001
0000
M100
0000
0M10
0000
,
20M0
0000
000M
0000
00M0
0000
0M00
0000
00M0
0000
301M
0000
0100
0010
1000
0000
,
0100
0010
0000
0001
0000
1000
0000
0001
0000
0010
0001
0100
0010
1000
0100
0000
,
0010
0000
0001
0000
1000
0001
0000
0000
1001
0000
0100
0000
0010
0000
0000
1000
,
0100
0010
0000
0002
0000
0000
1003
0000
0010
0000
0100
0000
0010
0000
1000
0000
,
0001
0010
0100
1000
0100
0010
0001
1000
,
0000
0001
0100
0010
1000
0100
0010
0001
,
0000
0010
0001
0100
0010
1000
0010
0100
,
0001
0010
0001
0100
0010
1000
0100
1000
,
0000
0100
0010
0001
0010
0200
2000
0000
,
3300
0000
0100
1000
0001
0100
0001
1000
,
0000
0000
0010
0000
0100
0001
0100
0000
0010
0000
1000
0000
0100
0000
0010
0000
,
0001
0100
0001
0000
0010
0001
0010
0000
0100
0000
1000
0000
0010
0000
0100
0000
,
0000
0001
0010
0100
2000
3020
0230
0302
,
0000
0000
0000
0000
0000
0000
0000
0003
2002
0000
0000
0000
0000
0000
0000
0000
0000
0000
0000
0000
0000
0000
0000
3000
2000
0000
0000
0003
0002
0000
0000
0000
3200
0000
0000
0000
0003
0000
0000
0000
0320
0000
0000
0000
0000
0000
0000
0000
2030
0000
0000
0000
0000
0000
0000
0000
0200
0000
0000
0000
0000
0000
0000
0000
,
0000
0000
0000
0000
0000
0000
0000
3000
2000
0000
0000
0000
0020
0000
0000
0300
3200
0000
0000
0000
0030
0000
0000
0000
0302
0000
0000
0000
0000
0000
0000
0000
0023
0000
0000
0000
0000
0000
0000
0000
0032
0000
0000
0000
0200
0000
0000
0000
0023
0000
0000
0000
0300
0000
0000
0000
2030
0000
0000
0000
0000
0000
0000
0000
,
3200
0000
0000
0000
0000
0000
0000
0000
2300
0000
0000
0000
0002
0000
0000
0000
3200
0000
0000
0000
0000
0000
0000
0003
0302
0000
0000
0000
2000
0000
0000
0000
0203
0000
0000
0000
0000
0000
0000
3000
2300
0000
0000
0000
0000
0000
0000
0000
3020
0000
0000
0000
0000
0000
0000
0000
0230
0000
0000
0000
0000
0000
0000
0000
,
0300
0000
0002
0023
0032
0003
0020
0230
0320
0000
0032
0000
0203
0000
0320
0000
,
0000
0000
0000
0000
0000
0000
0000
0030
2020
0000
0000
0000
0000
0000
0000
0000
0000
0000
0000
0000
0000
0000
0000
3000
2000
0000
0000
0030
0020
0000
0000
0000
3200
0000
0000
0000
0030
0000
0000
0000
0302
0000
0000
0000
0000
0000
0000
0000
0023
0000
0000
0000
0000
0000
0000
0000
0230
0000
0000
0000
0000
0000
0000
0000
,
0300
0000
0000
0000
0000
0000
0000
0000
2000
0000
0000
0000
0002
0000
0000
0000
3020
0000
0000
0000
0000
0000
0000
0003
0032
0000
0000
0000
0000
0000
0000
0000
2003
0000
0000
0000
0000
0000
0000
0000
3020
0000
0000
0000
0200
0000
0000
0000
0032
0000
0000
0000
0000
0000
0000
0300
0203
0000
0000
0000
0000
0000
0000
0000
,
0320
0000
0000
0000
0000
0000
0000
0000
2030
0000
0000
0000
0200
0000
0000
0000
3020
0000
0000
0000
0300
0000
0000
0000
0002
0000
0000
0030
0020
0000
0000
0000
0103
0000
0000
0000
0030
0000
0000
0000
1000
0000
0000
0000
0000
0000
0000
0000
0100
0000
0000
0000
0000
0000
0000
0000
0001
0000
0000
0000
0000
0000
0000
0000
,
0100
0000
0000
0000
0000
0000
0000
0000
1000
0000
0000
0000
0000
0000
0000
0000
0100
0000
0000
0000
0000
0000
0000
0000
0001
0000
0000
0000
0000
0000
0000
0000
0200
0000
0000
0000
0000
0000
0000
0000
0020
0000
0000
0000
0000
0000
0000
0300
0230
0000
0000
0000
0000
0000
0000
0000
2000
0000
0000
0000
0000
0000
0000
0000
,
0000
0000
0000
0000
0000
0000
0000
3300
2200
0000
0000
0000
0000
0000
0000
0000
0300
0000
0000
0000
0000
0000
0000
3000
2000
0000
0000
0000
0020
0000
0000
0000
3200
0000
0000
0000
0030
0000
0000
0000
0302
0000
0000
0000
0000
0000
0000
0000
0023
0000
0000
0000
0000
0000
0000
0000
0200
0000
0000
0000
0000
0000
0000
0000
,
0300
0000
0000
0000
0000
0000
0000
0030
0020
0000
0000
0000
0002
0000
0000
0000
0230
0000
0000
0000
0003
0000
0000
0000
0320
0000
0000
0000
0000
0000
0000
0000
2030
0000
0000
0000
0000
0000
0000
0000
3200
0000
0000
0000
0020
0000
0000
0000
0302
0000
0000
0000
0030
0000
0000
0000
2000
0000
0000
0000
0000
0000
0000
0003
,
3002
0000
0000
0000
0000
0000
0000
0000
0023
0000
0000
0000
0200
0000
0000
0000
2030
0000
0000
0000
0300
0000
0000
0000
3020
0000
0000
0000
0200
0000
0000
0000
0032
0000
0000
0000
0300
0000
0000
0000
0020
0000
0000
0000
0000
0000
0000
0003
0032
0000
0000
0000
0000
0000
0000
0000
0203
0000
0000
0000
0000
0000
0000
0000
,
0300
0000
0000
0000
0000
0000
0000
0000
0020
0000
0000
0000
2000
0000
0000
0000
0032
0000
0000
0000
3000
0000
0000
0000
0020
0000
0000
0003
0002
0000
0000
0000
2030
0000
0000
0000
0003
0000
0000
0000
3020
0000
0000
0000
0000
0000
0000
0000
0230
0000
0000
0000
0000
0000
0000
0000
0002
0000
0000
0000
0000
0000
0000
0000
,
0000
0000
0000
0000
0000
0000
0000
0303
0202
0000
0000
0000
0000
0000
0000
0000
0300
0000
0000
0000
0000
0000
0000
0003
0002
0000
0000
0000
0020
0000
0000
0000
0203
0000
0000
0000
0000
0000
0000
0030
0320
0000
0000
0000
0000
0000
0000
0000
0032
0000
0000
0000
0000
0000
0000
0000
2003
0000
0000
0000
0000
0000
0000
0000
,
3000
0000
0000
0000
0000
0000
0000
0000
0020
0000
0000
0000
0200
0000
0000
0000
0032
0000
0000
0000
0000
0000
0000
0300
0203
0000
0000
0000
0000
0000
0000
0000
0320
0000
0000
0000
0000
0000
0000
0000
2030
0000
0000
0000
0200
0000
0000
0000
3020
0000
0000
0000
0300
0000
0000
0000
0032
0000
0000
0000
0000
0000
0000
0000
,
0203
0000
0320
2000
0230
3000
0320
0002
0230
0003
0320
0000
2030
0000
3002
0000
,
0003
0000
0000
0000
0000
0000
0000
0000
0200
0000
0000
0000
0020
0000
0000
0300
0200
0000
0000
0000
0030
0000
0000
0000
0302
0000
0000
0000
0000
0000
0000
0000
1003
0000
0000
0000
0000
0000
0000
0000
1100
0000
0000
0000
0000
0000
0000
0000
1100
0000
0000
0000
0000
0000
0000
0000
0000
0000
0000
0000
0001
0000
0000
0000
,
0010
0100
1000
0010
0200
0000
0301
0000
0000
0000
0011
0000
0011
0000
0000
1000
,
0100
0010
0001
0100
0020
0000
1030
0000
0000
0000
1001
0000
1001
0000
0000
0100
,
0010
1000
0001
0100
0020
0000
0200
0000
0001
0000
0000
0000
1000
0000
0000
0000
,
2002
0000
0000
0000
3003
0000
M33M
0000
0MM0
0000
1010
0000
1010
0000
0000
0100
,
0001
0010
0100
1000
0002
0000
0103
0000
0000
0000
0101
0000
0101
0000
0000
0010
,
1000
0100
0010
0001
2000
0000
3010
0000
0000
0000
0110
0000
0110
0000
0000
1000
,
0001
0100
0010
1000
0002
0000
2000
0000
0010
0000
0000
0000
0100
0000
0000
0000
,
0220
0000
0000
0000
0330
0000
3MM3
0000
M11M
0000
0000
0010
0000
1000
0100
0010
,
0001
0000
1000
0000
1001
0000
0000
0000
1100
0000
0000
1000
0000
0010
0100
0001
,
0010
0000
0100
0000
0010
0000
0001
0000
0011
0000
0000
0010
0000
0001
0100
0010
,
1000
0000
0000
0000
0000
0000
0000
0000
0000
0000
0000
0000
0000
0000
0000
0000
0000
0000
0000
0000
0000
0000
0000
0000
0100
0000
0000
0000
0000
0000
0000
0000
0000
0000
0000
0000
0000
0000
0000
0000
0000
0000
0000
0000
0000
0000
0000
0000
1100
0000
0000
0000
0000
0000
0000
0000
0000
0000
0000
0000
0000
0000
0000
0000
0000
0000
0000
0000
0000
0000
0000
0000
0000
0000
0000
0000
0000
0000
0000
0000
0000
0000
0000
0000
0000
0000
0000
0000
0000
0000
1000
0000
0000
0000
0000
0000
0001
0000
0000
0000
0000
0000
0000
0000
0000
0000
0000
0000
0000
0000
0000
0000
0100
0000
0000
0000
0000
0000
0000
0000
0000
0000
0000
0000
0000
0000
0000
0000
0002
0000
0000
0000
0000
0000
0000
0000
0000
0000
0000
0000
0000
0000
0000
0000
0000
0000
0000
0000
0000
0000
0000
0000
0000
0000
0000
0000
0103
0000
0000
0000
0000
0000
0000
0000
0000
0000
0000
0000
0010
0000
0000
0000
0000
0000
0000
0000
0000
0000
0000
0000
1000
0000
0000
0000
0000
0000
0000
0000
0000
0000
0000
0000
,
0100
0000
0010
0000
0100
0000
1000
0000
1010
0000
0000
0100
0000
0001
0010
0100
,
0010
0000
0000
0000
0000
0000
0000
0000
0002
0000
0000
0000
0000
0000
0000
0000
1000
0000
0000
0000
0000
0000
0000
0000
1000
0000
0000
0000
0000
0000
0000
0003
0001
0000
0000
0000
0000
0000
0000
0000
0000
0000
0000
0000
0010
0000
0000
0000
0000
0000
0000
0000
0001
0000
0000
0000
0100
0000
0000
0000
0010
0000
0000
0000
,
1000
0000
0100
0000
1000
0000
0001
0000
1001
0000
0000
0010
0000
0100
0001
0100
,
0010
0000
0000
0000
0000
0000
0000
0000
0000
0000
0000
0000
0000
0000
0000
0000
0000
0000
0000
0000
0000
0000
0000
0000
1000
0000
0000
0000
0000
0000
0000
0000
0000
0000
0000
0000
0000
0000
0000
0000
0000
0000
0000
0000
0000
0000
0000
0000
1010
0000
0000
0000
0000
0000
0000
0000
0000
0000
0000
0000
0000
0000
0000
0000
0000
0000
0000
0000
0000
0000
0000
0000
0000
0000
0000
0000
0000
0000
0000
0000
0000
0000
0000
0000
0000
0000
0000
0000
0000
0000
0100
0000
0000
0000
0000
0000
0001
0000
0000
0000
0000
0000
0000
0000
0000
0000
0000
0000
0000
0000
0000
0000
0010
0000
0000
0000
0000
0000
0000
0000
0000
0000
0000
0000
0000
0000
0000
0000
0200
0000
0000
0000
0000
0000
0000
0000
0000
0000
0000
0000
0000
0000
0000
0000
0000
0000
0000
0000
0000
0000
0000
0000
0000
0000
0000
0000
0310
0000
0000
0000
0000
0000
0000
0000
0000
0000
0000
0000
0001
0000
0000
0000
0000
0000
0000
0000
0000
0000
0000
0000
1000
0000
0000
0000
0000
0000
0000
0000
0000
0000
0000
0000
,
0010
0100
0001
1000
0001
0010
0100
1000
,
0001
0100
0010
1000
0001
0010
0001
1000
,
0010
1000
0001
0100
0001
1000
0100
1000
,
0010
0100
0001
0010
0100
1000
0010
0100
,
0001
0000
1000
0100
0010
0000
0001
0010
0100
0000
1000
0000
0001
0000
0100
0000
,
0001
1000
0010
1000
0001
0100
0010
1000
,
0100
0010
0001
1000
0010
0100
0001
0100
,
0010
1000
0010
0100
0001
0010
0100
1000
,
0001
0100
0001
1000
1001
0000
0000
0000
;
