#TITLE:The Lord God;
#SUBTITLE:(Capcom Vs. SNK Millionaire Fighting 2001);
#ARTIST:Satoshi Ise;
#TITLETRANSLIT:;
#SUBTITLETRANSLIT:;
#ARTISTTRANSLIT:;
#CREDIT:;
#BANNER:The Lord God.png;
#BACKGROUND:The Lord God-bg.png;
#LYRICSPATH:;
#CDTITLE:!zanthro.png;
#MUSIC:The Lord God.mp3;
#OFFSET:-2.281;
#SAMPLESTART:65.898;
#SAMPLELENGTH:7.271;
#SELECTABLE:YES;
#BPMS:0.000=132.040;
#STOPS:;
#BGCHANGES:;
// cache tags:
#FIRSTBEAT:8.000;
#LASTBEAT:174.000;
#SONGFILENAME:Songs/VGMP 2/The Lord God (Zanthro)/The Lord God.sm;
#HASMUSIC:1;
#HASBANNER:1;
#MUSICLENGTH:180.480;
// end cache tags

//---------------dance-single - ----------------
#NOTES:
     dance-single:
     :
     Hard:
     12:
     0.723,0.675,1.000,0.909,0.676,512.000,238.000,164.000,0.000,69.000:  // measure 1
0000
0000
0000
0000
,  // measure 2
0000
0000
0000
0000
,  // measure 3
0011
1100
1010
0101
0011
1100
1010
0101
0011
1100
1010
0101
,  // measure 4
1020
0000
0000
0230
0300
0000
0010
0000
0000
1020
0000
0100
1031
0000
0010
0100
0000
0000
0100
0000
0000
0000
0000
0000
,  // measure 5
0210
0000
0000
0300
0000
0000
0010
0000
0000
0201
0000
0010
1301
0000
0010
0100
0000
0002
0013
0000
0000
0000
0000
0000
,  // measure 6
0102
0000
0000
0003
0000
0000
0100
0000
0000
0202
0300
1000
0103
0000
0010
0100
0000
0000
0001
0000
0100
0010
0000
0000
,  // measure 7
0101
0000
1010
0000
0110
0000
0011
0000
0101
0000
1010
0000
0110
0000
0011
0000
0101
0000
1010
0001
0110
1000
0011
1000
,  // measure 8
0102
0000
1000
0023
0030
0100
0011
0000
1000
0202
0003
1010
0300
0000
1010
0200
0300
0000
0101
0000
1000
0020
0030
0100
,  // measure 9
2010
0000
0100
3020
0030
0001
1100
0000
0010
0202
0300
1100
0003
0000
1100
0020
0030
0000
0101
0000
0010
0200
0300
0100
,  // measure 10
0012
0000
0000
1013
0000
0000
0110
0000
0000
0021
0000
1000
0131
0000
0100
0010
0000
1000
0010
0000
0000
0000
0000
0000
,  // measure 11
0021
0000
0100
0032
0003
1000
0110
0000
1000
0202
0300
1010
0003
0000
1010
0200
0300
1000
0001
0010
0100
2000
3001
0100
,  // measure 12
1020
0000
0100
0032
0003
0100
0011
0000
0100
2020
3000
0101
0030
0000
0101
0020
0030
0000
1001
0000
0100
0020
0030
1000
,  // measure 13
0102
0000
0000
2203
0000
3300
0011
0000
0000
1200
0000
0001
0310
0000
1100
0020
0030
0000
1001
0000
0100
0020
0030
1000
,  // measure 14
0012
0000
0100
2003
3000
0100
0011
0000
1000
0022
0030
1100
0003
0000
1100
0020
0030
0000
0101
0000
0010
0200
0300
1000
,  // measure 15
0011
0000
1100
0000
1010
0000
0101
0000
0011
0000
1100
0000
1010
0000
0101
0000
0011
0000
1100
0001
0110
1000
0101
0010
,  // measure 16
2100
0000
0000
3020
0030
0100
0011
0000
0010
2200
0300
0011
3000
0000
0011
0200
0300
0000
1010
0000
0100
0020
0030
0001
,  // measure 17
0210
0000
1000
0320
0030
0100
1010
0000
0010
0202
0300
1010
0003
0000
1010
0200
0300
0000
0011
0000
0100
0020
0030
1000
,  // measure 18
0012
0000
0000
1013
0000
0000
1001
0000
0000
0012
0000
0100
0013
0000
0001
0010
0000
1000
0100
0000
0000
0000
0000
0000
,  // measure 19
0010
0000
0100
0002
0003
1000
0110
0000
0001
0020
0030
1001
0000
0000
1001
0020
0030
1000
0101
0010
0100
2000
3001
0010
,  // measure 20
2002
0000
0000
0000
0100
0000
0023
0000
0030
3000
0100
0000
0011
0000
0000
0000
0000
0000
0220
0000
0300
0000
1001
0000
0030
0000
0000
0000
1001
0000
0020
0000
0030
0000
0000
0000
1100
0000
0000
0000
0010
0000
0200
0000
0300
0000
1000
0000
,  // measure 21
0102
0000
0100
0023
0030
1000
0011
0000
0100
2020
3000
0101
0030
0000
0101
2000
3000
0000
0011
0000
0100
0020
0030
0001
,  // measure 22
1200
0000
0001
0320
0030
1000
0101
0000
0010
2200
3000
0011
0300
0000
0011
0200
0300
0000
1001
0000
0100
0020
0030
0001
,  // measure 23
0110
0000
1001
0000
0011
0000
1010
0000
0110
0000
1001
0000
0011
0000
1010
0000
0110
0000
1001
0100
0011
0100
1010
0001
,  // measure 24
0120
0000
0000
0230
0300
0000
0010
0000
0000
1002
0000
0010
1103
0000
0001
0010
0000
0000
0010
0000
0000
0000
0000
0000
,  // measure 25
0210
0000
0000
0300
0000
0000
0001
0000
0000
2010
0000
0100
3011
0000
1000
0100
0000
0002
0013
0100
1000
0001
0010
0100
,  // measure 26
1002
0000
0000
0003
0000
0000
0100
0000
0000
2002
3000
0100
0013
0000
1000
0001
0000
0000
0010
0000
0001
1000
0000
0000
,  // measure 27
0011
0000
1100
0000
1010
0000
1001
0000
0011
0000
1100
0000
1010
0000
1001
0000
0011
0000
1100
0001
1010
0100
1001
0100
,  // measure 28
0012
0000
1100
0020
0030
0100
1010
0000
0000
0020
0030
1100
0000
0000
1100
0020
0030
0000
1010
0000
0100
0020
0030
1000
,  // measure 29
0123
0000
1001
0200
0300
0001
1100
0000
0000
2000
3000
0101
0000
0000
0101
2000
3000
0000
1001
0000
0100
0002
0003
0100
,  // measure 30
2031
0000
0110
0002
0003
0010
0101
0000
0000
0200
0300
0011
0000
0000
0011
0200
0300
0000
0101
0000
0010
0002
0003
0100
,  // measure 31
3021
0000
1100
0002
0003
0100
1001
0000
0000
0002
0003
1100
0000
0000
1100
0002
0003
0000
0231
0000
1000
0322
0030
1000
,  // measure 32
0213
0000
1001
0020
0030
0001
1010
0000
0000
2000
3000
0011
0000
0000
0011
2000
3000
0000
1001
0000
0010
0002
0003
0010
,  // measure 33
1302
0000
0000
0000
0110
0000
2000
0000
3003
0020
0000
0000
1100
0000
0000
0000
0000
0000
0232
0000
0003
0000
1001
0000
0320
0000
0000
0000
1001
0000
0200
0000
0300
2030
0000
0000
0101
0000
0000
0000
0010
0000
3200
0000
0000
0000
1000
0000
,  // measure 34
0312
0000
0000
0000
0000
0000
0000
0000
0000
0000
0000
0000
1010
0000
0000
0000
0000
0000
0000
0000
0000
0000
0010
0000
0000
0000
0000
0000
0100
0000
0010
0000
0000
0000
0000
0000
1100
0000
0000
0000
0000
0000
0023
0000
0000
0230
0000
0000
,  // measure 35
1301
0000
1010
0000
0110
0000
0011
0000
1001
0000
1010
0000
0110
0000
0011
0000
1001
0000
1010
0001
0110
1000
0011
0100
,  // measure 36
1002
0000
0000
0023
0030
0000
0100
0000
0000
2010
0000
0100
3011
0000
0100
0001
0000
0000
0001
0000
0000
0000
0000
0000
,  // measure 37
0120
0000
0000
0030
0000
0000
0100
0000
0000
1200
0000
0010
1301
0000
0100
0010
0000
2000
3100
0010
0001
1000
0100
0010
,  // measure 38
1002
0000
0000
0003
0000
0000
0100
0000
0000
2020
3000
0100
0031
0000
0010
0100
0000
0000
0100
0000
0010
0000
0000
0000
,  // measure 39
0012
0000
0100
0023
0030
1000
0011
0000
1000
0220
0030
1001
0300
0000
1001
0020
0030
0000
0001
0010
0100
2000
3001
0010
,  // measure 40
2002
0000
0000
0003
0000
0000
3101
0000
0000
0210
0000
1000
0300
0000
1000
0100
0000
0000
0011
0000
0000
0000
0000
0000
,  // measure 41
2001
0000
0000
3011
0000
0000
0110
0000
0000
0201
0000
1000
0311
0000
0100
0010
0000
1000
0001
0010
0100
1000
0001
0010
,  // measure 42
2001
0000
0000
3220
0000
0330
0011
0000
0000
2010
0000
0100
3010
0000
1100
0002
0003
0100
1001
0000
0010
0200
0300
0100
,  // measure 43
0022
0000
0000
0003
0000
0000
0000
0000
0030
2200
0000
0000
3000
0000
0000
0000
0000
0000
0000
0000
0000
0000
0000
0000
,  // measure 44
2302
0000
3003
0000
;
