#TITLE:Unreal Superhero 2;
#SUBTITLE:;
#ARTIST:Rez;
#TITLETRANSLIT:;
#SUBTITLETRANSLIT:;
#ARTISTTRANSLIT:;
#CREDIT:;
#BANNER:../fthescorept1bn.png;
#BACKGROUND:../fthescorept1bg.png;
#LYRICSPATH:;
#CDTITLE:;
#MUSIC:Unreal Superhero 2.ogg;
#OFFSET:-0.277;
#SAMPLESTART:14.060;
#SAMPLELENGTH:13.740;
#SELECTABLE:YES;
#BPMS:0.000=278.360;
#STOPS:;
#BGCHANGES:;
// cache tags:
#FIRSTBEAT:0.000;
#LASTBEAT:256.000;
#SONGFILENAME:Songs/Fuck The Score Part I/Unreal Superhero 2 [Dossar]/Unreal Superhero 2.sm;
#HASMUSIC:1;
#HASBANNER:1;
#MUSICLENGTH:62.223;
// end cache tags

//---------------dance-single - ----------------
#NOTES:
     dance-single:
     :
     Easy:
     18:
     1.000,1.000,0.000,0.161,1.000,580.000,0.000,10.000,0.000,0.000:
2000
0000
0000
0000
0000
0000
3010
0100
,
0002
0000
0000
0000
,
0000
0000
0000
1003
,
0200
0000
0000
0310
0000
0000
0001
0000
,
1000
0020
0000
0000
0000
0000
0130
0000
,
0001
2000
0000
0000
0000
0000
0000
0000
,
0000
0000
0000
0000
,
0000
0000
0000
0000
0000
0000
3001
0010
,
0200
0000
0000
1300
,
0001
0200
0000
0000
0000
0000
0000
0000
,
0000
0000
0000
0310
,
2000
0000
0000
3010
0000
0000
0100
0000
,
0001
2000
0000
0000
0000
0000
0000
0000
0000
0000
0000
0000
3100
0000
0000
0000
,
1000
0002
0000
0000
0000
0000
0000
0000
0000
0000
0000
0000
0000
0000
0000
0000
,
1003
0000
0001
0000
,
1000
0000
0000
0000
0001
0100
0010
1000
,
0001
0100
0010
1000
0001
0100
0001
0000
1000
0010
0100
0001
1000
0010
1000
0000
,
0001
0100
0010
1000
0001
0100
0001
0000
1000
0010
0100
0001
1000
0010
1000
0000
,
0001
0010
0100
1000
0001
0010
0001
0000
1000
0100
1000
0001
0010
0100
1000
0000
,
0001
0010
0100
1000
0001
0010
0001
0000
1000
0100
1000
0001
0010
0100
1000
0000
,
0001
0100
0001
1000
0010
0100
0001
0000
1000
0010
1000
0001
0100
0010
1000
0000
,
0001
0100
0010
1000
0001
0100
0001
0000
1000
0010
0100
0001
1000
0010
1000
0000
,
0001
0010
0001
1000
0100
0010
0001
0000
1000
0100
1000
0001
0010
0100
1000
0000
,
0001
0010
0001
1000
0100
0010
0001
0000
1000
0100
1000
0001
0010
0100
1000
0000
,
0001
0100
0001
1000
0010
1000
0001
0000
0100
0010
0100
0001
1000
0001
0100
0000
,
0010
1000
0001
1000
0001
0100
0010
0000
1000
0010
0100
0001
1000
0001
1000
0000
,
0001
0010
0100
1000
0001
0010
0001
0000
1000
0100
1000
0001
0010
0100
1000
0000
,
0001
0010
0001
1000
0100
0010
0001
0000
1000
0100
1000
0001
0010
0100
1000
0000
,
0001
0100
0001
1000
0010
0100
0001
0000
1000
0010
1000
0001
0100
0010
1000
0000
,
0001
0100
0001
1000
0010
0100
0001
0000
1000
0010
1000
0001
0100
0010
1000
0000
,
0001
0010
0100
1000
0001
0010
0001
0000
1000
0100
0010
0001
1000
0100
1000
0000
,
0001
0010
0100
1000
0001
0010
0001
0000
1000
0100
0010
0001
1000
0100
1000
0000
,
0001
0100
0010
1000
0001
0100
0001
0000
1000
0010
0100
0001
1000
0010
1000
0000
,
0001
0100
0010
1000
0001
0100
0001
0000
1000
0010
0100
0001
1000
0010
1000
0000
,
0001
0010
0100
1000
0001
0010
0001
0000
1000
0100
1000
0001
0010
0100
1000
0000
,
0001
0010
0100
1000
0001
0010
0001
0000
1000
0100
1000
0001
0010
0100
1000
0000
,
0001
0100
0001
1000
0010
0100
0001
0000
1000
0010
1000
0001
0100
0010
1000
0000
,
0001
0100
0010
1000
0001
0100
0001
0000
1000
0010
0100
0001
1000
0010
1000
0000
,
0001
0010
0001
1000
0100
0010
0001
0000
1000
0100
1000
0001
0010
0100
1000
0000
,
0001
0010
0001
1000
0100
0010
0001
0000
1000
0100
1000
0001
0010
0100
1000
0000
,
0001
0100
0001
1000
0010
1000
0001
0000
0100
0010
0100
0001
1000
0001
0100
0000
,
0010
1000
0001
1000
0001
0100
0010
0000
1000
0010
0100
0001
1000
0001
1000
0000
,
0001
0010
0100
1000
0001
0010
0001
0000
1000
0100
1000
0001
0010
0100
1000
0000
,
0001
0010
0001
1000
0100
0010
0001
0000
1000
0100
1000
0001
0010
0100
1000
0000
,
0001
0100
0001
1000
0010
0100
0001
0000
1000
0010
1000
0001
0100
0010
1000
0000
,
0001
0100
0001
1000
0010
0100
0001
0000
1000
0010
1000
0001
0100
0010
1000
0000
,
0001
0010
0100
1000
0001
0010
0001
0000
1000
0100
0010
0001
1000
0100
1000
0000
,
0001
0010
0100
1000
0001
0010
0001
0000
1000
0100
0010
0001
1000
0100
1000
0000
,
0001
0100
0010
1000
,
0001
0010
0100
1000
,
0001
0100
0010
1000
,
0001
0010
0100
1000
,
0001
0100
0010
1000
,
0001
0010
0100
1000
,
0001
0100
0010
1000
,
0001
0010
0100
1000
,
0001
0100
0010
1000
0001
0010
0100
1000
,
0001
0100
0010
1000
0001
0010
0100
1000
,
0001
0100
0010
1000
0001
0010
0100
1000
,
0001
0100
0010
1000
0001
0010
0100
1000
,
0001
0100
0010
1000
0001
0010
0100
1000
,
0001
0100
0010
1000
0001
0010
0100
1000
,
0001
0100
0010
1000
0001
0010
0100
1000
,
0001
0100
0010
1000
0001
0010
0100
1000
,
0001
0000
0000
0000
;

//---------------dance-single - ----------------
#NOTES:
     dance-single:
     :
     Hard:
     23:
     1.000,1.000,0.000,0.161,1.000,644.000,0.000,10.000,0.000,0.000:
2000
0000
0000
0000
0000
0000
3010
0100
,
0002
0000
0000
0000
,
0000
0000
0000
1003
,
0200
0000
0000
0310
0000
0000
0001
0000
,
1000
0020
0000
0000
0000
0000
0130
0000
,
0001
2000
0000
0000
0000
0000
0000
0000
,
0000
0000
0000
0000
,
0000
0000
0000
0000
0000
0000
3001
0010
,
0200
0000
0000
1300
,
0001
0200
0000
0000
0000
0000
0000
0000
,
0000
0000
0000
0310
,
2000
0000
0000
3010
0000
0000
0100
0000
,
0001
2000
0000
0000
0000
0000
0000
0000
0000
0000
0000
0000
3100
0000
0000
0000
,
1000
0002
0000
0000
0000
0000
0000
0000
0000
0000
0000
0000
0000
0000
0000
0000
,
1003
0000
0001
0000
,
1000
0000
0000
0000
0001
0100
0010
1000
,
0001
1000
0001
0100
0010
1000
0010
0100
0001
1000
0010
0100
0001
0100
0010
1000
,
0001
0100
0001
1000
0010
1000
0001
0100
0010
1000
0001
0100
0001
1000
0010
0100
,
0001
1000
0100
0010
0001
1000
0100
1000
0001
0010
0100
1000
0001
0010
0100
0010
,
0001
1000
0100
0010
0001
1000
0100
1000
0001
0010
0100
1000
0001
0010
0100
0010
,
0001
1000
0001
0100
0010
1000
0010
0100
0001
1000
0010
0100
0001
0100
0010
1000
,
0001
0100
0001
1000
0010
1000
0001
0100
0010
1000
0001
0100
0001
1000
0010
0100
,
0001
1000
0100
0010
0001
1000
0100
1000
0001
0010
0100
1000
0001
0010
0100
0010
,
0001
1000
0100
0010
0001
1000
0100
1000
0001
0010
0100
1000
0001
0010
0100
0010
,
0001
1000
0001
0100
0010
1000
0010
0100
0001
1000
0010
0100
0001
0100
0010
1000
,
0001
0100
0001
1000
0010
1000
0001
0100
0010
1000
0001
0100
0001
1000
0010
0100
,
0001
1000
0100
0010
0001
1000
0100
1000
0001
0010
0100
1000
0001
0010
0100
0010
,
0001
1000
0100
0010
0001
1000
0100
1000
0001
0010
0100
1000
0001
0010
0100
0010
,
0001
1000
0001
0100
0010
1000
0010
0100
0001
1000
0010
0100
0001
0100
0010
1000
,
0001
0100
0001
1000
0010
1000
0001
0100
0010
1000
0001
0100
0001
1000
0010
0100
,
0001
1000
0100
0010
0001
1000
0100
1000
0001
0010
0100
1000
0001
0010
0100
0010
,
0001
1000
0100
0010
0001
1000
0100
1000
0001
0010
0100
1000
0001
0010
0100
0010
,
0001
1000
0001
0100
0010
1000
0010
0100
0001
1000
0010
0100
0001
0100
0010
1000
,
0001
0100
0001
1000
0010
1000
0001
0100
0010
1000
0001
0100
0001
1000
0010
0100
,
0001
1000
0100
0010
0001
1000
0100
1000
0001
0010
0100
1000
0001
0010
0100
0010
,
0001
1000
0100
0010
0001
1000
0100
1000
0001
0010
0100
1000
0001
0010
0100
0010
,
0001
1000
0001
0100
0010
1000
0010
0100
0001
1000
0010
0100
0001
0100
0010
1000
,
0001
0100
0001
1000
0010
1000
0001
0100
0010
1000
0001
0100
0001
1000
0010
0100
,
0001
1000
0100
0010
0001
1000
0100
1000
0001
0010
0100
1000
0001
0010
0100
0010
,
0001
1000
0100
0010
0001
1000
0100
1000
0001
0010
0100
1000
0001
0010
0100
0010
,
0001
1000
0001
0100
0010
1000
0010
0100
0001
1000
0010
0100
0001
0100
0010
1000
,
0001
0100
0001
1000
0010
1000
0001
0100
0010
1000
0001
0100
0001
1000
0010
0100
,
0001
1000
0100
0010
0001
1000
0100
1000
0001
0010
0100
1000
0001
0010
0100
0010
,
0001
1000
0100
0010
0001
1000
0100
1000
0001
0010
0100
1000
0001
0010
0100
0010
,
0001
1000
0001
0100
0010
1000
0010
0100
0001
1000
0010
0100
0001
0100
0010
1000
,
0001
0100
0001
1000
0010
1000
0001
0100
0010
1000
0001
0100
0001
1000
0010
0100
,
0001
1000
0100
0010
0001
1000
0100
1000
0001
0010
0100
1000
0001
0010
0100
0010
,
0001
1000
0100
0010
0001
1000
0100
1000
0001
0010
0100
1000
0001
0010
0100
0010
,
0001
0010
0100
1000
,
0001
0100
0010
1000
,
0001
0010
0100
1000
,
0001
0100
0010
1000
,
0001
0010
0100
1000
,
0001
0100
0010
1000
,
0001
0010
0100
1000
,
0001
0100
0010
1000
,
0001
0010
0100
1000
0001
0100
0010
1000
,
0001
0010
0100
1000
0001
0100
0010
1000
,
0001
0010
0100
1000
0001
0100
0010
1000
,
0001
0010
0100
1000
0001
0100
0010
1000
,
0001
0010
0100
1000
0001
0100
0010
1000
,
0001
0010
0100
1000
0001
0100
0010
1000
,
0001
0010
0100
1000
0001
0100
0010
1000
,
0001
0010
0100
1000
0001
0100
0010
1000
,
0001
0000
0000
0000
;

//---------------dance-single - ----------------
#NOTES:
     dance-single:
     :
     Medium:
     20:
     1.000,1.000,0.000,0.161,1.000,580.000,0.000,10.000,0.000,0.000:
2000
0000
0000
0000
0000
0000
3010
0100
,
0002
0000
0000
0000
,
0000
0000
0000
1003
,
0200
0000
0000
0310
0000
0000
0001
0000
,
1000
0020
0000
0000
0000
0000
0130
0000
,
0001
2000
0000
0000
0000
0000
0000
0000
,
0000
0000
0000
0000
,
0000
0000
0000
0000
0000
0000
3001
0010
,
0200
0000
0000
1300
,
0001
0200
0000
0000
0000
0000
0000
0000
,
0000
0000
0000
0310
,
2000
0000
0000
3010
0000
0000
0100
0000
,
0001
2000
0000
0000
0000
0000
0000
0000
0000
0000
0000
0000
3100
0000
0000
0000
,
1000
0002
0000
0000
0000
0000
0000
0000
0000
0000
0000
0000
0000
0000
0000
0000
,
1003
0000
0001
0000
,
1000
0000
0000
0000
0001
0100
0010
1000
,
0001
0100
0010
1000
0100
0010
0001
0000
1000
0010
0100
0001
0010
0100
1000
0000
,
0001
0100
0010
1000
0100
0010
0001
0000
1000
0010
0100
0001
0010
0100
1000
0000
,
0001
0100
0010
1000
0100
0010
0001
0000
1000
0100
1000
0010
0100
0001
1000
0000
,
0001
0010
0001
0100
0010
1000
0001
0000
1000
0100
1000
0010
0100
0001
1000
0000
,
0001
0100
0010
1000
0100
0010
0001
0000
1000
0100
0010
0001
0100
0010
1000
0000
,
0001
0010
0100
1000
0010
0100
0001
0000
1000
0010
0100
0001
0010
0001
0100
0000
,
0010
1000
0100
0010
0001
1000
0010
0000
0100
0001
0010
0100
1000
0001
0100
0000
,
0010
1000
0100
0010
0001
0100
0010
0000
1000
0100
0010
0001
0100
0010
1000
0000
,
0001
0010
0100
1000
0010
1000
0001
0000
1000
0100
0010
0001
0100
0001
1000
0000
,
0001
0100
0010
1000
0100
0010
0001
0000
1000
0010
0100
0001
1000
0100
0010
0000
,
0001
0010
0100
1000
0010
0100
0001
0000
1000
0100
0010
0001
0100
0010
1000
0000
,
0001
0100
0010
1000
0100
1000
0001
0000
1000
0010
0100
0001
0010
0001
1000
0000
,
0001
0100
0010
1000
0100
0010
0001
0000
1000
0010
0100
0001
0010
0100
1000
0000
,
0001
0100
0010
1000
0001
0010
0100
0000
1000
0010
0100
0001
1000
0100
0010
0000
,
0001
1000
0010
0100
0001
0010
0001
0000
1000
0010
0100
0001
1000
0100
1000
0000
,
0001
0100
0010
1000
0100
0010
0001
0000
1000
0010
0100
0001
0010
0100
1000
0000
,
0001
0100
0010
1000
0100
0010
0001
0000
1000
0010
0100
0001
0010
0100
1000
0000
,
0001
0100
0010
1000
0100
0010
0001
0000
1000
0010
0100
0001
0010
0100
1000
0000
,
0001
0100
0010
1000
0100
0010
0001
0000
1000
0100
1000
0010
0100
0001
1000
0000
,
0001
0010
0001
0100
0010
1000
0001
0000
1000
0100
1000
0010
0100
0001
1000
0000
,
0001
0100
0010
1000
0100
0010
0001
0000
1000
0100
0010
0001
0100
0010
1000
0000
,
0001
0010
0100
1000
0010
0100
0001
0000
1000
0010
0100
0001
0010
0001
0100
0000
,
0010
1000
0100
0010
0001
1000
0010
0000
0100
0001
0010
0100
1000
0001
0100
0000
,
0010
1000
0100
0010
0001
0100
0010
0000
1000
0100
0010
0001
0100
0010
1000
0000
,
0001
0010
0100
1000
0010
1000
0001
0000
1000
0100
0010
0001
0100
0001
1000
0000
,
0001
0100
0010
1000
0100
0010
0001
0000
1000
0010
0100
0001
1000
0100
0010
0000
,
0001
0010
0100
1000
0010
0100
0001
0000
1000
0100
0010
0001
0100
0010
1000
0000
,
0001
0100
0010
1000
0100
1000
0001
0000
1000
0010
0100
0001
0010
0001
1000
0000
,
0001
0100
0010
1000
0100
0010
0001
0000
1000
0010
0100
0001
0010
0100
1000
0000
,
0001
0100
0010
1000
0001
0010
0100
0000
1000
0010
0100
0001
1000
0100
0010
0000
,
0001
1000
0010
0100
0001
0010
0001
0000
1000
0010
0100
0001
1000
0100
1000
0000
,
0001
0100
0010
1000
0100
0010
0001
0000
1000
0010
0100
0001
0010
0100
1000
0000
,
0001
0100
0010
1000
,
0100
0010
0001
0100
,
0010
1000
0100
0010
,
0001
0100
0010
1000
,
0100
0010
0001
0100
,
0010
1000
0100
0010
,
0001
0100
0010
1000
,
0100
0010
0001
0100
,
0010
1000
0100
0010
0001
0100
0010
1000
,
0100
0010
0001
0100
0010
1000
0100
0010
,
0001
0100
0010
1000
0100
0010
0001
0100
,
0010
1000
0100
0010
0001
0100
0010
1000
,
0100
0010
0001
0100
0010
1000
0100
0010
,
0001
0100
0010
1000
0100
0010
0001
0100
,
0010
1000
0100
0010
0001
0100
0010
1000
,
0100
0010
0001
0100
0010
1000
0100
0010
,
0001
0000
0000
0000
;

//---------------dance-single - ----------------
#NOTES:
     dance-single:
     :
     Challenge:
     25:
     1.000,1.000,0.000,0.161,1.000,804.000,0.000,10.000,0.000,0.000:
2000
0000
0000
0000
0000
0000
3010
0100
,
0002
0000
0000
0000
,
0000
0000
0000
1003
,
0200
0000
0000
0310
0000
0000
0001
0000
,
1000
0020
0000
0000
0000
0000
0130
0000
,
0001
2000
0000
0000
0000
0000
0000
0000
,
0000
0000
0000
0000
,
0000
0000
0000
0000
0000
0000
3001
0010
,
0200
0000
0000
1300
,
0001
0200
0000
0000
0000
0000
0000
0000
,
0000
0000
0000
0310
,
2000
0000
0000
3010
0000
0000
0100
0000
,
0001
2000
0000
0000
0000
0000
0000
0000
0000
0000
0000
0000
3100
0000
0000
0000
,
1000
0002
0000
0000
0000
0000
0000
0000
0000
0000
0000
0000
0000
0000
0000
0000
,
1003
0000
0001
0000
,
1000
0000
0000
0000
0001
0100
0010
1000
,
0001
1000
0001
0100
0010
1000
0010
0100
0001
1000
0010
0100
0001
0100
0010
1000
,
0001
0100
0001
1000
0010
1000
0001
0100
0010
1000
0001
0100
0001
1000
0010
0100
,
0001
1000
0100
0010
0001
1000
0100
1000
0001
0010
0100
1000
0001
0010
0100
0010
,
0001
1000
0100
0010
0001
1000
0100
1000
0001
0010
0100
1000
0001
0010
0100
0010
,
0001
1000
0001
0100
0010
1000
0010
0100
0001
1000
0010
0100
0001
0100
0010
1000
,
0001
0100
0001
1000
0010
1000
0001
0100
0010
1000
0001
0100
0001
1000
0010
0100
,
0001
1000
0100
0010
0001
1000
0100
1000
0001
0010
0100
1000
0001
0010
0100
0010
,
0001
1000
0100
0010
0001
1000
0100
1000
0001
0010
0100
1000
0001
0010
0100
0010
,
0001
1000
0001
0100
0010
1000
0010
0100
0001
1000
0010
0100
0001
0100
0010
1000
,
0001
0100
0001
1000
0010
1000
0001
0100
0010
1000
0001
0100
0001
1000
0010
0100
,
0001
1000
0100
0010
0001
1000
0100
1000
0001
0010
0100
1000
0001
0010
0100
0010
,
0001
1000
0100
0010
0001
1000
0100
1000
0001
0010
0100
1000
0001
0010
0100
0010
,
0001
1000
0001
0100
0010
1000
0010
0100
0001
1000
0010
0100
0001
0100
0010
1000
,
0001
0100
0001
1000
0010
1000
0001
0100
0010
1000
0001
0100
0001
1000
0010
0100
,
0001
1000
0100
0010
0001
1000
0100
1000
0001
0010
0100
1000
0001
0010
0100
0010
,
0001
1000
0100
0010
0001
1000
0100
1000
0001
0010
0100
1000
0001
0010
0100
0010
,
0001
1000
0001
0100
0010
1000
0010
0100
0001
1000
0010
0100
0001
0100
0010
1000
,
0001
0100
0001
1000
0010
1000
0001
0100
0010
1000
0001
0100
0001
1000
0010
0100
,
0001
1000
0100
0010
0001
1000
0100
1000
0001
0010
0100
1000
0001
0010
0100
0010
,
0001
1000
0100
0010
0001
1000
0100
1000
0001
0010
0100
1000
0001
0010
0100
0010
,
0001
1000
0001
0100
0010
1000
0010
0100
0001
1000
0010
0100
0001
0100
0010
1000
,
0001
0100
0001
1000
0010
1000
0001
0100
0010
1000
0001
0100
0001
1000
0010
0100
,
0001
1000
0100
0010
0001
1000
0100
1000
0001
0010
0100
1000
0001
0010
0100
0010
,
0001
1000
0100
0010
0001
1000
0100
1000
0001
0010
0100
1000
0001
0010
0100
0010
,
0001
1000
0001
0100
0010
1000
0010
0100
0001
1000
0010
0100
0001
0100
0010
1000
,
0001
0100
0001
1000
0010
1000
0001
0100
0010
1000
0001
0100
0001
1000
0010
0100
,
0001
1000
0100
0010
0001
1000
0100
1000
0001
0010
0100
1000
0001
0010
0100
0010
,
0001
1000
0100
0010
0001
1000
0100
1000
0001
0010
0100
1000
0001
0010
0100
0010
,
0001
1000
0001
0100
0010
1000
0010
0100
0001
1000
0010
0100
0001
0100
0010
1000
,
0001
0100
0001
1000
0010
1000
0001
0100
0010
1000
0001
0100
0001
1000
0010
0100
,
0001
1000
0100
0010
0001
1000
0100
1000
0001
0010
0100
1000
0001
0010
0100
0010
,
0001
1000
0100
0010
0001
1000
0100
1000
0001
0010
0100
1000
0001
0010
0100
0010
,
0001
1000
0001
0100
0010
1000
0010
0100
0001
1000
0010
0100
0001
0100
0010
1000
,
0001
0100
0001
1000
0010
1000
0001
0100
0010
1000
0001
0100
0001
1000
0010
0100
,
0001
1000
0100
0010
0001
1000
0100
1000
0001
0010
0100
1000
0001
0010
0100
0010
,
0001
1000
0100
0010
0001
1000
0100
1000
0001
0010
0100
1000
0001
0010
0100
0010
,
0001
1000
0001
0100
0010
1000
0010
0100
0001
1000
0010
0100
0001
0100
0010
1000
,
0001
0100
0001
1000
0010
1000
0001
0100
0010
1000
0001
0100
0001
1000
0010
0100
,
0001
1000
0100
0010
0001
1000
0100
1000
0001
0010
0100
1000
0001
0010
0100
0010
,
0001
1000
0100
0010
0001
1000
0100
1000
0001
0010
0100
1000
0001
0010
0100
0010
,
0001
1000
0001
0100
0010
1000
0010
0100
0001
1000
0010
0100
0001
0100
0010
1000
,
0001
0100
0001
1000
0010
1000
0001
0100
0010
1000
0001
0100
0001
1000
0010
0100
,
0001
1000
0100
0010
0001
1000
0100
1000
0001
0010
0100
1000
0001
0010
0100
0010
,
0001
1000
0100
0010
0001
1000
0100
1000
0001
0010
0100
1000
0001
0010
0100
0010
,
0001
1000
0001
0100
0010
1000
0010
0100
0001
1000
0010
0100
0001
0100
0010
1000
,
0001
0100
0001
1000
0010
1000
0001
0100
0010
1000
0001
0100
0001
1000
0010
0100
,
0001
1000
0100
0010
0001
1000
0100
1000
0001
0010
0100
1000
0001
0010
0100
0010
,
0001
1000
0100
0010
0001
1000
0100
1000
0001
0010
0100
1000
0001
0010
0100
0010
,
0001
0000
0000
0000
;
