#TITLE:Power Of The Dragon Flame;
#SUBTITLE:;
#ARTIST:Rhapsody;
#TITLETRANSLIT:;
#SUBTITLETRANSLIT:;
#ARTISTTRANSLIT:;
#CREDIT:XOX;
#BANNER:POTDF_banner.png;
#BACKGROUND:POTDF_BG.png;
#LYRICSPATH:;
#CDTITLE:!XOX-cdtitle.png;
#MUSIC:Power Of The Dragon Flame.mp3;
#OFFSET:-0.100;
#SAMPLESTART:62.565;
#SAMPLELENGTH:12.000;
#SELECTABLE:YES;
#BPMS:0.000=190.040;
#STOPS:;
#BGCHANGES:;
// cache tags:
#FIRSTBEAT:0.500;
#LASTBEAT:823.500;
#SONGFILENAME:Songs/Bemani.se Megapack/(XOX) Power Of The Dragon Flame/Hail Satan.sm;
#HASMUSIC:1;
#HASBANNER:1;
#MUSICLENGTH:269.095;
// end cache tags

//---------------dance-single - ----------------
#NOTES:
     dance-single:
     :
     Challenge:
     14:
     1.000,1.000,1.000,0.108,1.000,2424.000,391.000,29.000,0.000,6.000:
0000
0000
0010
1000
0001
0010
1100
0000
0000
0000
0001
0010
0001
0010
0000
0000
,
1000
0100
1000
0100
0000
0000
0100
0010
0100
0010
0000
0000
0010
0100
0010
0100
,
0000
0000
0100
0000
0000
0000
1001
0000
0000
0000
0001
0010
0001
0010
0000
0000
,
1000
0100
1000
0100
0000
0000
0100
0010
0100
0010
0000
0000
0001
0000
1010
0000
,
0000
0000
0100
0000
0000
0000
1001
0000
0000
0000
0001
0010
0001
0010
0000
0000
,
0100
0010
0100
0010
0000
0000
0010
0100
0010
0100
0000
0000
1000
0100
1000
0000
,
0000
0100
0000
1010
0000
0100
0110
0000
,
1010
0101
0100
1010
0000
0010
0011
0000
,
0011
0000
1100
0000
0001
0000
0110
0000
0000
0000
0001
0010
0001
0010
0000
0000
,
1000
0100
1000
0100
0000
0000
0010
0100
0010
0100
0000
0000
0001
0010
0001
0010
,
0000
0000
0100
0000
0000
0000
1001
0000
0000
0000
1000
0100
1000
0100
0000
0000
,
0010
0100
0010
0100
0000
0000
0001
0010
0001
0010
0000
0000
0100
0000
1010
0000
,
0000
0000
0101
0000
0000
0000
0110
0000
0000
0000
1000
0100
0010
0100
0000
0000
,
0001
0010
0100
0010
0000
0000
0100
0010
0001
0010
0000
0000
0010
0100
1000
0100
,
0000
0010
0000
1100
0000
0001
0100
0000
,
0110
0010
1000
0001
0000
0001
1000
0000
,
0100
0001
1000
0010
1000
0100
0010
0001
,
0100
0000
0010
0000
0100
0000
2020
0000
0000
3030
0202
0000
0000
0303
0220
0000
,
0000
0330
1000
0010
0100
0010
0101
0010
0001
1000
0100
0010
0001
1000
0010
0100
,
0010
1000
0001
0010
0100
1000
0100
0010
0001
0100
0010
0100
1001
0010
0100
0010
,
1001
0100
0010
0100
1010
0100
0001
0100
0010
1000
0001
0100
0010
1000
0001
0100
,
1010
0001
0100
1000
0100
0001
0010
0100
0010
0001
0010
0100
1000
0010
0100
0001
,
0100
0010
0001
1000
0010
0100
1000
0001
0100
0010
0100
0001
0100
0010
1000
0100
,
0010
0001
0100
0010
0100
1000
0010
0100
0001
0010
0100
1000
0001
0100
0010
0001
,
1000
0100
0010
0001
0010
0100
0110
0000
0000
0000
0010
0000
0110
0000
0000
0000
,
0001
1010
0010
1001
0100
0100
1001
0000
,
0001
0000
1000
0000
0010
0000
0010
0100
1010
0001
1000
0010
0101
1000
0100
0010
,
0001
0100
0010
0001
0110
0001
1000
0010
1100
0001
0010
0100
1000
0100
0010
0001
,
1000
0001
0100
0010
0100
0010
0100
0010
0100
0010
0100
0010
0101
1000
0010
0100
,
0001
1000
0010
0100
0010
0001
1100
0010
0100
0010
1000
0001
0100
0010
0100
0001
,
0010
0100
1000
0010
0101
0010
1000
0100
0010
0001
1000
0010
0100
0001
0100
0010
,
1000
0100
0010
0001
1100
0010
1000
0100
0010
0001
0100
0010
1000
0100
0010
0001
,
0010
0100
1000
0010
0100
0001
0110
0000
0010
0000
0010
0000
1001
0000
0000
0000
,
0100
0100
0100
1001
0000
0000
1001
0000
,
0000
0000
0000
1001
0000
0000
0000
0000
,
0000
0000
0000
1010
0000
0101
0000
0000
,
0000
0000
0000
0000
0000
0000
0000
0000
0000
0000
0000
0000
0000
1000
0001
1000
,
0000
0110
0000
0000
1001
0010
0101
1000
0100
0010
0101
1000
0010
0100
0011
1000
,
0001
0010
0101
1000
0001
0100
1010
0100
0001
1000
0101
0010
0001
0100
1010
0100
,
0001
0100
0011
1000
0001
0010
0101
1000
0001
1000
0011
0100
1000
0001
1100
0010
,
0100
1000
0101
1000
0010
0100
1010
0100
0001
0010
0001
0010
0101
1000
0101
0010
,
1000
0100
1000
0010
0100
0010
1001
0100
1000
0001
0110
0001
0100
0010
1100
0001
,
0010
0001
1010
0100
1000
0010
0101
0010
1000
0100
1010
0001
0010
0001
0100
0010
,
0100
0001
0010
0001
0100
0010
1100
0000
0000
0000
0000
0000
1010
0000
0101
0000
,
0000
0000
0101
0000
0000
0000
1010
0000
0000
0000
0100
0010
0100
1000
0100
0010
,
0001
0010
0100
1000
0100
1000
0110
1000
0001
1000
0110
0000
0000
0000
1100
0010
,
0100
0010
1100
0010
1000
0010
1100
0010
0100
0001
0110
0001
0010
0001
0110
0001
,
1000
0100
1001
0100
1000
0100
1001
0100
0010
0100
1001
0010
0100
0010
1001
0100
,
0010
1000
0101
0010
0001
1000
0011
0100
0010
1000
0011
0100
0010
0100
1010
0100
,
0010
0001
0010
0001
0110
0001
0110
0001
0010
0001
1000
0100
1000
0010
0101
0010
,
1000
0100
1010
0001
0010
0001
1100
0010
0100
0001
0110
0001
0100
0010
1100
0001
,
0010
0100
1010
0001
1000
0100
1010
0100
1000
0100
0010
0001
0100
0010
1001
0000
,
0000
0000
0000
0000
1001
0000
0101
0000
0000
0000
1100
0000
0000
0000
1010
0001
,
0010
0100
1000
0100
0010
0001
0010
0100
1000
0100
1000
0100
1000
0100
1001
0000
,
0000
1001
0000
1001
0010
1010
0100
0001
,
0100
1010
0001
1000
0010
0011
0100
0001
,
0010
1010
0100
0001
0010
1001
0001
0100
,
0010
1010
0001
0100
1000
0101
0100
0010
,
1000
1010
0100
1010
0100
1010
0010
0101
,
0010
0101
0001
1001
1000
1001
0001
1001
,
1000
1001
0001
1001
0010
1010
0100
0101
,
1000
1010
0010
0101
0001
0101
0010
0110
,
1000
1001
0001
1001
1000
1001
0001
1001
,
0010
0000
0100
1000
0100
0010
0101
0010
0100
1000
0101
0010
0001
0100
1010
0001
,
0100
0010
1001
0100
0010
1000
0101
0010
0001
0010
0101
1000
0010
0100
1001
0010
,
0100
1000
0011
0100
0010
0100
1001
0010
0100
0010
1001
0100
0010
0100
0011
1000
,
0100
1000
0011
0100
0010
1000
0101
0010
0001
0010
1000
0100
0011
0100
1010
0100
,
1000
0100
0010
0100
1000
0010
0101
0010
0001
0100
1010
0100
1000
0010
0101
0010
,
0100
0010
0101
1000
0010
0100
0011
1000
0100
1000
0101
0010
0100
0010
1001
0010
,
0001
0100
1001
0100
0010
0100
1001
0000
0000
0000
0000
0000
0110
0000
1010
0000
,
0000
0000
0101
0000
0000
0000
0101
0010
0100
1000
0100
0010
0001
0010
0001
0010
,
0001
0010
0100
1000
0100
0010
1010
0000
0000
0000
1010
0000
0000
0000
0101
0010
,
0001
0010
0101
0010
0001
1000
0101
0010
0100
1000
0101
0010
0100
0010
0101
1000
,
0100
0010
0101
1000
0001
0010
1001
0100
0010
0100
1001
0010
0001
1000
0110
1000
,
0010
0100
0011
1000
0100
1000
0101
0010
0001
0100
1010
0100
0001
0010
0101
1000
,
0100
1000
0010
0100
0011
1000
0110
1000
0100
0010
0001
0100
0001
0100
1001
0100
,
0001
0010
0101
1000
0010
1000
0110
1000
0100
0010
0101
0010
0100
1000
0011
1000
,
0010
0100
0011
1000
0010
0100
1000
0100
0010
0001
0100
0010
1000
0100
1010
0000
,
0000
0000
0000
0000
1001
0000
0101
0000
0000
0000
0101
0000
0000
0000
0101
0001
,
0010
0100
1000
0100
0010
0001
0010
0100
0010
0100
0010
0100
0010
0100
1010
0000
,
0000
1010
0000
1000
0010
1010
0100
0001
,
0010
1010
0001
0100
0010
0101
1000
0010
,
0100
1100
0001
0100
0010
0011
0001
1000
,
0010
1010
0100
1000
0100
0101
0010
0100
,
0001
0101
0001
0101
0010
0101
1000
1010
,
0100
0101
1000
1001
0001
1001
1000
1001
,
0001
1001
1000
1001
0010
0110
0100
0110
,
0010
0110
0010
1010
1000
1010
0010
1010
,
0100
0101
0001
0101
0100
0101
0010
1010
,
0100
0000
0101
0010
0100
1000
0101
0010
0001
0100
0010
1000
0100
0010
0001
1000
,
0010
0100
0010
1000
0001
0010
0100
1000
0010
0100
0001
0010
0100
1000
0001
0100
,
0010
0100
0001
0010
1000
0100
1010
0001
0010
0001
0100
0010
0100
0001
0010
0001
,
0100
0010
0100
0001
0010
0001
1000
0100
1000
0010
0100
0010
1000
0100
1000
0010
,
0100
0010
1000
0100
1000
0100
1010
0001
0010
0100
0010
0001
1000
0100
0010
0100
,
1000
0001
0010
0100
0010
0001
1000
0100
0010
0100
1000
0100
0010
0001
0100
0010
,
1000
0010
0100
0010
1000
0010
0101
0010
0100
0001
0100
0010
1000
0001
0010
0001
,
0100
0010
0100
0001
0010
0001
0100
0010
0100
0001
0010
0001
1000
0100
1000
0010
,
0100
0010
1000
0100
1000
0010
1001
0010
0100
1000
0100
0010
0001
0100
0010
1000
,
0100
0010
0001
1000
0010
0100
0010
1000
0001
0010
0100
1000
0010
0100
0001
0010
,
0100
1000
0001
0100
0010
0100
0011
0001
0010
0100
1000
0010
0100
0001
0010
0100
,
1000
0001
0100
0010
0100
0001
0100
0010
1000
0001
0100
0010
1000
0001
0100
0010
,
1000
0100
0010
0001
0010
0100
1010
0100
0001
0010
0001
0010
0100
1000
0001
0100
,
0010
0100
0001
1000
0001
0100
1010
0001
0010
0001
0100
0010
0100
0001
0010
0001
,
1000
0100
1000
0010
0100
0010
0101
1000
0100
0010
0100
1000
0001
0010
0100
0010
,
0001
1000
0100
0010
0001
0010
0101
0010
0100
1000
0010
0100
0001
0010
0100
1000
,
0001
0100
0010
0100
0001
0100
1001
0000
0010
0000
1010
0000
0100
0000
0101
0000
,
0001
1001
1000
1001
0010
1010
1000
1010
,
0100
0101
0010
0110
0100
0101
0001
1001
,
1000
1010
0100
0110
0001
0101
1000
1010
,
0100
1010
0010
0101
0010
0101
0001
0101
,
1000
1001
0001
1001
1000
1001
0001
1001
,
0100
1010
1000
1010
0100
0010
1010
0000
,
0001
1000
0010
1001
0010
1000
0101
0000
,
1000
0001
0100
0101
0010
0101
0001
1001
,
1000
1010
0100
0110
0010
1001
0001
1001
,
1000
1001
0001
1001
1000
1001
0010
0110
,
0100
0110
0010
0110
0100
0101
0001
0101
,
0100
0101
0001
0101
0100
0101
0010
1010
,
1000
1010
0010
1010
1000
1010
0010
1001
,
0010
1010
0100
0110
0010
0010
1001
0000
,
0100
0100
0100
1001
0000
0000
1001
0000
,
0000
0000
0000
2020
0000
0000
0000
0000
,
0000
0000
0000
3030
,
0000
0002
0000
0213
0000
0000
0320
1030
,
0000
0200
0000
1010
0000
0300
0002
0023
,
0030
0200
0000
0312
0000
0003
0000
0020
,
0000
0230
0000
0312
0000
0000
0000
0000
,
0003
0200
0000
0321
0000
0030
0200
0302
,
0003
2000
0000
3102
0000
0003
0020
2030
,
3000
0100
0001
0110
0000
1000
0010
1000
,
0000
0100
0000
0022
0000
0033
0000
0000
,
0000
0000
1000
0000
0000
0000
1100
0001
0010
0100
1000
0010
0100
0001
0010
0100
,
1000
0001
0100
0010
0100
0001
1000
0100
0010
0001
0100
0010
1000
0100
0010
0001
,
1000
0010
0100
0010
1000
0100
0010
0001
0010
0001
0010
0100
0010
0100
1000
0100
,
1000
0100
0001
0010
0001
0100
0010
0100
0001
0010
0001
1000
0100
1000
0010
0100
,
0010
1000
0100
1000
0100
0010
0001
0100
0010
1000
0100
0010
0001
1000
0010
0100
,
0010
1000
0001
0010
0100
1000
0010
0100
0001
0010
0100
1000
0001
0100
0010
0100
,
0001
1000
0100
0010
0001
0100
0010
1000
0100
0010
0001
1000
0010
0100
0010
1000
,
0001
0010
0100
1000
0010
0100
0001
0010
0100
1000
0001
0100
0010
0100
0001
1000
,
0100
0010
0100
1000
0001
0010
0100
0010
0001
1000
0100
0010
0001
0100
0010
0100
,
1000
0100
0010
0001
0010
0100
1010
0000
0000
0000
0100
1000
0100
1000
0100
1000
,
0000
0000
0010
0001
0010
0001
0010
0000
0000
0100
0010
0100
0010
0100
0010
0000
,
0000
1000
0010
1000
0010
1000
0010
0000
0000
0001
0100
0001
0100
0001
0100
0000
,
0000
1001
0000
0000
0000
0101
0000
0010
,
0000
1010
0000
0000
0000
0110
0000
0010
,
0000
0000
1001
0000
0000
0000
0100
1000
0100
1000
0100
0000
1010
0000
0010
0001
,
0010
0001
0010
0000
0110
0000
0100
0010
0100
0010
0100
0000
0110
0000
1000
0010
,
1000
0010
1000
0000
0110
0000
0001
0100
0001
0100
0001
0000
1001
0000
1000
0001
,
1000
0001
1000
0000
0000
0000
0100
0000
0000
0000
1010
0000
0000
0000
0100
0000
,
0100
1001
0000
1000
0000
0101
0000
0010
,
0010
0000
1001
0000
0000
0000
0100
0000
0000
0000
0101
0000
0000
0000
0010
0010
,
0010
0100
1000
0100
0010
0001
1100
0010
1000
0100
1010
0001
1000
0010
0101
0010
,
1000
0001
1010
0100
1000
0010
1100
0001
0010
0100
1010
0001
0100
0010
1100
0001
,
1000
0100
1010
0001
0100
0010
1001
0100
0010
0001
1000
0010
0100
0010
1100
0001
,
0010
0100
1001
0010
0100
0010
1001
0100
0010
0100
1000
0001
1010
0100
0010
0001
,
1000
0100
0010
0100
1010
0001
0010
0100
1010
0001
1000
0100
1001
0010
0100
0010
,
1001
0100
1000
0001
1010
0001
0100
0010
1100
0001
0010
0001
1010
0100
1000
0010
,
1100
0001
0010
0100
1010
0001
0100
0010
0100
0001
1000
0100
1010
0001
0100
0010
,
1001
0100
0010
0001
1100
0010
0100
0010
1000
0001
0010
0100
1000
0010
0100
0001
,
0010
0100
1000
0001
0100
0010
1001
0000
0000
0000
0001
0010
0100
1000
0100
0010
,
0100
1000
0100
1000
0100
1000
1010
0000
1000
0000
1010
0000
0000
0000
0001
0000
,
0100
1010
1000
0001
0100
0101
0010
1000
,
0100
1010
0100
0001
0010
0011
1000
0010
,
0100
1001
0001
0010
0100
1010
0100
0010
,
0001
1001
0100
1000
0010
0101
0010
0101
,
0010
1010
0100
1010
0100
0101
0001
0101
,
0100
0101
0001
1001
1000
1001
0001
1001
,
1000
1001
0001
1001
1000
1010
0010
1010
,
1000
1010
0010
0110
0100
0110
0010
0101
,
0100
0000
1010
0000
0100
0000
0101
0000
0010
0000
1010
0000
0001
0000
1001
0010
,
0100
0010
0001
0010
0100
1000
0010
0100
0001
0010
0100
0010
0001
1000
0100
0010
,
0100
1000
0010
0100
0001
0100
0010
1000
0001
1000
0010
0100
0001
1000
0011
0100
,
1000
0100
0010
0001
0100
0010
1000
0100
0010
0001
1000
0010
0100
0010
1000
0001
,
0010
0100
1000
0010
0100
0001
0010
0100
1000
0001
0100
0010
0100
0001
1010
0100
,
1000
0010
0100
0010
1000
0100
1000
0001
0010
0001
0100
0010
0100
0001
0010
0001
,
1000
0100
0001
0010
1000
0100
0001
0010
1000
0100
0001
0010
1000
0100
1001
0010
,
1000
0100
0010
0001
0010
0001
0010
0001
0010
0001
0010
0100
0010
0100
0010
0100
,
1000
0100
0010
0001
0010
0100
0010
0001
0010
0100
1000
0100
0010
0001
1010
0100
,
1000
0100
0010
0100
1000
0100
1000
0100
0010
0001
0100
0010
1000
0100
0010
0001
,
1000
0010
0100
0010
1000
0001
0010
0100
1000
0010
0100
0001
0010
0100
1010
0001
,
0100
0010
0100
0001
0010
0001
0010
0001
0100
0010
0100
0010
1000
0100
1001
0100
,
0010
0001
0010
0100
1000
0100
0010
0001
0100
0010
1000
0100
0010
0001
1100
0010
,
0100
0010
1000
0001
0010
0100
1000
0010
0100
0010
0001
0010
0001
0010
0101
0010
,
0100
0010
1000
0100
1000
0100
1000
0100
0010
0100
1000
0001
0010
0100
1010
0001
,
0100
0010
0100
1000
0100
0010
0001
0100
0010
1000
0100
0010
0100
1000
0101
0010
,
0100
0010
0100
0010
0100
0001
0010
0001
0010
0100
1000
0010
0100
0001
1010
0100
,
1000
0001
0100
0010
0100
0001
1000
0100
0010
0001
0100
0010
1000
0100
0010
0001
,
1000
0010
0100
0010
1000
0001
0010
0100
1000
0010
0100
0010
0001
1000
0101
0010
,
0100
0001
0010
0100
1000
0010
0100
0001
0010
0100
1000
0001
0100
0010
0100
0001
,
1000
0100
0010
0001
0100
0010
1000
0100
0010
0001
1000
0010
0100
0010
1100
0001
,
0010
0001
0010
0100
0010
0100
1000
0100
1000
0100
0010
0001
0010
0100
0010
0001
,
0010
0001
0010
0100
1000
0100
0010
0001
0010
0100
1000
0100
0010
0100
1010
0100
,
1000
0010
0100
0001
0010
0100
1000
0010
0100
1000
0100
0010
0001
0010
0001
0010
,
0100
0010
0100
0010
0100
1000
0100
1000
0100
0010
0001
0010
0100
1000
0011
0100
,
0001
0010
0100
1000
0001
0100
0010
0100
0001
1000
0100
0010
0001
0100
0010
1000
,
0100
0010
0001
1000
0010
0100
0010
1000
0001
0010
0100
1000
0010
0100
1001
0010
,
0100
1000
0001
0100
0010
0100
0001
1000
0100
0010
0001
0010
0100
0010
0001
1000
,
0100
0010
0100
1000
0010
0100
0001
0100
0010
1000
0100
0010
0001
1000
0110
0001
,
0100
0010
1000
0001
0010
0100
1000
0100
0010
0001
0100
0010
0001
0100
1010
0001
,
0010
0100
1000
0010
0100
0001
0010
0100
1000
0001
0100
0010
0100
0001
1010
0100
,
0001
0010
0001
0100
0010
0100
0001
0010
0001
0010
0100
1000
0100
0010
0110
0100
,
1000
0001
0100
0010
0100
1000
0100
0010
0100
1000
0001
0010
0100
0010
1001
0010
,
0001
1000
0010
0100
0001
1000
0010
0100
0001
1000
0010
0100
1000
0100
0010
0001
,
0010
0100
1000
0010
0100
0001
0010
0100
1000
0001
0100
0010
0100
0001
0010
0100
,
0010
0100
0010
0001
0010
0001
0010
0100
0010
0100
0010
1000
0010
1000
0010
0100
,
0001
1000
0010
0100
0001
1000
0010
0100
0010
0100
0010
0100
0010
0100
1001
0000
;
