#TITLE:Strike of the Ninja;
#SUBTITLE:;
#ARTIST:Dragonforce;
#TITLETRANSLIT:;
#SUBTITLETRANSLIT:;
#ARTISTTRANSLIT:;
#CREDIT:B. Abear;
#BANNER:Bn-Ninja.png;
#BACKGROUND:Bg-Ninja.png;
#LYRICSPATH:;
#CDTITLE:;
#MUSIC:Strike Of The Ninja.ogg;
#OFFSET:-0.511;
#SAMPLESTART:50.489;
#SAMPLELENGTH:14.500;
#SELECTABLE:YES;
#DISPLAYBPM:140.000;
#BPMS:0.000=140.000,407.000=105.000;
#STOPS:;
#BGCHANGES:;
// cache tags:
#FIRSTBEAT:21.000;
#LASTBEAT:441.250;
#SONGFILENAME:Songs/Dragonforce/Strike of the Ninja/Strike of the Ninja.sm;
#HASMUSIC:1;
#HASBANNER:1;
#MUSICLENGTH:198.138;
// end cache tags

//---------------dance-single - B. Abear----------------
#NOTES:
     dance-single:
     B. Abear:
     Challenge:
     13:
     0.966,1.000,0.782,0.106,1.000,1163.000,155.000,21.000,46.000,0.000:

0000
0000
0000
0000
,
0000
0000
0000
0000
,
0000
0000
0000
0000
,
0000
0000
0000
0000
,
0000
0000
0000
0000
,
0000
0000
0000
0000
2020
0000
3030
0000
2002
0000
3003
0000
0201
0000
0301
1000
,
0001
1000
0100
0000
0010
0000
0100
1000
0100
1000
0001
0000
0100
0000
0010
0100
,
0010
0100
0001
0000
1000
0000
0001
0010
0001
0010
0100
0000
1100
0000
1000
0001
,
1000
0001
0100
0000
0010
0000
0100
0010
0100
0010
1000
0000
0001
0000
0010
0100
,
0010
0100
1000
0000
0001
0000
0100
0001
0100
0001
1000
0000
1100
0000
0100
0010
,
0100
0010
0001
0000
1000
0000
0001
0100
0001
0100
0010
0000
0100
0000
0010
1000
,
0010
1000
0100
0000
0010
0000
0001
1000
0001
1000
0100
0000
0010
0000
0001
1000
,
0001
1000
0010
0000
0100
0000
0010
0100
0010
0100
0001
0000
1001
0000
1000
0100
,
0010
0000
0000
0000
0000
0000
1000
0000
0000
0100
0000
0000
0010
0000
0001
0000
1000
0000
0001
0000
1000
0000
0010
0000
0100
0000
0001
0000
1000
0000
0001
0000
1000
0000
0100
0000
1000
0000
0000
0000
0000
0000
0101
0000
0000
0000
0000
0000
,
0000
0001
1000
0000
1100
0000
0100
0010
0000
0010
0001
0000
1001
0000
1000
0000
,
0000
0010
0100
0000
0101
0000
0001
1000
0000
1000
0100
0000
0010
0001
1000
0001
,
0100
0010
1000
0001
1000
0100
0010
0001
0010
0100
1000
0001
0100
0010
0100
0001
,
1000
0100
0010
0100
1000
0001
0100
0010
1000
0001
0010
0001
1000
0000
0101
0000
,
0000
0001
0100
0000
0110
0000
0010
1000
0000
1000
0001
0000
0011
0000
0010
0100
,
0000
0100
1000
0000
1100
0000
1000
0001
0000
0001
0100
0000
0110
0000
0010
1000
,
0001
0000
0000
1000
0000
0000
0100
0000
0000
0010
0000
0000
0001
0000
0000
0010
0000
0000
0100
0000
0000
1000
0000
0000
0001
0000
0000
1000
0000
0000
0010
0000
0000
1000
0000
0000
0001
0000
0010
0000
0100
0000
1000
0000
0001
0000
1000
0000
,
0010
0000
0100
0000
0001
0000
1000
0000
0010
0000
0100
0000
0001
0000
1000
0000
0100
0000
0010
0000
0100
0000
1000
0000
0001
0000
1000
0000
0100
0000
0010
0000
0001
0000
1000
0000
0001
0000
0000
1000
0000
0000
0100
0000
0000
0010
0000
0000
,
0001
0010
0100
1000
0001
0100
0010
1000
0001
1000
0100
0010
0100
1000
0010
0100
,
0010
0100
0001
0010
0100
1000
0001
0100
0001
1000
0010
0100
0101
0000
0100
0010
,
0000
0010
1000
0000
1001
0000
1000
0100
0000
0100
0010
0000
0011
0000
0001
1001
,
0000
1000
1020
0000
0000
0130
0001
0000
1100
0000
0001
0000
1000
0100
0010
0001
,
0010
0100
1000
0001
0100
0010
0100
0010
1000
0001
1000
0100
0010
0100
1000
0001
,
0010
0100
1000
0001
0100
0001
1000
0001
0010
0100
1000
0001
0101
0000
0100
0010
,
0000
0010
1000
0000
1010
0000
1000
0001
0000
0001
0010
0000
0014
0000
0000
0000
,
0010
0000
0000
0000
0013
0000
0001
1000
0010
0100
0001
1000
1100
0000
0100
0000
,
0010
0011
0001
0001
0100
0010
1010
1000
,
0001
0000
0011
0000
0010
0000
0100
0000
0010
0000
0100
1000
1001
0000
0001
0000
,
0100
0110
0010
0010
1000
0001
0011
0010
,
0100
0000
1100
0000
1000
0000
0001
0000
0100
0001
1000
0100
1100
0000
1000
0000
,
0001
0101
0100
0100
0010
1000
1001
0001
,
0010
0000
0110
0000
0100
0000
0100
0000
1000
0000
0001
0100
0101
0000
0001
0000
,
1000
1010
0010
1000
0100
0010
0011
0001
,
1000
0000
1001
0000
0001
0100
0010
1000
0001
0000
1000
0000
0MMM
0000
0101
0000
,
0000
0001
1000
0000
1100
0000
0100
0010
0000
0010
0001
0000
0011
0000
0001
0100
,
0000
0100
0010
0000
1010
0000
1000
0001
0000
0001
1000
0000
0100
1000
0001
1000
,
0010
0100
0001
1000
0001
0010
0100
1000
0100
0010
0001
1000
0010
0100
0010
1000
,
0001
0010
0100
0010
0001
1000
0010
0100
0001
1000
0100
1000
0001
0000
1010
0000
,
0000
1000
0010
0000
0110
0000
0100
0001
0000
0001
1000
0000
1100
0000
0100
0010
,
0000
0010
0001
0000
0011
0000
0001
1000
0000
1000
0010
0000
0110
0000
0100
0001
,
1000
0001
0010
0100
1000
0100
0010
0001
1000
0001
0100
0001
1000
0010
0100
0001
,
1000
0100
0010
0001
1001
0000
1000
0100
1000
0100
0010
0001
0010
0001
1000
0100
,
1000
0100
0010
0001
1000
0010
0100
0001
1000
0001
0010
0100
0010
0001
0100
0010
,
0100
0010
1000
0100
0010
0001
1000
0010
1000
0001
0100
0010
1010
0000
0010
0100
,
0000
0100
0001
0000
1001
0000
0001
0010
0000
0010
0100
0000
1100
0000
1000
1001
,
0000
0001
0201
0000
0000
0310
1000
0000
0011
0000
1000
0000
0001
0010
0100
1000
,
0100
0010
0001
1000
0010
0100
0010
0100
0001
1000
0001
0010
0100
0010
0001
1000
,
0100
0010
0001
1000
0010
1000
0001
1000
0100
0010
0001
1000
1010
0000
0010
0100
,
0000
0100
0001
0000
0101
0000
0001
1000
0000
1000
0100
0000
4100
0000
0000
0000
,
0100
0000
0000
0000
3100
0000
1000
0001
0100
0010
1000
0001
0011
0000
0010
0000
,
0100
1100
1000
1000
0010
0100
0101
0001
,
1000
0000
1100
0000
0100
0000
0010
0000
0100
0000
0010
0001
1001
0000
1000
0000
,
0010
0110
0100
0100
0001
1000
1100
0100
,
0010
0000
0011
0000
0001
0000
1000
0000
0010
1000
0001
0010
0011
0000
0001
0000
,
1000
1010
0010
0010
0100
0001
1001
1000
,
0100
0000
0110
0000
0010
0000
0010
0000
0001
0000
1000
0010
1010
0000
1000
0000
,
0001
0101
0100
0001
0010
0100
1100
1000
,
0001
0000
0000
0000
0000
0000
1001
0000
0000
0000
0000
0000
1000
0000
0000
0010
0000
0000
0100
0000
0000
0001
0000
0000
1000
0000
0000
0010
0000
0000
0100
0000
0000
0001
0000
0000
0100
0000
0010
0000
0100
0000
0001
0000
1000
0000
0100
0000
,
1000
0001
0010
0100
1000
0001
0010
0001
1000
0010
0100
0001
0100
0010
1000
0001
1000
0100
0010
0001
1000
0010
1000
0010
,
0100
0001
1000
0001
0010
0001
1000
0100
1000
0001
0010
0100
1000
0001
0100
0001
0100
0010
1000
0100
0010
0001
0010
0100
,
1000
0001
0100
0010
1000
0001
1000
0100
0010
0001
0010
0100
1000
0001
0100
0010
0100
0001
1000
0100
1000
0100
1000
0100
,
0010
0100
0010
0100
0010
0100
1000
0001
1000
0001
1000
0001
0400
0000
0000
0000
0000
0000
0320
0000
0000
0000
0000
0000
,
0000
0000
0000
0000
0000
0000
1030
0000
0000
0001
0000
0000
0040
0000
0000
0000
0000
0000
0000
0000
0000
0000
0000
0000
0000
0000
0000
0000
0000
0000
0130
0000
1000
0000
0001
0000
1000
0000
0000
0000
0000
0000
0001
0000
0000
0000
0000
0000
,
0100
0010
1000
0001
0010
0100
1000
0001
2000
0000
0000
0000
,
0000
0000
0000
0000
0000
0000
0000
0000
0000
0000
0000
0000
0000
0000
0000
0000
3000
0000
0001
0100
0010
1000
0010
0100
,
0001
0000
0100
0000
0010
0000
1000
0000
0010
0000
0100
0000
0001
0000
0100
0000
0010
0000
1000
0000
0010
0000
0100
0000
0001
0000
0100
0000
0010
0000
1000
0000
0010
0000
0100
0000
0002
0000
0000
0000
0000
0000
1000
0000
0000
2003
0000
0000
,
0000
0000
3100
0000
0020
0000
0001
0032
0000
0000
1003
0000
0010
0100
0001
0001
,
1000
0100
0010
0010
0100
1000
0001
0001
1000
0010
0100
0100
0101
0000
0000
0001
,
0000
0000
1000
0000
1100
0000
0000
0100
0000
0000
0010
0000
0011
0000
0000
0001
,
0000
0000
0000
1000
0000
0000
2010
0000
0000
0000
0000
0000
3001
0000
0000
M00M
0000
0000
1000
0100
0010
0001
1000
0010
,
0100
0001
1000
0001
0010
0100
1000
0001
1000
0010
1000
0001
0010
0001
1000
0100
0010
0001
0010
0001
1000
0001
1000
0010
,
0100
0000
0010
0000
1000
0000
0001
0000
0010
0000
0100
0000
0010
0000
0001
0000
1000
0000
0010
0000
0100
0000
0010
0000
0100
0000
0010
0000
1000
0000
0001
0000
1000
0000
0100
0000
0010
0000
0000
0001
0000
0000
1000
0000
0000
0010
0000
0000
,
0100
0010
0100
0001
1000
0100
0010
0001
1000
0010
0100
0001
1000
0100
1000
0001
,
1000
0010
1000
0001
0100
0010
0100
0001
0100
0010
1000
0001
1001
0000
1000
0100
,
0010
0001
1000
0010
0100
0001
1000
0001
0010
0100
0010
0001
1000
0100
0010
0001
,
1000
0010
0100
0010
1000
0001
1000
0010
1000
0100
0010
0001
0011
0000
0010
0100
,
0000
0100
1000
0000
1001
0000
0001
0100
0000
0100
0010
0000
1010
0000
1000
1001
,
0000
0001
0021
0000
0000
0130
1000
0000
0101
0000
1000
0000
0001
0100
0010
1000
,
0001
1000
0001
0010
0100
0010
0001
1000
0100
0010
0001
1000
0010
0100
0001
0010
,
0100
0010
0001
1000
0100
0010
0001
1000
0001
1000
0010
0100
0101
0000
0001
1000
,
0000
1000
0100
0000
0110
0000
0010
0001
0000
0001
1000
0000
4010
0000
0000
0000
,
0010
0000
0000
0000
0000
0000
3010
0000
0000
1000
0001
0010
0001
1000
0100
0010
0001
1000
0001
0000
0000
MMM0
0000
0000
,
1100
0001
1010
0100
1010
0001
0110
0000
,
1010
0000
0001
0000
1100
0000
0001
0000
1100
0000
1000
0001
0011
0000
0000
0000
,
0110
0100
0011
1000
0101
0010
1001
0000
,
1100
0000
0000
0000
1010
0000
0001
0000
1000
0010
0100
0001
1001
0000
1000
0000
,
0100
0110
0010
0010
0001
1000
1010
0010
,
0100
0000
0101
0000
0001
0000
0001
0000
1000
0000
0100
0010
0011
0000
0001
0000
,
1000
0000
1010
0000
0010
0000
0010
0000
0100
0000
0001
0000
1001
0000
1000
0100
,
1100
0000
0000
0000
0000
0000
0110
0000
0000
0010
0000
0000
0001
1000
0010
1000
0001
0010
0001
0000
0000
1000
0000
0000
,
0011
1000
0101
1000
0011
0100
1001
0100
,
0101
0000
0010
0000
0101
0000
1000
0000
0011
0000
0001
1000
1010
0000
0000
0000
,
0110
0000
1000
0000
0101
0000
0010
0000
1100
0000
0001
0000
1100
0000
1000
0001
,
0011
0000
0100
0000
1001
0000
0001
0000
0100
0010
1000
0100
1100
0000
0000
0000
,
0110
0001
1100
0010
1001
0100
0011
1000
,
0101
0000
0010
0000
1100
0000
0001
0000
1010
0000
1000
0001
0101
0000
0000
0000
,
1001
0000
1000
0000
0011
0000
0100
0000
1010
0000
0100
0000
0011
0000
1000
0001
,
1001
0000
0000
0000
0000
0000
0100
0000
0000
0000
0000
0000
0011
0000
0000
0000
0000
0000
1001
0000
0000
0000
0000
0000
1000
0000
0000
0010
0000
0000
0100
0000
0001
0000
1000
0000
0002
0000
0000
0000
0000
0000
0000
0000
0000
0000
0000
0000
,
0000
0000
0000
0000
0000
2003
0000
0000
0000
0000
3002
0000
0000
0000
0000
0003
,
2001
0000
0000
0000
0000
0000
0000
0000
0000
0000
3000
0000
0000
0000
0000
0000
0000
0000
0000
0000
0100
0000
0000
0000
0000
0000
0000
0101
0000
0000
0000
1000
,
0000
0000
0000
0000
0000
0000
0000
0000
0000
0000
0000
0000
0101
0000
0000
0000
0000
0000
0000
0000
0000
0000
0000
0000
0000
0000
0000
0000
0000
0000
0000
0000
0000
0000
0000
0000
1000
0000
0000
0000
0000
0000
0000
0000
0000
0000
0000
0000
0000
0000
0000
0000
0000
0000
0000
0000
0101
0000
0000
0000
0000
0000
0000
0000
0000
0000
0000
0000
0000
0000
0000
0000
0000
0000
0000
0000
0000
0000
1001
0000
0000
0000
0000
0000
0000
0000
0000
0000
0000
0000
0000
0000
0000
0000
0000
0000
1100
0000
0000
0000
0000
0000
0000
0000
0000
0000
0000
0000
0000
0000
0000
0000
0000
0000
0000
0000
0000
0000
0000
0000
0000
0000
0000
0000
0000
0000
0000
0000
0000
0000
0000
0000
0000
0000
0000
0000
0000
0000
0000
0000
0000
0000
0000
0000
4M04
0000
0000
0000
0000
0000
0000
0000
0000
0000
0000
0000
0000
0000
0000
0000
0000
0000
0000
0000
0000
0000
0000
0000
00M0
0000
0000
0000
0000
0000
0000
0000
0000
0000
0000
0000
0000
0000
0000
0000
0000
0000
0000
0000
0000
0000
0000
0000
,
0M00
00M0
0M00
00M0
0M00
00M0
0M00
00M0
,
0M00
00M0
0M00
00M0
0M00
00M0
0M00
00M0
,
0M00
00M0
0M00
00M0
0M00
00M0
0M00
00M0
,
0M00
00M0
0M00
00M0
0M00
00M0
0M00
00M0
,
0M00
0000
0000
0000
0000
0000
0000
0000
0000
0000
0000
0000
0000
0000
0000
0000
0000
0000
0000
0000
0000
0000
0000
0000
30M3
0000
0000
0000
0000
0000
0000
0000
0000
0000
0000
0000
0000
0000
0000
0000
0000
0000
0000
0000
0000
0000
0000
0000
1001
0000
0000
0000
0000
0000
0000
0000
0000
0000
0000
0000
0000
0000
0000
0000
0000
0000
0000
0000
0000
0000
0000
0000
1001
0000
0000
0000
0000
0000
0000
0000
0000
0000
0000
0000
0000
0000
0000
0000
0000
0000
0000
0000
1001
0000
0000
0000
0000
0000
0000
0000
0000
0000
0000
0000
0000
0000
0000
0000
0001
0000
0000
0000
0000
0000
1000
0000
0000
0000
0000
0000
0001
0000
0000
0000
0000
0000
0000
0000
0000
0000
0000
0000
0000
0000
0000
0000
0000
0000
0000
0000
0000
0000
0000
0000
0000
0000
0000
0000
0000
0000
0000
0000
0000
0000
0000
0000
0000
0000
0000
0000
0000
0000
0000
0000
0000
0000
0000
0000
0000
0000
0000
0000
0000
0000
0000
0000
0000
0000
0000
0000
2002
0000
0000
0000
0000
0000
0000
0000
0000
0000
0000
0000
,
0000
0000
3000
M000
0003
000M
0000
0000
0000
0000
0000
0000
0000
0000
0000
0000
;
