#TITLE:Kind Lady;
#SUBTITLE:(Interlude Rough Instrumental);
#ARTIST:Okuyatos;
#TITLETRANSLIT:;
#SUBTITLETRANSLIT:;
#ARTISTTRANSLIT:;
#CREDIT:;
#BANNER:kindladyinst.png;
#BACKGROUND:kindladyinst-bg.png;
#LYRICSPATH:;
#CDTITLE:cynic.png;
#MUSIC:Kind Lady (Interlude Rough Insturmental) - Okuyatos.mp3;
#OFFSET:1.401;
#SAMPLESTART:44.832;
#SAMPLELENGTH:11.980;
#SELECTABLE:YES;
#BPMS:0.000=134.885;
#STOPS:;
#BGCHANGES:;
// cache tags:
#FIRSTBEAT:4.250;
#LASTBEAT:200.000;
#SONGFILENAME:Songs/Community Keyboard Megapack - Volume 3/(cynic) kindlady_interlude/kindlady_int.sm;
#HASMUSIC:1;
#HASBANNER:1;
#MUSICLENGTH:91.906;
// end cache tags

//---------------dance-single - ----------------
#NOTES:
     dance-single:
     :
     Hard:
     10:
     1.000,1.000,0.783,0.218,1.000,613.000,72.000,20.000,0.000,0.000:  // measure 1
0000
0000
0000
0000
,  // measure 2
0000
0000
0001
0000
1000
0000
0100
0000
1000
0000
0000
0000
1000
0000
0000
0000
0100
0010
0001
0000
1000
0000
0010
0000
0000
0000
1000
0000
0010
0000
0100
0000
,  // measure 3
0001
0000
0000
0000
1000
0000
0100
0000
1000
0000
0000
0000
0000
0001
0010
0000
0000
0000
0100
0000
0010
0000
0100
0000
1000
0000
0000
0000
0001
0000
0000
0000
,  // measure 4
1100
0000
0001
0000
0100
0000
0001
0000
1000
0100
1000
0001
0100
0000
0100
0001
,  // measure 5
0010
0000
0100
1000
0000
0010
0000
0010
1010
0000
1010
0000
0102
0000
0000
1000
,  // measure 6
1003
0000
0100
0000
1000
0000
0010
0000
0100
0000
0001
0000
0100
0000
0001
0000
1000
0000
0000
0100
1000
0000
0001
0000
0100
0000
0010
0000
1000
0000
0010
0000
,  // measure 7
0100
0010
1000
0100
0010
0000
0001
1000
0002
0000
0103
0000
1010
0000
0000
0000
,  // measure 8
1001
0001
0100
0001
1000
0000
0010
0010
1000
0000
0001
0000
0011
0000
1000
0001
,  // measure 9
1000
0100
1000
0100
0010
0001
0010
0001
1000
0001
1000
0001
0100
0010
0100
0000
,  // measure 10
1001
0000
0100
0000
1010
0000
0100
0101
0000
0101
0000
0101
0001
1000
0100
1000
,  // measure 11
0001
0000
0000
0000
1000
0000
0000
0001
0100
0000
0001
0000
1000
0000
0100
0000
0010
0000
0001
0000
1000
0000
0001
0000
1000
0000
0010
0000
0100
0000
0001
0000
,  // measure 12
1000
0000
0001
0001
0100
1000
0100
0010
0100
0001
0010
0100
1000
0001
0100
0001
,  // measure 13
1000
0000
0100
0000
1000
0000
0001
0000
1000
0000
0000
0100
0010
0000
0001
0000
1000
0000
0100
0000
1000
0000
0001
0000
0000
0000
2020
0000
0000
0000
3030
0000
,  // measure 14
1001
0000
0000
1000
0010
0000
0100
0000
0001
0000
1000
0000
0100
0000
0010
0000
0000
0001
0010
0000
0000
0001
0010
0000
0000
0000
0100
0000
1000
0000
0000
0000
,  // measure 15
0001
0100
0001
0100
0001
1000
0100
0020
0100
0000
0100
0000
0130
0000
0001
2000
,  // measure 16
0100
0000
0100
0000
3100
0000
1000
0100
1000
0100
1000
0001
0100
0010
1000
0100
,  // measure 17
0000
0011
0000
0101
0000
0100
0001
0100
0010
1000
0100
1000
0001
1000
0100
0010
,  // measure 18
1001
0000
0100
0000
0010
0000
0001
0000
1000
0000
0001
0000
0100
0000
0000
0001
1000
0000
0010
0000
0100
0000
0001
0000
1000
0000
0001
0000
1000
0000
0100
0000
,  // measure 19
0010
0000
0100
0010
0000
0011
0000
1100
0100
0010
0011
0000
1000
0100
0011
0000
,  // measure 20
1000
0000
0100
0000
1000
0000
0001
0000
0100
0000
0001
0000
1000
0000
0001
0000
0100
0000
0000
0010
1000
0000
0001
0000
0100
0000
0001
0000
1000
0000
0100
0000
,  // measure 21
0010
0001
1000
0010
0100
0001
1000
0001
0000
0000
0010
0000
0100
0000
1000
0001
,  // measure 22
0000
0100
0001
1000
0100
0010
0001
1000
0001
0010
0100
1000
0001
1000
0001
0100
,  // measure 23
1010
0000
0100
0001
0100
0010
1000
0000
1000
0010
0000
0101
0000
0001
0100
0001
,  // measure 24
1000
0000
0100
0000
0000
0000
0011
0000
0000
0001
0010
0000
0100
0000
1000
0000
0000
0000
1010
0000
0000
0000
1010
0000
0000
0000
1000
0000
0010
0000
0100
0000
,  // measure 25
0001
0100
0001
0100
0010
1000
0010
1000
0001
1000
0001
1000
0010
0100
0010
0000
,  // measure 26
2002
0000
0000
0000
3003
0000
0000
0100
0010
0000
1000
0000
0100
0000
0010
0000
0001
0000
0000
0000
0100
0000
0010
0000
0000
0000
1010
0000
0000
0000
1010
0000
,  // measure 27
2000
0000
0100
0000
3200
0000
0010
0000
0320
0000
0001
0000
0032
0000
1000
0003
,  // measure 28
1001
1000
0100
1000
0001
0100
0010
1000
0000
1000
0000
0010
0100
0001
0010
0100
,  // measure 29
1000
0001
1000
0001
0010
0001
0100
0010
1000
0100
0011
0000
1100
0000
0000
0100
,  // measure 30
1001
0000
0101
0000
1100
0000
0101
0000
0010
1000
0100
0010
0000
0000
0110
0000
,  // measure 31
1001
0000
0100
0000
0010
0000
0001
0000
0000
0000
0001
0000
1000
0000
0100
0000
1000
0000
0000
0000
1000
0000
0000
0000
0100
0010
0000
0000
1000
0000
0010
0000
,  // measure 32
0000
0000
1000
0000
0010
0000
0100
0000
0001
0000
0000
0000
1000
0000
0100
0000
1000
0000
0000
0000
0000
0001
0010
0000
0000
0000
0100
0000
0010
0000
0100
0000
,  // measure 33
1000
0001
1100
1000
0011
0010
1100
0100
,  // measure 34
0010
0000
0100
1000
0000
0010
0000
0010
1010
0000
1010
0000
0102
0000
0000
1000
,  // measure 35
1003
0000
0100
0000
1000
0000
0010
0000
0100
0000
0001
0000
0100
0000
0001
0000
1000
0000
0000
0100
1000
0000
0001
0000
0100
0000
0010
0000
1000
0000
0010
0000
,  // measure 36
0100
0010
1000
0100
0010
0000
0001
1000
0002
0000
0103
0000
1010
0000
0000
0000
,  // measure 37
1001
0001
1000
0100
0000
0011
0000
0011
0000
1000
0001
0100
0001
0010
0100
1000
,  // measure 38
0001
0100
0001
0100
0010
1000
0100
0010
0100
0010
0001
1000
0001
0100
0010
1000
,  // measure 39
1100
0100
0110
0010
0011
0001
1001
0110
,  // measure 40
1001
0000
0000
0000
1000
0000
0000
0000
0100
0010
0000
0000
0001
0000
1000
0000
0100
0000
1000
0000
0001
0000
0100
0000
0010
0000
1000
0000
0001
0000
1000
0000
,  // measure 41
1001
1000
0100
0010
1001
0100
0010
1000
1001
0100
0010
0100
1001
0010
0100
0010
,  // measure 42
1000
0000
0100
0000
1000
0000
0001
0000
1000
0000
0000
0100
0010
0000
0001
0000
1000
0000
0100
0000
1000
0000
0001
0000
0000
0000
2020
0000
0000
0000
3030
0000
,  // measure 43
1001
0000
0000
1000
0010
0000
0100
0000
0001
0000
1000
0000
0100
0000
0010
0000
0000
0001
0010
0000
0000
0001
0010
0000
0000
0000
0100
0000
1000
0000
0000
0000
,  // measure 44
0001
0100
0001
0100
0001
1000
0100
0020
0100
0000
0100
0000
0130
0000
0001
2000
,  // measure 45
0100
0000
0100
0000
3100
0000
1000
0100
1000
0100
1000
0001
0100
0010
1000
0100
,  // measure 46
0000
0011
0000
0101
0000
0100
0001
0100
0010
1000
0100
1000
0001
1000
0100
0010
,  // measure 47
1001
0000
0100
0000
0010
0000
0001
0000
1000
0000
0001
0000
0100
0000
0000
0001
1000
0000
0010
0000
0100
0000
0001
0000
1000
0000
0001
0000
1000
0000
0100
0000
,  // measure 48
0010
0000
0100
0010
0000
0011
0000
1100
0100
0010
0011
0000
1000
0100
0011
0000
,  // measure 49
1001
0100
1000
0100
1001
0100
0001
0100
1001
0100
0010
1000
1001
0100
0010
0001
,  // measure 50
2002
0000
0000
0000
,  // measure 51
3003
0000
0000
0000
;

//---------------dance-single - ----------------
#NOTES:
     dance-single:
     :
     Challenge:
     10:
     1.000,0.952,0.827,0.305,1.000,641.000,76.000,28.000,0.000,0.000:  // measure 1
0000
0000
0000
0000
,  // measure 2
0000
0000
0000
0001
0000
0000
0010
0000
0000
0100
0000
0000
0010
0000
0000
0000
0000
0000
0100
0000
0000
1000
0000
0000
0010
0000
1000
0000
0010
0000
1000
0000
0000
0001
0000
0000
0000
0000
0000
0010
0000
0000
0100
0000
0000
1000
0000
0000
,  // measure 3
0001
0000
0000
1000
0000
0000
0001
0000
0000
0100
0000
0000
0010
0000
0000
0000
0000
0000
0100
0000
0000
0000
0010
0000
1000
0000
0000
0100
0000
0000
1000
0000
0000
0100
0000
0000
0010
0000
0000
0000
0000
0000
0011
0000
0000
0000
0000
0000
,  // measure 4
2001
0000
0000
0000
0000
0000
0000
0000
0000
0000
0000
0000
0000
0000
0000
0000
0000
0000
0000
0000
0000
0000
0000
0000
0100
0000
0000
0000
0000
0000
0000
0000
0000
0000
0000
0000
0000
0000
0000
0000
0000
0000
0000
0000
0000
0000
0000
0000
0010
0000
0000
0000
0000
0000
3000
0000
0000
0000
0000
0000
0000
0000
0000
0000
0000
0000
0000
0000
0000
0000
0000
0000
0100
0000
0000
0000
0000
0000
0000
0000
0000
0000
0000
0000
0000
0000
0000
0000
0001
0000
0000
0000
0000
0000
0000
0000
1000
0000
0000
0000
0000
0000
0000
0000
0000
0000
0000
0000
0100
0000
0000
0000
0000
0000
0000
0000
0000
0000
0000
0000
0010
0000
0000
0000
0000
0000
0000
0000
0000
0000
0000
0000
0100
0000
0000
0000
0000
0000
0000
0000
0000
0000
0000
0000
0001
0000
0000
0000
0000
0000
0000
0000
0000
0000
0000
0000
0000
0000
0000
0000
0000
0000
0000
0000
0000
0000
0000
0000
0100
0000
0000
0000
0000
0000
0000
0000
0000
0000
0000
0000
1000
0000
0000
0000
0000
0000
0000
0000
0000
0000
0000
0000
,  // measure 5
0001
0000
0100
0020
0000
1000
0030
1000
2010
0000
3001
0000
0102
0000
0103
0000
,  // measure 6
1001
0000
0000
0010
0000
0000
1000
0000
0000
0001
0000
0000
0010
0000
0000
0100
0000
0000
0020
0000
0000
0100
0000
0000
0000
0000
0000
0130
0000
0000
1000
0000
0000
0001
0000
0000
0100
0000
0010
0000
0100
0000
0001
0000
0000
0010
0000
0000
,  // measure 7
0100
1000
0001
0010
1000
0010
0001
1000
0000
0010
0100
0000
0101
0000
1000
0001
,  // measure 8
1000
0000
0000
0001
0000
0000
0010
0000
0000
0100
0000
1000
0000
0010
0000
0200
0000
0000
0000
0000
0000
0010
0000
0000
0000
0000
0000
1000
0000
0000
0000
0000
0000
1000
0000
0000
0300
0000
0000
0001
0000
0000
0010
0000
0000
0100
0000
0000
,  // measure 9
1001
0010
0100
0001
1000
0100
0010
0001
1100
0010
0100
1000
0000
0001
1010
0000
,  // measure 10
1001
0000
0000
0100
0000
0000
0010
0000
0000
1000
0000
0000
0001
0000
0000
0000
0010
0000
0100
0000
0000
1000
0000
0000
0000
0000
0000
1010
0000
0000
0000
0000
0000
1010
0000
0000
0001
0000
0000
0100
0000
0000
0001
0000
0000
0010
0000
0000
,  // measure 11
1000
0000
0000
0000
0000
0000
0010
0000
0000
0000
0001
0000
1000
0000
0000
0001
0000
0000
0100
0000
0000
0010
0000
0000
1000
0000
0000
0100
0000
0000
0010
0000
0000
0001
0000
0000
0100
0000
0000
0001
0000
0000
1000
0000
0000
0010
0000
0000
,  // measure 12
0100
0000
0001
1000
0100
0010
0100
1000
0100
0001
0100
1000
0001
0100
0010
1000
,  // measure 13
0000
0000
0000
0010
0000
0000
0001
0000
0000
0010
0000
0000
0100
0000
0000
0000
0001
0000
1000
0000
0000
0100
0000
0000
0001
0000
0000
0100
0000
0000
1000
0000
0000
0001
0000
0000
0100
0000
0000
0010
0000
0000
0000
0000
0000
1000
0000
0000
,  // measure 14
0101
0000
0000
0000
0000
0000
0001
0000
0000
0100
0000
0000
0010
0000
0000
1000
0000
0000
0100
0000
0000
0011
0000
0000
0000
0000
0001
0020
0000
0000
0000
0000
0000
1000
0000
0000
0000
0000
0030
0100
0000
0000
1000
0000
0000
0000
0000
0000
,  // measure 15
1010
0000
0100
0000
0101
0000
1000
0200
0010
0000
0001
0000
0001
0300
0010
0200
,  // measure 16
1000
0000
0001
0000
0001
0300
1000
0100
1000
0001
1000
0010
0100
0000
0001
0010
,  // measure 17
0000
0011
0000
1100
0100
1000
0100
1000
0010
0000
0100
0001
1000
0100
0010
0100
,  // measure 18
0011
0000
0000
1000
0000
0000
0010
0000
0000
0100
0000
0000
0001
0000
0000
0000
0000
0000
1000
0000
0000
0000
0010
0000
0100
0000
0000
0001
0000
0000
2000
0000
0000
0100
0000
0000
0000
0000
0000
3100
0000
0000
0010
0000
0000
0002
0000
0000
,  // measure 19
1000
0000
1003
0010
0100
0001
0000
0100
1000
0001
0010
1000
0001
0010
0001
1000
,  // measure 20
0011
0000
0000
0000
0000
0000
0001
0000
0000
1000
0000
0000
0001
0000
0000
0010
0000
0000
0100
0000
0000
1000
0000
0000
0100
0000
0000
0000
0100
0000
0010
0000
0000
1000
0000
0000
0010
0000
0000
0001
0000
0000
0100
0000
0000
0010
0000
0000
,  // measure 21
1000
0001
0100
0010
0100
0001
0010
0200
1000
0000
1000
0300
0001
0000
1000
0100
,  // measure 22
0011
0000
0001
0100
0010
1000
0001
0010
0100
0010
0000
0001
1100
0000
0100
1000
,  // measure 23
0001
0100
0010
1000
0001
1100
0000
0100
1000
0010
0100
0001
0010
0100
0001
0100
,  // measure 24
1000
0000
0000
0010
0000
0000
0000
0000
0000
1010
0000
0000
0000
0000
0000
1000
0000
0000
0010
0000
0000
0100
0000
0000
0000
0000
0100
0001
0000
0000
0000
0000
0000
0001
0000
0000
0100
0000
0000
0010
0000
0000
1000
0000
0000
0100
0000
0000
,  // measure 25
0011
1000
0001
0000
1100
0001
1000
0000
1010
0001
0010
0000
0101
1000
0010
0100
,  // measure 26
2001
0000
0000
0000
0000
0000
3000
0000
0010
0000
0100
0000
0001
0000
0000
0100
0000
0000
0010
0000
0000
1000
0000
0000
0100
0000
0000
0000
0000
0000
0010
0000
0000
0200
0000
0000
0000
0000
0000
0001
0000
0000
0000
0000
0000
1300
0000
0000
,  // measure 27
2100
0000
0000
0000
0000
0000
3010
0000
0000
0000
0000
0000
0101
0000
0000
0000
0100
0000
0010
0000
1000
0000
0000
0000
0001
0000
0000
1000
0000
0000
0100
0000
0000
0010
0000
0000
0000
0000
0000
0011
0000
0000
0000
0000
0000
0001
0000
0000
,  // measure 28
0100
0010
1000
0010
0100
0001
1000
0100
0010
0000
0001
0100
1000
0100
0001
1000
,  // measure 29
0100
0010
0100
0010
0001
0000
0100
0001
1000
0010
0000
1010
0000
0101
0000
0001
,  // measure 30
1000
0100
0010
0000
0011
0000
1001
0000
1000
0010
1000
0101
0000
0100
0010
1000
,  // measure 31
0001
0000
0000
0010
0000
0000
0100
0000
0000
0010
0000
0000
0001
0000
0000
0100
0000
0000
1010
0000
0000
0000
0000
0000
1000
0000
0010
0000
0100
0000
0002
0000
0000
1000
0000
0000
0000
0000
0000
1003
0000
0000
0010
0000
0000
0100
0000
0000
,  // measure 32
0001
0000
0000
1000
0000
0000
0100
0000
0000
0010
0000
0000
0100
0000
0000
0000
0000
0000
1000
0000
0000
0000
1000
0000
0010
0000
0000
0100
0000
0000
0001
0000
0000
1000
0000
0000
0100
0000
0000
1000
0000
0000
0011
0000
0000
0000
0000
0000
,  // measure 33
0201
0000
0000
0000
0000
0000
1300
0000
0000
0000
0000
0000
0021
0000
0000
0000
0000
0000
1030
0000
0000
0000
1000
0000
0100
0000
0000
0001
0000
0000
0100
0000
0000
0010
0000
0000
0001
0000
0000
0100
0000
0000
1000
0000
0000
0100
0000
0000
,  // measure 34
0010
1000
0001
0010
0001
1100
0000
0011
0001
0000
1010
0000
0101
0010
1000
0010
,  // measure 35
0000
0000
0000
0100
0000
0000
0001
0000
0000
1000
0000
0000
0100
0000
0000
0010
0000
0000
1000
0000
0000
0010
0000
0000
0001
0000
0000
0100
0000
0000
0010
0000
0000
1000
0000
0000
0001
0000
0010
0000
0100
0000
1000
0000
0000
0010
0000
0000
,  // measure 36
0100
1000
0100
0001
0010
0001
0010
1100
0000
1000
0010
0100
1001
0000
0001
0010
,  // measure 37
0100
0000
0000
1000
0000
0000
0100
0000
0000
0001
0000
0000
0100
0000
0000
1000
0000
0000
0000
0000
0000
0011
0000
0000
0000
0000
0000
0001
0000
0000
0100
0000
0000
0010
0000
0000
1000
0000
0000
0100
0000
0000
0010
0000
0000
0000
0100
0000
,  // measure 38
0010
0001
0100
0010
1000
0100
0001
0100
1000
0001
1000
0010
0001
0010
0100
0001
,  // measure 39
0201
0310
2010
3100
0021
1030
0201
1300
,  // measure 40
1001
0000
0000
0100
0000
0000
0000
0000
0010
1000
0000
0000
0001
0000
0000
0010
0000
0000
0100
0000
0000
0010
0000
0000
0001
0000
0000
1000
0000
0000
0010
0000
0000
0100
0000
0000
0001
0000
0000
1000
0000
0000
0100
0000
0000
0010
0000
0000
,  // measure 41
1001
0000
1000
0010
0101
0000
0001
1000
0110
0000
1010
0000
1001
0100
0010
0001
,  // measure 42
1100
0000
0000
0000
0000
0000
1000
0000
0000
0010
0000
0000
0100
0000
0001
0000
1000
0000
0010
0000
0000
0100
0000
0001
0000
1000
0000
0100
0000
0000
0010
0000
0000
0000
0001
0000
0000
1000
0000
0010
0000
0000
0000
0000
0201
0000
0000
0000
,  // measure 43
0000
0000
0000
0300
0000
0000
1000
0000
0000
0100
0000
0000
0001
0000
0000
1000
0000
0000
0100
0000
0000
0010
0000
0000
0000
0100
0010
0001
0000
0000
0000
0000
0000
0011
0000
0000
0000
0000
0000
0010
0000
0000
0100
0000
0000
1000
0000
0000
,  // measure 44
1010
0100
0001
1010
0000
0010
0100
0002
1000
0000
0010
0000
1000
0000
0013
0100
,  // measure 45
2000
0000
0000
0000
0000
0000
0000
0000
0000
0000
0000
0000
0000
0000
0000
0000
0000
0000
0000
0000
0000
0000
0000
0000
0001
0000
0000
0000
0000
0000
0000
0000
0000
0000
0000
0000
0000
0000
0000
0000
0000
0000
0000
0000
0000
0000
0000
0000
0010
0000
0000
0000
0000
0000
0000
0000
0000
0000
0000
0000
3000
0000
0000
0000
0000
0000
0000
0000
0000
0000
0000
0000
0000
0000
0000
0000
0000
0000
0000
0000
0001
0000
0000
0000
0000
0000
0000
0000
0010
0000
0000
0000
0000
0000
0000
0000
0100
0000
0000
0000
0000
0000
0000
0000
0000
0000
0000
0000
1000
0000
0000
0000
0000
0000
0000
0000
0000
0000
0000
0000
0010
0000
0000
0000
0000
0000
0000
0000
0000
0000
0000
0000
0200
0000
0000
0000
0000
0000
0000
0000
0000
0000
0000
0000
0001
0000
0000
0000
0000
0000
0000
0000
0000
0000
0000
0000
0000
0000
0000
0000
0000
0000
0300
0000
0000
0000
0000
0000
0001
0000
0000
0000
0000
0000
0000
0000
0000
0000
0000
0000
0010
0000
0000
0000
0000
0000
0000
0000
0000
0000
0000
0000
,  // measure 46
0000
0011
0000
1100
1000
0010
0100
0001
1010
0000
1000
0010
0100
0001
1000
0100
,  // measure 47
0010
0000
0000
0100
0000
0000
0000
0000
0000
0110
0000
0000
0000
0000
0000
0100
0000
0000
1000
0000
0000
0001
0000
0100
0000
0010
0000
1000
0000
0000
0000
0000
1000
0010
0000
0000
0000
0000
0000
0101
0000
0000
0001
0000
0000
1000
0000
0000
,  // measure 48
0011
0000
0000
0000
0000
0000
0001
0000
0000
1100
0000
0000
0000
0000
0000
1000
0000
0000
0100
0000
0000
1000
0000
0000
0010
0000
0000
0000
0100
0000
0001
0000
0000
0000
1000
0000
0000
0000
0000
0100
0000
0000
0011
0000
0000
0000
0000
0000
,  // measure 49
1100
0000
0000
0010
0000
0000
0001
0000
0000
0010
0000
0000
0001
0000
0000
0100
0000
0000
1010
0000
0000
0000
1000
0000
0010
0000
0000
0100
0000
0000
0001
0000
0000
1000
0000
0000
0101
0000
0000
0010
0000
0000
1100
0000
0000
0000
0000
0000
,  // measure 50
2002
0000
0000
0000
,  // measure 51
3003
0000
0000
0000
;
