#TITLE:Vengeance Rising;
#SUBTITLE:;
#ARTIST:Keep of Kalessin;
#TITLETRANSLIT:;
#SUBTITLETRANSLIT:;
#ARTISTTRANSLIT:;
#CREDIT:;
#BANNER:../fthescorept1bn.png;
#BACKGROUND:../fthescorept1bg.png;
#LYRICSPATH:;
#CDTITLE:;
#MUSIC:Vengeance Rising.ogg;
#OFFSET:-0.082;
#SAMPLESTART:0.080;
#SAMPLELENGTH:10.420;
#SELECTABLE:YES;
#BPMS:0.000=183.000;
#STOPS:;
#BGCHANGES:;
// cache tags:
#FIRSTBEAT:0.000;
#LASTBEAT:63.667;
#SONGFILENAME:Songs/Fuck The Score Part I/Vengeance Rising [Dossar]/Vengeance Rising.sm;
#HASMUSIC:1;
#HASBANNER:1;
#MUSICLENGTH:21.106;
// end cache tags

//---------------dance-single - ----------------
#NOTES:
     dance-single:
     :
     Challenge:
     20:
     1.000,1.000,0.000,0.758,1.000,298.000,0.000,16.000,0.000,0.000:
0002
0000
0000
0000
0003
0000
1000
0001
0100
0001
1000
0010
0100
0001
1000
0010
1000
0001
0100
0010
1000
0001
0100
0001
,
1000
0001
1000
0010
1000
0001
0100
0001
1000
0010
0100
0001
1000
0100
1000
0001
1000
0001
0200
0000
0000
0000
0300
0000
,
0002
0000
0000
0000
0003
0000
1000
0100
0010
0001
1000
0100
1000
0001
0010
0100
1000
0001
0010
0001
1000
0100
0010
0001
,
1000
0100
1000
0001
0010
0100
1000
0001
0010
0100
1000
0001
0010
0001
1000
0100
0010
0001
2000
0000
0000
0000
3000
0000
,
0002
0000
0000
0000
0003
0000
1000
0001
0100
0001
1000
0010
0100
0001
1000
0010
1000
0001
0100
0010
1000
0001
0100
0001
,
1000
0001
1000
0010
1000
0001
0100
0001
1000
0010
0100
0001
1000
0100
1000
0001
1000
0001
0200
0000
0000
0000
0000
0000
,
0302
0000
0000
0000
0003
0000
1000
0100
0010
0001
1000
0100
1000
0001
0010
0100
1000
0001
0010
0001
1000
0100
0010
0001
,
1000
0100
1000
0001
0010
0100
1000
0001
0010
0001
1000
0100
0010
0001
1000
0100
2000
0000
0000
0000
0000
0000
3000
0000
,
2000
0000
0000
0000
3000
0000
0001
1000
0010
1000
0001
0100
0010
1000
0001
0100
0001
1000
0010
0100
0001
1000
0010
1000
,
0001
1000
0001
0100
0001
1000
0010
1000
0001
0100
0010
1000
0001
0100
0001
1000
0001
1000
0020
0000
0000
0000
0030
0000
,
2000
0000
0000
0000
3000
0000
0001
0010
0100
1000
0001
0010
0001
1000
0100
0010
0001
1000
0100
1000
0001
0010
0100
1000
,
0001
0010
0001
1000
0100
0010
0001
1000
0100
1000
0001
0010
0100
1000
0001
0010
0002
0000
0000
0000
0000
0000
0003
0000
,
2000
0000
0000
0000
3000
0000
0001
1000
0010
1000
0001
0100
0010
1000
0001
0100
0001
1000
0010
0100
0001
1000
0010
1000
,
0001
1000
0001
0100
0001
1000
0010
1000
0001
0100
0010
1000
0001
0100
0001
1000
0001
1000
0020
0000
0000
0000
0000
0000
,
2030
0000
0000
0000
3000
0000
0001
0010
0100
1000
0001
0010
0001
1000
0100
0010
0001
1000
0100
1000
0001
0010
0100
1000
,
0001
0010
0001
1000
0100
0010
0001
1000
0100
1000
0001
0010
0100
1000
0001
0010
0002
0000
0000
0000
0000
0000
0003
0000
;

//---------------dance-single - ----------------
#NOTES:
     dance-single:
     :
     Hard:
     17:
     1.000,1.000,0.000,0.190,1.000,301.000,0.000,4.000,0.000,0.000:
1000
0001
0100
0001
1000
0000
0001
0100
0010
1000
0001
0000
1000
0100
1000
0001
1000
0000
0001
0100
0010
0100
0001
0000
,
1000
0100
0010
0001
1000
0000
0001
0010
0100
1000
0001
0000
1000
0100
0010
0100
1000
0000
0001
0010
0100
0010
0001
0000
,
1000
0010
0100
0001
0100
0000
0010
1000
0001
0100
0001
0000
1000
0010
1000
0001
0100
0000
0001
1000
0010
1000
0001
0000
,
1000
0100
0010
0001
0010
0000
0100
1000
0100
0010
0001
0000
1000
0100
0010
0100
1000
0000
0002
0000
0000
0000
0003
0000
,
1000
0001
0100
0001
1000
0000
0001
0100
0010
1000
0001
0000
1000
0100
1000
0001
0100
0000
0001
1000
0010
0100
0001
0000
,
1000
0100
0010
0001
1000
0000
0001
0010
0100
1000
0001
0000
1000
0100
0010
0100
1000
0000
0001
0010
0100
0010
0001
0000
,
1000
0010
0100
0001
0100
0000
0010
1000
0001
0100
0001
0000
1000
0010
1000
0001
0100
0000
0001
1000
0010
1000
0001
0000
,
1000
0100
0010
0001
0010
0000
0100
1000
0100
0010
0001
0000
1000
0100
0010
0100
2000
0000
0000
0000
0000
0000
3000
0000
,
0001
1000
0010
1000
0001
0000
1000
0010
0100
0001
1000
0000
0001
0010
0001
1000
0010
0000
1000
0010
0100
0010
1000
0000
,
0001
0010
0100
1000
0001
0000
1000
0100
0010
0001
1000
0000
0001
0010
0100
0010
0001
0000
1000
0100
0010
0100
1000
0000
,
0001
0100
0010
1000
0010
0000
0100
0001
1000
0010
1000
0000
0001
0100
0001
1000
0010
0000
1000
0001
0100
0001
1000
0000
,
0001
0010
0100
1000
0100
0000
0010
0001
0010
0100
1000
0000
0001
0010
0100
0010
0002
0000
0000
0000
0000
0000
0003
0000
,
1000
0001
0100
0001
1000
0000
0001
0100
0010
1000
0001
0000
1000
0100
1000
0001
1000
0000
0001
0100
0010
0100
0001
0000
,
1000
0100
0010
0001
1000
0000
0001
0010
0100
1000
0001
0000
1000
0100
0010
0100
1000
0000
0001
0010
0100
0010
0001
0000
,
1000
0010
0100
0001
0100
0000
0010
1000
0001
0100
0001
0000
1000
0010
1000
0001
0100
0000
0001
1000
0010
1000
0001
0000
,
1000
0100
0010
0001
0010
0000
0100
1000
0100
0010
0001
0000
1000
0100
0010
0100
2000
0000
0000
0000
0000
0000
3000
0000
;
