#TITLE:m1dy Festival;
#SUBTITLE:;
#ARTIST:m1dy;
#TITLETRANSLIT:;
#SUBTITLETRANSLIT:;
#ARTISTTRANSLIT:;
#CREDIT:;
#BANNER:m1dyfestival-bn.png;
#BACKGROUND:m1dyfestival-bg.png;
#LYRICSPATH:;
#CDTITLE:;
#MUSIC:45 m1dy Festival.ogg;
#OFFSET:-0.254;
#SAMPLESTART:17.216;
#SAMPLELENGTH:12.000;
#SELECTABLE:YES;
#BPMS:0.000=225.000;
#STOPS:;
#BGCHANGES:;
// cache tags:
#FIRSTBEAT:32.000;
#LASTBEAT:451.750;
#SONGFILENAME:Songs/SPEEEDCOOOORE 4/m1dy Festival - [Rynker]/m1dy festival.sm;
#HASMUSIC:1;
#HASBANNER:1;
#MUSICLENGTH:121.364;
// end cache tags

//---------------dance-single - Rynker----------------
#NOTES:
     dance-single:
     Rynker:
     Challenge:
     15:
     1.000,1.000,0.066,0.082,1.000,987.000,8.000,10.000,0.000,0.000:
0000
0000
0000
0000
,
0000
0000
0000
0000
,
0000
0000
0000
0000
,
0000
0000
0000
0000
,
0000
0000
0000
0000
,
0000
0000
0000
0000
,
0000
0000
0000
0000
,
0000
0000
0000
0000
,
1001
0000
0000
0000
1000
0000
0000
0010
1000
0000
0000
0001
0010
0000
0100
0000
,
1000
0000
0001
0000
0100
0000
0010
1000
0001
0000
0010
0000
0200
0000
0000
0000
,
2300
0000
0000
0000
3001
0000
0000
0100
0010
0000
0000
1000
0001
0000
0010
0000
,
0100
0000
0010
0000
0001
0000
0100
0001
0010
0000
0100
0000
1000
0000
0001
0000
,
1001
0000
0000
0000
1000
0000
0000
0010
1000
0000
0000
0001
0100
0000
0001
0010
,
0100
0000
1000
0000
0001
0000
0100
0010
1000
0000
0001
0000
0010
0000
0000
0000
,
1100
0000
0000
0000
1000
0000
0000
0001
0100
0000
0000
0010
1000
0000
0001
0000
,
1000
0100
0010
0000
0001
0000
0010
0100
1000
0000
0100
0000
1000
0000
0000
0000
,
0101
0000
0000
0000
0001
0000
0000
0100
0001
0000
0000
1000
0100
0000
0010
0000
,
0001
0000
1000
0000
0010
0000
0100
0001
1000
0000
0100
0000
0010
0000
0000
0000
,
0001
0000
0000
0000
1000
0000
0000
0010
0100
0000
0000
0001
1000
0000
0100
0000
,
0010
0000
0100
0000
1000
0000
0010
1000
0100
0000
0010
0000
0001
0000
1000
0000
,
1001
0000
0000
0000
0001
0000
0000
0100
0001
0000
0000
1000
0100
0000
0010
0000
,
0100
0000
1000
0000
0001
0000
0100
0010
1000
0000
0001
0000
0010
0000
0000
0000
,
1100
0000
0000
0000
1000
0000
0000
0001
0100
0000
0000
0010
1000
0000
0001
0000
,
1000
0000
0010
0000
0100
0000
0001
0100
0010
0000
1000
0000
0001
0000
0000
0000
,
1001
0000
0000
0000
,
1000
0100
0010
0100
1000
0000
0001
0000
0100
0000
0010
1000
0010
0100
0001
0010
,
0100
0000
1000
0001
0100
0001
0010
0100
1000
0000
0001
0000
0100
0000
0010
0000
,
1000
0001
0100
0001
0010
0000
0100
0000
1000
0000
0100
0010
0001
1000
0001
0100
,
0010
0000
1000
0001
0100
0001
0010
0100
1000
0100
0010
0000
0002
0000
0000
0000
,
1003
0100
0010
0100
1000
0000
0001
0000
0100
0000
0010
1000
0010
0100
0001
0010
,
0100
0000
1000
0001
0100
0001
0010
0100
1000
0000
0001
0000
0100
0000
0000
0000
,
0001
1000
0010
1000
0100
0000
0010
0000
0001
0000
0010
0100
1000
0001
1000
0010
,
0100
0000
0001
1000
0010
1000
0100
0010
0001
0010
0100
0000
1000
0000
0000
0000
,
0001
0100
0010
0100
0001
1000
0100
1000
0001
0010
0100
0010
0001
1000
0001
0100
,
0010
0100
0001
1000
0100
1000
0001
0010
0100
1000
0001
0100
0010
0100
0001
1000
,
0100
0010
0100
1000
0001
0100
0010
0100
0001
1000
0100
1000
0001
0010
0100
1000
,
0001
0100
0010
0100
0001
1000
0100
1000
0001
0100
0010
0100
0001
1000
0010
0100
,
0001
1000
0100
1000
0001
0100
0010
0100
0001
1000
0100
0010
0001
0010
0100
1000
,
0001
1000
0001
0100
0010
0100
0001
1000
0100
0010
0100
1000
0001
0100
0010
1000
,
0001
0100
0001
1000
0100
0010
0001
0010
0100
1000
0001
0100
0010
0100
0001
1000
,
0100
1000
0001
0010
0100
1000
0001
0100
0010
1000
0010
0100
0001
1000
0100
0010
,
0001
1000
0010
0100
,
0001
1000
0100
0010
,
0100
1000
0010
0100
,
0001
0000
0000
0000
1000
0000
0000
0000
0100
0000
0010
0001
1000
0000
0001
0000
,
0100
0010
1000
0010
,
0100
0001
0100
0001
1000
0000
0100
1000
0100
0000
0000
0000
1000
0000
0001
1000
,
0001
0100
0010
1000
,
0001
0000
0000
0000
,
1000
0000
0100
0000
0010
0000
0100
0000
1000
0000
0100
0000
0010
0000
0001
1000
,
0010
0000
0100
0000
0001
0000
0100
0000
0010
0000
0100
0000
0001
0000
1000
0001
,
0100
0000
0001
0000
1000
0000
0100
0000
0010
0000
0100
0000
1000
0000
0001
0100
,
0010
0000
1000
0000
0001
0000
0100
0001
1000
0000
0100
0010
0100
0000
0010
0000
,
0001
0000
1000
0000
0010
0000
0100
0000
0010
0000
1000
0000
0001
0000
0100
0001
,
1000
0000
0100
0000
0010
0000
0100
0000
1000
0000
0100
0000
0010
0000
0001
1000
,
0010
0000
0100
0000
0001
0000
1000
0000
0001
0000
0010
0000
0100
0000
1000
0100
,
0010
0000
0000
0000
,
0001
0000
0100
0000
0010
0000
0100
0000
0001
0000
0100
0000
0010
0000
1000
0001
,
0010
0000
0100
0000
1000
0000
0100
0000
0010
0000
0100
0000
1000
0000
0001
0100
,
0010
0000
1000
0000
0001
0000
0100
0000
0001
0000
1000
0000
0100
0000
0010
0100
,
1000
0000
0001
0000
0100
0000
0010
1000
0001
0000
1000
0001
0100
0000
0010
0000
,
1000
0000
0001
0000
0100
0000
0010
0000
1000
0000
0001
0000
0100
0000
0001
1000
,
0100
0000
0010
0000
0100
0000
1000
0000
0001
0000
0010
0000
0001
0000
1000
0010
,
0100
0000
0010
0000
1000
0000
0010
0000
0100
0000
0001
0000
1000
0000
0001
0010
,
0100
0000
0000
0000
,
1000
0000
0001
0000
0100
0000
0010
0000
1000
0000
0001
0010
0100
0000
1000
0001
,
0100
0000
0010
0000
1000
0000
0100
0000
0010
0000
0001
1000
0001
0000
0100
0010
,
1000
0000
0001
0000
0010
0000
0100
0000
1000
0000
0100
0010
0001
0000
1000
0001
,
0100
0000
0010
0000
1000
0000
0010
0100
0001
0000
1000
0100
0010
0000
0100
1000
,
0001
0000
1000
0000
0010
0000
0100
0000
0001
0000
1000
0100
0010
0000
0001
1000
,
0010
0000
0100
0000
0001
0000
0010
0000
0100
0000
1000
0001
1000
0000
0010
0100
,
0001
0000
1000
0000
0100
0000
0010
0000
0001
0000
0010
0100
1000
0000
0001
1000
,
0010
0000
0100
0000
0001
0100
0001
0000
0000
0000
1000
0000
0000
0000
0000
0000
,
0001
0000
1000
0000
0001
0000
0010
0000
0100
0000
1000
0001
0100
0000
0001
1000
,
0001
0000
1000
0000
0100
0000
0010
0000
0001
0000
0100
0001
0010
0000
0100
1000
,
0001
0000
1000
0000
0001
0000
0100
0000
0001
0000
0010
0100
1000
0000
0010
0100
,
0001
0000
1000
0000
0100
0000
1000
0000
0010
0000
0100
0001
0010
0000
0100
1000
,
0010
0000
0100
0000
0001
0000
1000
0000
0100
0000
1000
0010
0100
0000
0001
1000
,
0001
0000
1000
0000
0010
0000
0100
0000
0001
0000
0010
0100
1000
0000
0010
0100
,
0001
0000
1000
0000
0100
0000
1000
0000
0001
0000
0100
0001
0010
0000
0100
1000
,
0010
0000
1000
0100
0010
0000
0001
0000
1000
0000
0004
0000
0003
0000
1000
0010
,
0100
0000
0001
0000
0100
0000
0001
1000
,
0100
0000
0020
0030
0100
0000
1000
0000
,
0001
0000
0100
0000
0010
0000
1000
0100
,
0010
0000
0002
0003
1000
0000
0100
0000
,
0010
0000
0001
0000
0100
0000
0010
1000
,
0001
0000
0200
0300
0010
0000
1000
0000
,
0100
0000
0010
0000
0100
0000
1000
0001
,
0100
0000
0000
0000
,
0001
1000
0001
0000
1000
0000
0001
0010
0100
0000
1000
0000
0001
0100
0010
0000
,
1000
0100
0010
0000
0001
0000
1000
0010
0100
0000
0001
0000
0010
0100
1000
0000
,
0001
0100
0001
0000
1000
0000
0010
0100
0001
0000
1000
0000
0100
0010
0001
0000
,
1000
0010
0100
0000
0001
0000
0010
0100
1000
0000
0010
0000
1000
0001
0100
0000
,
0001
1000
0001
0100
0010
1000
0010
0100
0001
1000
0100
0010
0100
1000
0001
1000
,
0100
0010
0001
1000
0001
0100
0010
1000
0010
0100
0001
1000
0100
0010
0100
1000
,
0001
1000
0010
0100
0001
0100
0010
1000
0001
1000
0100
0010
0001
1000
0010
0100
,
0002
0003
0000
0000
,
1000
0100
1000
0010
0100
0000
0001
0000
0010
0000
0100
1000
0010
1000
0001
0100
,
0001
0000
1000
0100
1000
0100
0010
0001
0100
0000
0001
0000
0010
0000
0010
0000
,
0100
1000
0010
1000
0001
0000
0100
0000
0010
0000
1000
0010
0100
0010
1000
0100
,
0010
0000
0001
1000
0001
0010
0100
1000
0010
0100
0001
0000
0200
0000
0000
0000
,
0301
1000
0100
1000
0010
0000
0100
0000
0001
0000
0010
0000
0100
1000
0001
1000
,
0010
0000
0100
0010
1000
0001
1000
0010
0100
0000
0001
0000
0010
0100
1000
0000
,
0001
0100
0001
1000
0010
0000
1000
0000
0001
0000
0010
0100
1000
0010
1000
0001
,
0100
0000
0001
0100
0001
0010
0100
1000
0010
0100
0001
0000
4000
0000
3000
0000
,
0001
0100
0010
0100
0001
0000
0100
0000
0010
0000
1000
0010
0100
0001
1000
0001
,
0010
0000
0100
1000
0010
0100
0001
0010
0100
0000
1000
0000
0001
0000
0000
0000
,
1000
0001
0100
0001
1000
0000
0001
0000
0100
0000
0010
1000
0010
0100
0001
1000
,
0100
0000
0010
0001
0100
0010
1000
0100
1000
0001
0010
0000
0100
0000
0000
0000
,
1000
0100
0010
0001
1000
0000
0001
0000
1000
0000
0001
0010
0100
1000
0001
1000
,
0010
0000
0100
0001
0010
0001
0100
0010
1000
0000
0100
0000
0010
0000
0000
0000
,
0001
1000
0001
1000
0010
0000
0100
0000
0001
0000
1000
0001
0100
0001
1000
0100
,
0010
0000
0001
0100
0010
1000
0100
0010
0001
0100
0010
0000
0220
0000
0000
0330
;
