#TITLE:Airen;
#SUBTITLE:;
#ARTIST:D.J. Amuro;
#TITLETRANSLIT:;
#SUBTITLETRANSLIT:;
#ARTISTTRANSLIT:;
#CREDIT:;
#BANNER:Airen-bn.png;
#BACKGROUND:Airen-bg.png;
#LYRICSPATH:;
#CDTITLE:!joeCDtitle.png;
#MUSIC:Airen.mp3;
#OFFSET:-0.060;
#SAMPLESTART:24.620;
#SAMPLELENGTH:12.000;
#SELECTABLE:YES;
#BPMS:0.000=166.000;
#STOPS:;
#BGCHANGES:;
// cache tags:
#FIRSTBEAT:4.000;
#LASTBEAT:262.000;
#SONGFILENAME:Songs/Fabulously Fresh Flock of Fantastic Files F5/(-joe-) Airen/Airen.sm;
#HASMUSIC:1;
#HASBANNER:1;
#MUSICLENGTH:95.085;
// end cache tags

//---------------dance-single - ----------------
#NOTES:
     dance-single:
     :
     Hard:
     12:
     1.000,1.000,1.000,0.032,0.789,605.000,145.000,3.000,0.000,0.000:
0000
0000
0000
0000
,
1001
0000
0000
0000
0000
0000
0000
0000
0000
0000
0000
0000
0000
0000
0001
0001
,
0001
0000
0000
0000
0000
0000
0000
0000
0000
0000
0000
0000
0000
0000
0100
0100
,
0100
0000
0000
0000
0000
0000
1000
0100
,
0010
0000
0000
0000
0000
0001
0010
0001
,
1000
0000
0000
0000
0000
0000
0000
0000
0000
0000
0000
0000
0000
0000
0010
0010
,
0010
0000
0000
0000
0000
0000
0000
0000
0000
0000
0000
0000
0000
0000
0001
0001
,
0001
0000
0000
0000
0000
0000
0100
0010
,
0001
0000
0000
0000
,
1001
0000
0100
0000
0110
0000
1000
0000
1100
0000
0001
0000
0011
0000
0010
0100
,
1001
0000
0010
0000
0110
0000
0001
0000
0011
0000
1000
0000
1100
0000
0100
0010
,
0101
0000
0001
0000
1001
0000
0100
0000
0101
0000
0010
0000
1010
0000
1000
0001
,
1100
0001
0011
1000
1100
1001
0110
1001
,
0110
0000
0001
0000
1001
0000
0100
0000
0101
0000
0010
0000
1010
0000
1000
0010
,
1001
0000
0100
0000
0110
0000
1000
0000
1100
0000
0001
0000
0011
0000
0010
0100
,
1010
1000
1001
0010
1010
0100
0101
0001
,
0001
0010
0100
1000
0001
0010
0100
1000
0001
0010
0100
1000
0100
0010
0001
1000
0100
0010
0001
1000
0100
0010
0001
0010
,
0100
0000
1000
0000
0001
0000
1000
0010
1000
0001
0100
0000
0010
0100
0010
0000
,
1000
0000
0001
0000
0010
0000
0001
0100
0010
1000
0001
0000
0010
0001
1010
0000
,
1001
0000
1000
0000
0010
0000
0100
0010
0100
0001
1000
0000
0001
1000
0001
0000
,
0100
0000
0010
0000
1000
0000
1000
0010
1001
0100
0010
0000
0101
0010
1000
0000
,
1001
0000
0110
0000
0101
0000
1000
0100
1000
0010
0100
0000
0001
0010
0001
0000
,
0010
0000
0100
0000
1000
0000
0100
1000
0010
0100
0001
0000
1000
0100
1000
0000
,
1010
0000
0100
0000
0001
0000
1000
0001
1000
0001
1000
0000
0001
0100
0001
0000
,
0100
0000
0001
0000
1000
0000
0010
0100
0001
0010
0001
0000
0100
0010
1100
0000
,
0011
0000
1000
0000
0100
0000
0001
1000
0001
1000
0100
0000
0001
0010
0001
0000
,
0010
0000
0100
0000
1000
0000
0100
1000
0010
0100
0001
0000
1000
0100
1000
0000
,
1010
0000
0100
0000
0001
0000
1000
0001
1000
0001
1000
0000
0001
0100
0001
0000
,
0100
0000
0001
0000
1000
0000
0010
0100
1001
0010
0001
0000
0101
0010
1000
0000
,
0011
0000
1000
0000
0100
0000
0001
1000
0001
1000
0010
0000
1000
0100
1010
0000
,
0101
0000
0010
0000
1001
0000
0010
0001
0100
0010
1000
0000
0001
0010
1001
0000
,
0110
1000
0010
0001
1000
0100
0001
1000
0001
1000
0001
0010
1000
0001
1100
0010
,
0101
0000
0000
0010
0000
0000
1000
0000
0000
0100
0000
0000
1001
0000
0000
0010
0000
0000
0100
0000
0000
0010
0000
0000
1001
0000
0000
0100
0000
0000
1000
0000
0000
0001
0000
0000
1000
0000
0100
0000
0010
0000
0001
0000
0010
0000
0100
0000
,
1000
0001
1000
0010
0010
0001
0010
0010
,
0100
0000
1000
0000
1000
0000
0010
0000
0010
0000
0001
0000
0001
0000
0001
1000
,
0010
0001
0001
1000
0100
0100
0001
0010
,
0010
0001
1000
1000
0001
0100
0100
0010
,
0101
0101
1100
1100
,
0110
0000
0000
0000
0110
0000
0000
0000
1001
0000
0000
0000
1001
0000
0001
0010
,
0101
0101
0011
0011
,
1100
0000
1100
0000
1010
0000
1010
1000
,
0101
0010
1010
0001
0101
0010
1100
0001
,
0110
1000
0101
0010
0101
1000
1100
0010
,
1000
0100
0010
0001
1000
0100
0010
0001
0100
0001
0010
0100
1000
0001
0010
0100
,
1000
0000
0000
0001
0000
0000
0100
0000
0000
0010
0000
0000
1000
0000
0000
0001
0000
0000
0100
0000
0000
1000
0000
0000
0001
0000
0010
0000
0100
0000
1000
0000
0001
0000
0010
0000
0100
0000
1000
0000
0001
0000
0010
0000
0100
0000
1000
0000
,
0001
0000
0010
0000
0110
0000
0100
0000
1100
0000
1000
0000
1010
0000
0001
0100
,
0011
0000
1000
0000
0110
0000
0001
0000
0011
0000
1000
0000
1100
0000
0100
0010
,
0101
0000
0001
0000
1001
0000
0100
0000
0101
0000
0010
0000
1010
0000
1000
0001
,
1100
0001
0011
1000
1100
1001
0110
1001
,
0110
0000
0001
0000
1001
0000
0100
0000
0101
0000
0010
0000
1010
0000
1000
0010
,
1001
0000
0100
0000
0110
0000
1000
0000
1100
0000
0001
0000
0011
0000
0010
0100
,
1010
0000
1000
0000
1001
0000
0010
0000
1010
0000
0100
0000
0110
0000
1000
0010
,
1001
0100
0110
1000
1100
0001
0010
0100
,
1001
0000
1000
0000
1001
0000
0010
0000
1010
0000
0100
0000
0110
0000
0001
0100
,
1001
0000
0010
0000
0110
0000
0001
0000
0011
0000
1000
0000
1100
0000
0100
0010
,
0101
0000
0001
0000
1001
0000
0100
0000
0101
0000
0010
0000
0110
0000
0001
0100
,
1001
0010
0110
0001
0011
1010
0101
1010
,
1001
0000
0001
0000
1001
0000
0100
0000
0101
0000
0010
0000
0110
0000
1100
0010
,
1001
0000
0100
0000
0110
0000
1000
0000
1100
0000
0001
0000
1000
0000
1001
0100
,
0011
1000
0001
0010
0100
1000
0001
0100
0010
1000
0001
0010
0001
0100
0011
1000
,
0110
0000
0000
1000
0000
0000
0001
0000
0000
0100
0000
0000
1001
0000
0000
0010
0000
0000
0001
0000
0000
1000
0000
0000
0011
0000
0100
0000
1000
0000
0001
0000
0010
0000
0100
0000
1000
0000
0001
0000
0010
0000
0100
0000
1000
0000
0001
0000
,
1100
0000
0001
0000
1000
0000
0001
0010
0100
1000
0001
0000
1000
0010
1000
0000
,
0010
0000
0100
0000
0001
0000
1000
0100
0010
0001
1000
0000
0100
0010
0001
0000
,
0100
0000
1010
0000
1000
0000
0001
0100
0010
1000
0001
0000
1000
0001
1000
0000
,
1010
0000
0100
0000
0001
0000
0100
0010
0001
1000
0001
0000
1000
0010
2000
0000
,
3000
2000
3000
2000
3000
0000
0000
0000
;
