#TITLE:Snow Cone Heaven;
#SUBTITLE:Ice Climber;
#ARTIST:Mazedude;
#TITLETRANSLIT:;
#SUBTITLETRANSLIT:;
#ARTISTTRANSLIT:;
#CREDIT:;
#BANNER:Snow Cone Heaven.png;
#BACKGROUND:Snow Cone Heaven-bg.png;
#LYRICSPATH:;
#CDTITLE:!dondon151.png;
#MUSIC:Snow Cone Heaven.mp3;
#OFFSET:-0.574;
#SAMPLESTART:57.280;
#SAMPLELENGTH:13.100;
#SELECTABLE:YES;
#BPMS:0.000=110.000,189.500=439.998,191.000=220.000,191.500=110.000,192.000=160.000,256.000=166.000,260.000=174.000,262.000=182.000,264.000=190.000,266.000=200.000,268.000=210.000,270.000=220.000,286.000=440.000,293.000=220.000,293.500=110.000,435.000=102.000,435.500=98.000,436.000=94.000,436.500=84.000,437.000=72.000,437.500=66.000;
#STOPS:191.875=0.755
,293.750=0.255
;
#BGCHANGES:;
// cache tags:
#FIRSTBEAT:15.167;
#LASTBEAT:444.000;
#SONGFILENAME:Songs/VGMP 2/Snow Cone Heaven (DonDon151)/Snow Cone Heaven.sm;
#HASMUSIC:1;
#HASBANNER:1;
#MUSICLENGTH:227.578;
// end cache tags

//---------------dance-single - ----------------
#NOTES:
     dance-single:
     :
     Hard:
     12:
     1.000,1.000,1.000,0.874,1.000,1508.000,497.000,199.000,0.000,0.000:
0000
0000
0000
0000
,
0000
0000
0000
0000
,
0000
0000
0000
0000
,
0000
0000
0000
0000
0000
0000
0000
0000
0000
0000
0000
0000
0000
0000
0000
0000
0000
0000
0000
1000
0100
0000
0010
0001
,
1100
0000
1000
0100
0000
0000
1000
0100
1000
0100
1000
0100
0012
0000
1000
1000
0003
0110
1000
0000
1000
0010
1000
0010
,
0101
0000
0100
0001
0000
0000
0010
1000
0010
1000
0000
1000
0021
0000
0001
0001
0030
1100
0001
0000
0100
0001
0100
0001
,
1000
0000
0010
2001
0000
0000
0010
3000
0210
0001
0000
0300
1020
0000
0030
1001
0000
0010
0100
0000
1000
0010
0000
0001
,
0010
0000
2100
0010
0000
0000
0001
3000
0100
0001
0010
0001
1000
0100
0010
0100
0010
0001
0010
0001
1000
0100
0010
0100
,
1001
1000
1000
1100
0100
0100
1010
0010
0010
0011
0001
0001
1100
0000
0100
0011
0000
0010
1001
0000
0110
0000
0000
1000
,
0110
0000
1002
0000
0003
0100
1010
0000
0000
0101
0000
0000
0010
0100
0010
0001
0010
0001
0100
0010
0100
1000
0100
1000
,
0011
0000
0100
0011
0000
0000
0101
0010
0001
0010
0001
0000
2200
0000
0300
0001
3000
0110
1000
0000
0001
1000
0001
1000
,
0110
0000
0001
1010
0000
0000
0011
1000
0010
1000
0000
0010
0201
0000
0000
0010
0300
1001
0100
0000
0010
0100
0010
0100
,
1001
0000
0010
0101
0000
0000
1010
0000
0000
1100
0000
0000
0021
0000
0030
1100
0000
0010
0101
0000
1000
0100
0000
0100
,
0011
0000
0001
0110
0000
0000
1001
0000
0010
0001
0100
1000
0012
0000
0003
1010
0000
0001
1100
0000
0010
0101
0000
1000
,
0011
0000
0001
0110
0000
0000
1001
0010
0001
0010
0001
0010
2100
0000
0000
0001
3000
0110
1000
0000
0001
0100
0001
0100
,
1010
0000
0010
0101
0000
0000
1100
0001
0100
0001
0000
0001
1200
0000
0000
1000
0300
0011
0100
0000
0010
1000
0010
1000
,
0101
0000
0100
1002
0000
0000
0100
0003
0120
1000
0000
0030
0201
0000
0300
1001
0000
0100
0010
0000
0001
0100
0000
1000
,
0110
0000
0012
0100
0000
0000
1000
0003
0010
1000
0100
1000
0001
0010
0100
0010
0100
1000
0100
1000
0001
0010
0100
0010
,
1001
0001
0001
1100
1000
1000
0110
0100
0100
0011
0010
0010
0101
0000
0000
1100
0000
0100
1001
0000
0110
0000
0000
0001
,
0110
0000
0100
0011
0000
0010
0101
0000
0100
1010
0000
0000
1100
0000
0100
0011
0000
0001
1010
0000
0010
0101
0000
0010
,
1001
0000
0000
0000
0101
0000
1010
0000
0000
0000
1000
0000
0110
0000
0000
0000
0001
0000
1100
0000
0000
0000
0010
0000
0202
0000
0303
0000
1000
0000
0100
0000
0000
0000
0202
0303
1000
0000
0000
0000
1000
0000
0202
0000
0303
0000
1000
0000
,
0110
0000
1000
0202
0303
1000
0202
0303
0010
1001
0000
0100
1010
0000
0100
0022
0033
0001
2200
3300
0022
0000
0033
0120
,
1000
0000
1000
0100
0000
0100
0001
0000
0001
0100
0000
0100
1000
0000
1000
0100
0000
0100
0001
0000
0001
0100
0000
0130
,
2001
0000
0001
0010
0000
0010
0100
0000
0100
0010
0000
3010
0001
0000
0001
0100
0000
1010
0000
0000
0011
0000
0000
0110
,
0102
0000
0100
0010
0000
0010
1000
0000
1000
0010
0003
1100
0000
0000
0000
1100
0000
0010
0101
0000
1010
0000
0000
0010
,
2100
0000
0100
0010
0000
0010
0001
0000
0001
0100
0000
0100
0010
0000
0010
0100
0000
0100
0001
0000
0001
0010
0000
3010
,
0101
0000
0101
1000
0000
0000
0001
0100
0001
0100
0001
0100
1020
0000
0000
0001
0030
0110
1000
0000
0001
0010
0001
0010
,
0100
0000
0001
1100
0000
0000
1100
0010
1000
0010
0000
0010
0201
0000
0010
0001
0300
1010
0001
0000
1000
0101
0000
0000
,
0010
0000
2100
0001
0000
3000
0012
0000
0000
0100
0000
0003
1020
0000
0030
1100
0000
0010
1001
0000
0100
1010
0000
1000
,
0110
0000
0012
0100
0000
0000
0010
0003
1000
0010
0100
1000
0001
0010
0100
0010
0100
1000
0010
0001
1000
0100
0010
0100
,
1010
0010
0010
1100
1000
1000
0101
0100
0100
0011
0001
0001
0110
0000
0000
1100
0010
0100
1001
0000
0110
0001
0000
0001
,
0110
0000
1001
0110
0000
0001
1100
0000
0010
0101
0000
1000
0001
0010
0001
0010
0100
0010
1000
0010
1000
0001
0100
0001
,
1100
0000
0000
0000
0110
0000
0002
0000
0000
0000
0000
0003
0120
0000
0000
0000
0000
0030
2000
0000
0000
0000
0000
3000
0021
0000
0000
0030
0100
0000
2000
0000
0000
3000
0102
0000
0000
0000
0003
0000
0001
0000
0100
0000
0001
0000
0100
0000
,
1000
0000
0000
0000
1000
0000
0022
0033
0000
0000
0000
0000
0100
0000
1000
0000
0100
0000
1000
0000
0000
0000
0100
0000
2010
0000
0000
0000
0000
0000
0100
0000
3000
0000
0101
0000
0010
0000
0000
0000
0000
0000
2002
0000
0000
0000
3003
0000
,
2200
3300
1020
0100
0000
0030
0201
0000
0000
1000
0000
0300
1002
0000
0003
0010
0000
0100
1010
0000
0001
1100
0000
0010
,
2002
3003
0120
1000
0000
0000
0031
0000
0010
1000
0010
0100
0001
0010
0100
1000
0100
0010
0001
0010
0100
0001
0100
0010
,
1001
0000
0000
0000
0000
0000
0000
0000
0100
0000
0000
0000
0000
0000
0000
0000
0100
0000
0000
0000
0000
0000
0000
0000
1001
0000
0000
0000
0000
0000
0000
0000
0100
0000
0000
0000
0000
0000
0000
0000
0100
0000
0000
0000
0000
0000
0000
0000
0011
0000
0000
0000
0000
0000
0000
0000
0100
0000
0000
0000
0000
0000
0000
0000
0100
0000
0000
0000
0000
0000
0000
0000
0011
0000
0000
0000
0000
0000
0000
0000
0000
0000
0000
0000
0001
0000
0000
0000
0000
0000
0010
0000
0000
0000
0000
0000
1100
0000
0000
0000
0000
0000
0000
0000
0000
0000
0000
0000
0000
0000
0000
0000
0000
0000
0000
0000
0000
0000
0000
0000
0101
0000
0000
0000
0000
0000
0000
0000
0000
0000
0000
0000
0000
0000
0000
0000
0001
0000
0000
0000
0000
0000
0000
0000
1010
0000
0000
0000
0000
0000
0000
0000
0000
0000
0000
0000
0000
0000
0000
0000
1100
0000
0000
0000
0000
0000
0000
0000
0000
0000
0000
0000
0000
0000
0000
0000
0000
0000
0000
0000
0000
0000
0000
0000
1000
0000
0000
0000
0000
0000
0000
0000
,
0101
0000
0000
0000
0120
0000
0000
0000
0000
0000
0130
0000
0011
0000
0000
0000
0001
0000
0110
0000
0000
0000
0100
0000
1001
0000
0000
0000
0000
0000
0001
0000
0010
0000
0100
1000
0100
0000
0010
0000
0001
0010
0001
0000
0010
0000
0100
1000
,
0022
0033
0000
0000
0110
0000
1000
0000
0000
0000
0110
0000
0001
0000
1000
0000
0001
0000
1000
0000
0001
0000
1000
0000
0120
0000
0000
0000
0000
0000
0001
0000
0030
0000
1100
0000
0001
0000
0000
0000
0001
0000
0100
0000
0001
0000
0100
0000
,
2020
3030
0000
0000
0100
0000
1010
0000
0000
0000
1010
0000
0100
0000
0001
0000
0100
0000
0001
0000
0000
0000
0001
0000
0210
0000
0000
0000
0000
0000
0010
0000
0300
0000
1001
0000
0010
0000
0000
0000
1000
0000
0010
0000
1000
0000
0010
0000
,
2200
3300
0000
0000
1100
0000
0101
0000
0000
0000
0000
0000
2100
0000
0000
0000
0000
0000
0010
0000
0000
0000
3000
0000
0201
0000
0000
0000
0300
0000
0011
0000
0000
0000
0100
0000
1010
0000
0000
0000
0001
0000
1100
0000
0000
0000
0010
0000
,
2200
3300
0000
0000
1100
0000
0101
0000
0000
0000
0000
0000
1100
0000
0000
0000
1000
0000
0010
0000
0100
0000
0010
0000
1001
0000
0000
0000
0000
0000
0101
0000
1000
0000
0100
0010
0001
0000
0010
0000
0100
0000
1000
0000
0000
0000
1000
0000
,
0011
0000
0000
0000
1000
0000
0001
0000
0000
0000
0110
0000
0002
0003
1000
0000
0001
0000
1000
0000
0001
0000
1000
0000
0210
0000
0000
0000
0000
0000
1000
0000
0300
0000
0011
0000
0200
0300
0000
0000
1000
0000
0010
0000
1000
0000
0010
0000
,
0101
0000
0000
0000
0001
0000
0100
0000
0000
0000
0101
0000
0020
0030
1000
0000
0010
0000
1000
0000
0000
0000
1000
0000
0120
0000
0000
0000
0000
0000
0100
0000
0030
0000
1001
0000
0200
0300
0000
0000
0001
0000
0100
0000
0001
0000
0100
0000
,
1010
0000
0000
0000
1010
0000
0011
0000
0000
0000
0000
0000
2020
0030
0000
0000
0000
0000
0100
0000
0000
0000
3000
0000
1020
0000
0000
0000
0030
0000
1100
0000
0000
0000
0010
0000
0201
0300
0000
0000
1000
0000
0011
0000
0000
0000
0100
0000
,
1010
0000
0000
0000
1010
0000
0011
0000
0000
0000
0000
0000
1020
0030
0000
0000
0001
0000
0100
0000
0010
0000
0100
0000
1001
0000
0010
0000
0001
0000
0100
0000
1000
0000
0001
0000
1200
0300
0010
0000
0001
0000
1000
0000
0100
0000
0010
0000
,
1001
0010
0001
0010
0001
0010
1001
0100
1000
0100
1000
0100
1010
0000
0000
1001
0000
0010
0101
0000
1001
0000
0000
0100
,
0012
0000
0000
0003
2000
0000
0001
0000
0000
0000
3000
0000
1200
0000
0000
0000
0300
0000
0120
0000
0000
0000
0000
0000
0000
0000
0000
0000
0000
0000
0000
0000
0000
0000
0000
0000
0000
0000
0000
0000
0000
0000
0000
0000
0000
0000
0030
0000
,
1200
0000
0000
0000
0000
0000
0000
0000
0010
0000
0000
0000
1000
0000
0000
0000
0300
0000
1001
0000
0000
0000
0000
0000
0100
0000
0000
0000
0000
0000
0000
0000
0010
0000
1000
0000
0010
0000
0000
1000
0000
0000
0010
0000
0000
0000
0000
0000
,
0021
0000
0000
0000
0000
0000
0000
0000
0100
0000
0000
0000
0001
0000
0000
0000
0030
0000
1001
0000
0000
0000
0000
0000
0010
0000
0000
0000
0000
0000
0000
0000
0100
0000
0001
0000
0100
0000
0000
0001
0000
0000
0100
0000
0000
0000
0000
0000
,
0102
0000
0000
0000
0000
0000
0000
0000
1000
0000
0000
0000
0100
0000
0000
0000
0003
0000
0110
0000
0000
0000
0000
0000
0001
0000
0000
0000
0000
0000
0000
0000
1000
0000
0100
0000
1000
0000
0000
0100
0000
0000
1000
0000
0000
0000
0000
0000
,
2010
0000
0000
0000
0000
0000
0000
0000
0001
0000
0000
0000
0010
0000
0000
0000
3000
0000
0110
0000
0000
0000
0000
0000
1000
0000
0000
0000
0000
0000
0000
0000
0001
0000
0010
0000
0001
0000
0000
0010
0000
0000
0001
0000
0000
0000
0000
0000
,
2010
0000
0000
0000
0000
0000
0000
0000
0001
0000
0000
0000
0010
0000
0000
0000
3000
0000
0110
0000
0000
0000
0000
0000
1000
0000
0000
0000
0000
0000
0000
0000
0001
0000
0010
0000
0100
0000
0000
0001
0000
0000
0010
0000
0000
0000
0000
0000
,
0102
0000
0000
0000
0000
0000
0000
0000
1000
0000
0000
0000
0100
0000
0000
0000
0003
0000
0110
0000
0000
0000
0000
0000
0001
0000
0000
0000
0000
0000
0000
0000
1000
0000
0100
0000
0010
0000
0000
1000
0000
0000
0100
0000
0000
0000
0000
0000
,
1100
0010
0001
1100
0010
0001
0110
0001
1000
0110
0001
1000
,
0011
0100
1000
0011
0100
1000
1001
0010
0100
0001
0100
1000
,
0021
0000
0000
0000
0000
0000
0000
0000
0100
0000
0000
0000
0001
0000
0000
0000
0030
0000
1001
0000
0000
0000
0000
0000
0110
0000
0000
0000
0000
0000
0000
0000
1100
0000
0001
0000
0100
0000
0000
0001
0000
0000
0100
0000
0000
0000
0000
0000
,
1200
0000
0000
0000
0000
0000
0000
0000
0010
0000
0000
0000
1000
0000
0000
0000
0300
0000
1001
0000
0000
0000
0000
0000
0110
0000
0000
0000
0000
0000
0000
0000
0010
0000
1000
0000
0010
0000
0000
1000
0000
0000
0010
0000
0000
0000
0000
0000
,
2010
0000
0000
0000
0000
0000
0000
0000
0001
0000
0000
0000
0010
0000
0000
0000
3000
0000
0110
0000
0000
0000
0000
0000
1100
0000
0000
0000
0000
0000
0000
0000
0101
0000
0010
0000
0001
0000
0000
0010
0000
0000
0001
0000
0000
0000
0000
0000
,
0102
0000
0000
0000
0000
0000
0000
0000
1000
0000
0000
0000
0100
0000
0000
0000
0003
0000
0110
0000
0000
0000
0000
0000
0011
0000
0000
0000
0000
0000
0000
0000
1000
0000
0100
0000
1000
0000
0000
0100
0000
0000
1000
0000
0000
0000
0000
0000
,
0102
0000
0000
0000
0000
0000
0000
0000
1000
0000
0000
0000
0100
0000
0000
0000
0003
0000
0110
0000
0000
0000
0000
0000
0011
0000
0000
0000
0000
0000
0000
0000
1001
0000
0100
0000
0010
0000
0000
1000
0000
0000
0100
0000
0000
0000
0000
0000
,
2010
0000
0000
0000
0000
0000
0000
0000
0001
0000
0000
0000
0010
0000
0000
0000
3000
0000
0110
0000
0000
0000
0000
0000
1100
0000
0000
0000
0000
0000
0000
0000
0001
0000
0010
0000
0100
0000
0000
0001
0000
0000
0010
0000
0000
0000
0000
0000
,
0101
0010
1000
0101
0010
1000
0110
1000
0001
0110
1000
0001
,
1010
0100
0001
1010
0100
0001
1001
0010
0001
1000
0100
0010
,
2001
0000
0000
0000
0000
0000
0000
0000
0100
0000
0000
0000
0001
0000
0000
0000
3000
0000
0011
0000
0000
0000
0000
0000
1100
0000
0000
0000
0000
0000
0000
0000
1100
0000
0001
0000
0100
0000
0000
0001
0000
0000
0100
0000
0000
0000
0000
0000
,
0210
0000
0000
0000
0000
0000
0000
0000
1000
0000
0000
0000
0010
0000
0000
0000
0300
0000
0011
0000
0000
0000
0000
0000
1100
0000
0000
0000
0000
0000
0000
0000
1000
0000
0010
0000
1000
0000
0000
0010
0000
0000
1000
0000
0000
0000
0000
0000
,
1020
0000
0000
0000
0000
0000
0000
0000
0001
0000
0000
0000
1000
0000
0000
0000
0030
0000
1100
0000
0000
0000
0000
0000
0011
0000
0000
0000
0000
0000
0000
0000
0011
0000
1000
0000
0001
0000
0000
1000
0000
0000
0001
0000
0000
0000
0000
0000
,
0102
0000
0000
0000
0000
0000
0000
0000
0010
0000
0000
0000
0100
0000
0000
0000
0003
0000
1100
0000
0000
0000
0000
0000
0011
0000
0000
0000
0000
0000
0000
0000
0010
0000
0100
0000
0010
0000
0000
0100
0000
0000
0010
0000
0000
0000
0000
0000
,
0102
0000
0000
0000
0000
0000
0000
0000
0010
0000
0000
0000
0100
0000
0000
0000
0003
0000
1100
0000
0000
0000
0000
0000
1001
0000
0000
0000
0000
0000
0000
0000
0110
0000
0001
0000
0010
0000
0000
0001
0000
0000
0010
0000
0000
0000
0000
0000
,
1020
0000
0000
0000
0000
0000
0000
0000
0001
0000
0000
0000
1000
0000
0000
0000
0030
0000
1100
0000
0000
0000
0000
0000
0110
0000
0000
0000
0000
0000
0000
0000
0100
0000
1000
0000
0100
0000
0000
1000
0000
0000
0100
0000
0000
0000
0000
0000
,
1100
0010
0001
1100
0010
0001
1010
0100
0001
1010
0100
0001
,
1001
0100
0010
1001
0100
0010
2002
0000
0000
0000
0000
0000
,
0000
0000
0000
0000
,
0000
0000
0000
0000
0000
0000
0000
0000
0000
0000
0000
0000
0000
0000
0000
0000
0000
0000
0000
0000
0000
3003
0000
0000
0101
0000
0000
0000
1000
0000
0010
0000
0000
0000
0101
0000
0010
0000
0000
0000
1000
0000
0010
0000
0000
0000
0101
0000
,
0000
0000
0000
0000
1000
0000
0010
0000
0000
0000
0101
0000
0010
0000
0000
0000
1000
0000
0010
0000
0000
0000
0201
0000
0000
0000
0000
0300
0101
0000
0000
0000
0000
0000
0010
0100
1000
0000
0000
0000
0100
0000
0011
0000
0000
0000
0000
0000
,
0110
0000
0001
0010
0100
1000
0010
1000
0001
0100
1000
0001
1010
0000
0011
0000
0000
0001
1010
0000
0011
0000
0000
0001
,
1010
0000
0000
0000
0011
0000
0000
0000
0000
0000
0011
0000
0100
0000
0000
1000
0002
0000
0000
0000
0000
0000
0013
0000
1000
0000
0000
0000
0110
0000
0000
0000
0000
0000
0011
0000
0001
0000
0000
0000
1100
0000
0000
0000
0000
0000
0010
0000
,
0010
0000
0100
0000
0010
0000
0001
0000
1000
0000
0100
0000
0010
0000
0001
0000
1000
0000
0100
0000
0010
0000
0100
0000
2000
0000
0000
3000
0100
0000
0020
0000
0000
0030
0001
0000
1200
0000
0000
0300
1000
0000
0020
0000
0000
0030
0100
0000
,
1001
0000
0000
0000
0000
0000
1001
0000
0000
0000
0010
0000
0101
0000
0000
0000
1010
0000
0000
0000
0000
0000
0000
0000
2020
3030
0000
0000
0100
0000
0110
0000
0000
0000
0000
0000
0101
0000
1000
0000
0001
0000
1000
0000
0001
0000
0000
0000
,
2200
0000
0300
0010
0000
3000
0101
0000
0001
0100
0001
0000
0210
0000
0000
1000
0300
0110
0100
0010
0100
0001
0000
1000
,
0011
0000
0000
0000
0100
0000
1010
0000
0000
0000
0100
0000
1001
0000
0000
0000
0010
0000
2002
3003
0100
0000
0010
0000
0102
0000
0000
0000
0100
0000
0003
0000
0000
0000
1010
0000
0000
0000
0001
0000
0010
0000
0001
0000
0000
0000
0100
0000
,
1010
0000
0000
0000
0000
0000
0101
0000
0000
0000
0000
0000
1100
0000
0010
0000
0001
0000
0100
0000
1000
0000
0001
0000
2200
3300
0000
0000
0100
0000
0011
0000
0000
0000
0000
0000
1001
0000
0000
0000
0100
0000
0010
0000
0000
0000
0101
0000
,
0000
0000
0010
0100
0000
1010
0100
0000
0001
1000
0000
0100
0011
0000
0100
1010
0000
0001
0110
0000
0010
1100
0000
0100
,
1001
0000
0000
0000
0000
0000
0100
0000
0010
0000
0100
0000
1001
0000
0000
0000
0011
0000
0000
0000
0000
0000
0000
0000
2020
3030
0000
0000
0102
0000
0000
0000
0000
0000
0003
0000
1000
0000
0010
0000
1000
0000
0010
0000
0000
0000
1000
0000
,
0202
0000
0000
0303
0010
0000
0002
0000
0000
0003
0010
0000
1200
0000
0000
0300
0001
0000
0110
0000
0000
0000
0011
0000
0000
0000
0000
0000
0000
0000
0101
0000
0000
0000
1010
0000
0000
0000
0000
0000
0101
0000
1010
0000
0000
0000
0000
0000
,
0101
0000
1010
0000
0000
0102
0100
0003
1000
0010
0000
0102
0000
0003
0010
1000
0000
0120
0100
0030
0100
0010
0000
0100
,
1002
0000
0000
0000
0000
0003
0120
0000
0000
0030
1000
0000
0201
0000
0000
0300
0010
0000
2001
0000
0000
3000
0100
0000
0011
0000
0000
0000
1001
0000
0000
0000
0000
0000
1000
0000
0011
0000
0000
0000
0110
0000
0000
0000
0000
0000
1000
0000
,
0110
0000
0000
0000
0101
0000
0000
0000
0000
0000
0100
0000
1001
0000
0000
0000
2010
0000
0000
0000
0000
0000
3000
0000
1020
0000
0000
0030
1000
0000
0102
0000
0000
0003
0100
0000
0021
0000
0000
0030
0001
0000
0210
0000
0000
0300
0010
0000
,
2001
0000
0000
3000
0010
0000
0102
0000
0000
0003
1000
0000
0100
0000
0010
0000
0100
0000
0010
0000
0001
0000
0100
0000
2020
3030
0000
0000
0100
0000
1010
0000
0000
0000
0000
0000
1000
0000
0001
0000
1000
0000
0001
0000
0000
0000
1000
0000
,
0022
0000
0033
1100
0000
0001
1100
0000
0010
0101
0000
1010
0000
0000
0010
0101
0000
1000
0110
0000
0001
1010
0000
1001
,
0000
0000
1010
0000
0010
0001
1010
0100
1000
0010
0100
1000
0010
0001
0100
1000
0100
0010
1100
0010
0001
1000
0010
0100
,
0001
0010
0001
0010
0001
0010
1001
0100
1000
0001
0010
1000
0100
0010
0100
1010
0000
0000
1010
0000
0101
0000
0000
1010
,
0101
0000
0000
1010
0000
0101
0000
0000
1010
0101
0000
0001
0110
0000
0100
1100
0000
1000
1010
0000
0010
0011
0000
0001
,
1001
0000
0000
0000
0000
0000
0101
0000
0000
0000
0001
0000
1010
0000
0000
0000
0110
0000
0000
0000
0000
0000
0000
0000
0022
0000
0000
0000
0000
0033
1000
0000
0100
0000
0001
0000
0100
0000
1000
0000
0001
0000
0110
0000
0000
0000
0000
0000
,
0010
0000
0000
0001
0000
0100
0010
0000
0000
1000
0000
0010
0100
0000
0100
0010
0000
0001
1000
0000
1000
0001
0000
0100
,
0001
0000
0001
0100
0000
0011
0000
0000
0110
1000
0000
1000
0110
0000
0000
1010
0000
0000
0101
0000
0100
0010
0000
0001
,
1000
0000
0000
0010
0000
1000
0110
0000
0101
0000
0000
0100
1010
0000
0110
0000
0000
0001
1010
0000
1001
0000
0000
0010
,
0101
0000
0000
0000
0001
0000
1000
0000
0000
0000
1000
0000
0011
0000
0000
0000
0001
0000
1100
0000
0000
0000
1000
0000
0220
0330
0000
0000
0100
0000
1010
0000
0000
0000
0000
0000
0100
0000
0010
0000
0100
0000
0010
0000
0100
0000
0010
0000
,
1002
0000
0000
0000
0000
0000
0100
0000
0003
0000
1010
0000
0001
0000
0000
0000
0100
0000
1000
0000
0100
0000
1000
0000
0022
0033
0000
0000
0010
0000
0101
0000
0000
0000
0000
0000
1000
0000
0100
0000
1000
0000
0100
0000
0000
0000
0100
0000
,
2001
0000
0000
0000
0000
0000
0001
0000
3000
0000
0110
0000
1000
0000
0000
0000
0100
0000
0022
0033
0000
0000
0000
0000
2200
3300
0000
0000
1010
0000
0201
0000
0000
0000
0300
0000
0011
0000
0000
0000
0000
0000
0001
0000
0000
0000
0000
0000
,
2100
0000
0000
0000
3000
0000
0101
0000
0000
0000
1000
0000
0010
0000
0000
0000
0100
0000
1000
0000
0000
0000
0100
0000
2002
3003
0000
0000
0011
0000
1100
0000
0000
0000
0000
0000
0110
0000
0000
0000
0100
0000
0001
0000
1000
0000
0001
0000
,
0100
0010
1000
0010
1000
0001
1000
0001
0100
0010
1000
0010
0101
0001
0001
0110
0100
0100
1010
1000
1000
0110
0010
0010
,
1100
0000
0000
0010
0100
0010
0101
0000
1010
0000
0000
0100
1010
0000
0201
0000
0300
1000
0011
0000
0010
1100
0000
0001
,
0110
0000
1000
0000
0100
0000
0010
0000
0100
0000
0010
0000
1000
0000
0010
0000
1000
0000
0001
0000
1000
0000
0001
0000
0220
0330
0000
0000
0011
0000
2000
0000
0000
0000
0000
3000
0021
0000
0000
0000
0000
0030
0200
0000
0000
0000
0000
0300
,
1002
0000
0000
0003
0010
0000
0200
0000
0000
0300
2010
0000
0010
0000
0000
3000
0100
0000
0001
0000
0100
0000
0001
0000
2020
3030
0000
0000
0100
0000
0022
0033
0000
0000
0000
0000
0110
0000
0001
0000
0010
0000
0001
0000
0000
0000
0010
0000
,
2100
0000
0000
0000
0000
0000
0010
0000
3000
0000
0101
0000
0001
0000
0000
0000
0000
0000
0220
0000
0000
0000
0330
0000
0202
0000
0303
0000
0022
0033
1100
0000
0000
0000
0000
0000
0012
0000
0000
0000
0000
0000
1000
0000
0000
0000
0003
0000
,
0120
0000
0030
1001
0000
0010
1100
0000
0001
1010
0000
1000
0220
0330
0012
0100
0000
0000
1000
0000
0013
1000
0100
1000
,
0001
0000
0000
0000
0000
0000
0000
0000
0010
0000
0000
0000
0000
0000
0000
0000
0100
0000
0000
0000
0000
0000
0000
0000
0010
0000
0000
0000
0000
0000
0000
0000
0100
0000
0000
0000
0000
0000
0000
0000
1000
0000
0000
0000
0000
0000
0000
0000
0100
0000
0000
0000
0000
0000
0000
0000
1000
0000
0000
0000
0000
0000
0000
0000
0001
0000
0000
0000
0000
0000
0000
0000
0010
0000
0000
0000
0000
0000
0000
0000
0100
0000
0000
0000
0000
0000
0000
0000
0010
0000
0000
0000
0000
0000
0000
0000
1001
0000
0000
0000
0000
0000
0000
0000
0010
0000
0000
0000
0000
0000
0000
0000
0010
0000
0000
0000
0000
0000
0000
0000
1001
0000
0000
0000
0000
0000
0000
0000
0010
0000
0000
0000
0000
0000
0000
0000
0010
0000
0000
0000
0000
0000
0000
0000
1100
0000
0000
0000
0000
0000
0000
0000
0010
0000
0000
0000
0000
0000
0000
0000
0010
0000
0000
0000
0000
0000
0000
0000
1100
0000
0000
0000
0000
0000
0000
0000
0000
0000
0000
0000
1000
0000
0000
0000
0000
0000
0100
0000
0000
0000
0000
0000
,
0011
0000
0000
1100
0001
0010
1001
0000
0110
0000
0000
0001
0120
0000
2000
0000
3030
0100
0011
0000
0001
1010
0000
0010
,
0101
0000
0001
0110
0000
0010
1100
0000
0100
2001
0000
3001
0220
0000
0000
0000
0000
0000
0000
0000
0000
0000
0000
0000
,
0000
0000
0000
0000
,
0330
0000
0000
0000
;
