#TITLE:Pussycat;
#SUBTITLE:(Loffciamcore Remix);
#ARTIST:CokeMafia & RudeCat;
#TITLETRANSLIT:;
#SUBTITLETRANSLIT:;
#ARTISTTRANSLIT:;
#CREDIT:Aoreo;
#BANNER:pussycat bn.png;
#BACKGROUND:pussycat bg.png;
#LYRICSPATH:;
#CDTITLE:;
#MUSIC:Pussycat (Loffciamcore Remix).ogg;
#OFFSET:-0.027;
#SAMPLESTART:29.634;
#SAMPLELENGTH:12.000;
#SELECTABLE:YES;
#DISPLAYBPM:240.000;
#BPMS:0.000=240.000;
#STOPS:;
#BGCHANGES:;
// cache tags:
#FIRSTBEAT:8.000;
#LASTBEAT:545.000;
#SONGFILENAME:Songs/SPEEEDCOOOORE 2/Pussycat (Loffciamcore Remix) - [Aoreo]/Pussycat.sm;
#HASMUSIC:1;
#HASBANNER:1;
#MUSICLENGTH:140.042;
// end cache tags

//---------------dance-single - J. Nero----------------
#NOTES:
     dance-single:
     J. Nero:
     Challenge:
     17:
     1.000,1.000,0.621,0.300,1.000,1236.000,87.000,42.000,0.000,0.000:

0000
0000
0000
0000
,
0000
0000
0000
0000
,
1000
0000
0001
0010
0001
0000
1000
0010
1000
0000
0001
0000
1000
0000
0010
0100
,
0001
0000
0000
0000
,
1000
0000
0010
1000
0010
0000
0100
0001
0100
0000
0001
0000
1000
0000
0100
0010
,
0001
0000
0000
0000
,
1000
0001
1000
0001
1000
0000
0000
0000
0001
0000
1000
0000
0200
0000
0300
0000
,
0110
0001
1000
0000
,
0001
0100
0001
0100
0010
1000
0010
1000
0001
0100
0001
1000
0010
1000
0001
0100
,
0001
1000
0001
1000
0100
0010
0100
0010
0001
1000
0100
1000
0001
0010
0001
1000
,
0100
0010
0001
1000
0010
1000
0010
0100
0001
0100
0001
1000
0010
0100
0001
1000
,
0001
0000
0000
0000
1000
0100
1000
0100
0010
0000
0000
0000
0001
0000
0000
0000
,
1000
0100
0010
0100
0010
0001
1000
0100
0010
0001
1000
0100
1000
0100
0010
0001
,
0010
0001
1000
0100
0010
0001
1000
0100
1000
0001
0100
0001
1000
0010
0100
0001
,
4000
3000
0100
1000
0004
0003
0100
0001
4000
3000
0010
1000
0004
0003
0010
0001
,
4000
0000
3000
0000
0001
0100
0001
0100
0010
1000
0010
1000
0001
0000
0000
0000
,
1000
0000
1000
0000
0001
0010
0100
0010
0100
1000
0001
0010
0001
1000
0100
1000
,
0001
0010
0100
1000
0001
0010
0001
1000
0400
0000
0300
0000
4000
0000
3000
0000
,
0001
0100
0001
0100
0010
1000
0010
1000
0001
0100
0001
1000
0100
0010
0001
1000
,
0001
0000
0000
0000
1000
0100
1000
0100
0040
0000
0030
0000
0001
0000
0000
0000
,
1000
0010
1000
0010
0100
0001
0100
0001
1000
0010
1000
0001
0100
0001
1000
0100
,
0010
0100
0010
0001
1000
0100
0010
0001
4000
0000
3000
0000
0004
0000
0003
0000
,
1002
0000
0003
0000
1000
0000
0000
0000
0001
1000
0010
0100
0001
1000
0010
0100
,
0001
0000
0000
0000
0000
0000
0100
0100
,
0001
0000
1000
0100
1000
0000
0001
0010
0001
0000
0100
0000
0010
0000
1000
0001
,
1000
0000
0001
1000
0001
0000
1000
0001
1000
0000
0100
0000
1000
0000
0010
0000
,
0100
0000
0001
1000
0001
0000
1000
0100
1000
0000
0001
0000
0100
0000
0020
0000
,
0030
2000
3000
0200
0300
0020
0030
0000
,
0001
1000
0001
1000
0001
0000
1000
0100
1000
0000
0001
0000
1000
0000
0200
0000
,
0300
0020
0030
0002
0003
1000
0000
0001
,
0001
0001
0100
0010
1000
0000
0000
0001
,
0001
0001
0100
0010
1000
0100
0010
0001
,
1000
0000
0001
0100
0001
0000
1000
0100
1000
0000
0010
0000
0100
0000
0001
1000
,
0001
0000
1000
0100
1000
0000
0001
0000
0010
0000
0100
0000
0010
0000
0001
0000
,
1000
0000
0001
0100
0001
0000
1000
0100
1000
0000
0100
0000
0010
0000
0002
0000
,
0003
2000
3000
0020
0030
0200
0300
0000
,
0010
0000
1000
0010
1000
0000
0001
0100
0001
0000
1000
0000
0001
0000
0020
0000
,
0030
0200
0300
2000
3000
0002
0003
1000
,
1000
1000
0010
0100
0001
0000
0000
0000
,
1001
0000
0000
0000
0002
0003
0400
0300
,
0001
0100
0001
0100
0010
1000
0010
1000
0001
0100
0001
1000
0010
1000
0010
0100
,
0001
1000
0010
0100
0010
0100
0001
1000
0001
1000
0010
0100
0001
1000
0010
0100
,
0001
1000
0100
1000
0100
0010
0001
0010
0001
1000
0100
0010
0100
0010
0001
1000
,
0100
0010
0001
1000
0100
1000
0001
1000
0001
0000
0100
0001
0100
0000
0001
1000
,
0001
0000
1000
0000
0100
0000
0000
0000
2000
3000
0000
0000
0001
0100
0010
0100
,
0001
1000
0010
1000
0001
0100
0001
1000
0010
0100
0001
1000
0010
0100
0001
1000
,
0001
1000
0100
0010
0100
0010
0001
1000
0100
1000
0001
0010
0001
1000
0100
0010
,
0001
0000
0000
0000
1001
0000
0000
0000
1000
0001
1000
0001
1000
0000
0000
0000
,
0001
0000
0001
0000
0200
0300
0000
0000
0010
1000
0010
0100
0001
0100
0001
1000
,
0010
1000
0010
0100
0001
1000
0010
0100
0001
0100
0001
1000
0010
0100
0010
0100
,
0001
1000
0010
1000
0001
0100
0010
0100
0001
1000
0001
0010
0001
1000
0100
1000
,
0001
0010
0001
0000
1000
0010
1000
0000
0001
0100
0001
0100
0010
1000
0010
1000
,
0001
0000
0000
0000
1000
0100
1000
0100
0020
0030
0000
0000
0001
1000
0100
0010
,
0100
0010
0001
1000
0100
1000
0001
0010
0001
1000
0100
0010
0001
1000
0001
1000
,
0100
0010
0100
0010
0001
1000
0100
1000
0001
0000
0001
0000
0100
0000
0000
0000
,
0101
0001
1000
0000
,
0001
0000
0001
0000
1000
0010
0100
0001
1000
0010
1000
0010
0100
0001
0100
0001
,
1000
0010
1000
0001
0100
0001
1000
0001
1000
0010
0100
0001
1000
0010
0100
0010
,
0100
0001
1000
0100
0010
0001
1000
0100
0010
0100
0010
0001
1000
0100
1000
0001
,
0010
0001
1000
0001
1000
0100
0010
0001
4000
0000
0000
0000
3000
0000
0000
0000
,
0004
0000
0003
0000
1000
0010
1000
0001
0100
0001
1000
0010
0100
0010
1000
0001
,
0100
0001
0100
0010
1000
0001
1000
0010
0100
0010
1000
0001
0010
0100
1000
0001
,
1000
0100
0010
0001
1000
0100
1000
0100
0010
0001
0010
0001
1000
0100
0010
0100
,
0010
0001
1000
0100
1000
0001
0010
0001
1000
0010
0100
0001
1000
0000
0000
0000
,
0001
0010
0100
0010
0001
1000
0100
0010
0001
1000
0010
0100
0010
1000
0001
1000
,
0001
1001
1010
0110
,
0100
0001
0100
0001
1000
0010
1000
0010
0100
0001
0100
0010
1000
0010
0100
0001
,
1000
0001
0010
0100
1000
0001
0010
0001
1000
0000
0001
0000
1000
0000
0010
0000
,
0100
0001
0100
0001
1000
0000
0000
0000
0100
0000
0010
0000
0002
0003
0000
0000
,
0011
0000
0000
0000
0110
0000
0000
0000
1100
0000
0000
0000
2000
3000
0000
0000
,
0001
0100
0001
1000
0010
0000
0000
0000
1000
0100
0010
0100
0010
0001
1000
0010
,
0100
0001
1000
0010
0100
0001
1000
0001
1000
0001
1000
0000
0000
0000
0000
0000
,
1001
0011
0110
1100
,
1001
0101
1010
0110
,
0101
1001
1100
0110
,
0010
0001
0010
0100
1000
0001
0100
0001
,
1001
1010
0110
0101
,
1001
1010
0110
0101
,
0001
1000
0100
1000
0001
0000
0000
0000
1000
0000
1000
0000
0200
0300
0000
0000
,
1000
0000
0000
0000
0001
0010
0001
0010
0200
0300
0000
0000
1000
0000
0000
0000
,
0010
1000
1010
0000
0110
0000
0101
0000
,
1001
1100
0110
0011
,
1001
1100
0011
1001
,
1000
0010
0100
0001
0010
0100
1000
0001
,
1001
1010
0101
1001
,
1100
0011
0110
1100
,
1000
0010
0100
0010
1000
0000
0000
0000
0001
0000
0001
0000
2000
3000
0000
0000
,
1001
0000
0000
0000
0001
0100
0001
1000
0010
0100
0001
1000
0001
0000
0000
0000
,
1000
1000
1100
0000
0110
0000
0011
0000
,
1001
1010
0110
0101
,
1001
1100
0110
0011
,
0001
1000
0100
1000
0001
0000
0000
0000
1000
0000
1000
0000
0002
0003
0000
0000
,
0100
0010
1000
0001
0100
0000
0000
0000
0101
0000
0000
0000
1001
0000
0000
0000
,
1010
0110
0101
1001
,
1100
0000
0000
0000
0110
0000
0000
0000
0010
0000
0010
0000
0002
0003
0000
0000
,
1001
0000
1000
0000
0001
0000
0200
0300
,
0001
1000
0010
0100
0001
1000
0010
0100
0001
1000
0100
1000
0100
0010
0001
0010
,
0001
1000
0100
0010
0100
0010
0001
1000
0100
1000
0001
0010
0001
1000
0100
0010
,
0001
1000
0001
0100
0010
0100
0001
1000
0001
0100
0010
1000
0001
1000
0010
0100
,
0001
0100
0001
1000
0100
0010
0001
1000
,
0001
1000
0100
0010
0100
0010
0001
1000
0100
1000
0001
0010
0001
1000
0100
0010
,
0001
1000
0001
1000
0100
0010
0001
1000
0001
0010
0001
1000
0100
0010
0100
0010
,
0001
1000
0001
0100
0040
0000
0030
0000
1000
0000
1000
0000
0002
0003
0000
0000
,
1001
0000
0000
0000
1000
0010
0100
0010
0100
0001
1000
0001
1000
0000
0000
0000
,
1001
0001
0100
0000
,
1001
1000
0100
0000
,
1001
0001
0100
0000
,
1001
1000
0100
0000
1001
0001
0100
0000
,
1001
0001
0100
0000
,
1001
1000
0100
0000
,
1001
0001
0100
0000
,
1001
1000
0100
0000
1001
0001
0100
0000
,
1001
0000
0001
0100
0001
0000
1000
0001
1000
0000
0001
0000
0010
0000
0100
0000
,
1000
0000
0001
0100
0001
0000
1000
0000
0100
0000
1000
0000
0010
0000
0100
0000
,
0001
0000
1000
0100
1000
0000
0001
0100
0001
0000
1000
0000
0100
0000
0020
0000
,
0030
0002
0003
2000
3000
0020
0030
0000
,
0100
0000
0010
1000
0010
0000
0100
0001
0100
0000
0010
0000
1000
0000
0002
0000
,
0003
0020
0030
0200
0300
2000
3000
0001
,
0001
0001
0100
0010
1000
0000
0200
0300
,
1001
1000
0200
0300
,
1000
0000
1000
0000
0001
1000
0010
0100
0001
1000
0010
0100
0001
1000
0010
0100
,
0001
1000
0100
0010
0100
0010
0001
1000
0004
0000
0003
0000
4000
0000
3000
0000
,
0001
0010
0100
0010
0100
1000
0001
0010
0001
1000
0100
1000
0100
0010
0001
1000
,
0100
0010
0001
0010
0004
0003
0000
0000
4000
3000
0000
0000
0001
0000
0000
0000
,
4000
3000
0010
1000
0004
0003
0010
0001
4000
3000
0010
1000
0004
0003
0010
0001
,
4000
0000
0000
3000
0001
0000
0010
0000
0100
0000
0000
0000
1001
0000
0000
0000
,
1000
0100
0010
0001
1000
0100
0010
0001
1000
0100
0010
0001
1000
0100
0010
0001
,
1000
0100
1000
0001
0010
0001
1000
0100
0010
0100
0010
0001
4000
0000
3000
0000
,
0001
0100
0001
0100
0010
1000
0010
1000
0001
0100
0010
0100
0001
1000
0001
1000
,
0001
0100
0010
1000
0001
0100
0001
1000
0010
0100
0010
1000
0001
1000
0001
0100
,
0010
1000
0001
0000
1000
0100
1000
0000
0001
0000
0000
0000
0100
0000
0000
0000
,
0001
0100
0010
1000
0001
0100
0010
1000
0001
0100
0010
1000
0001
0100
0010
1000
,
0001
1000
0100
0010
0100
0010
0001
1000
0100
1000
0001
0010
0001
1000
0100
1000
,
0100
0010
0001
0010
0001
1000
0100
1000
0001
0000
0000
0000
0101
0000
0000
0000
,
4000
0000
0000
0000
3000
0000
0000
0000
0001
1000
0010
1000
0010
0100
0001
0100
,
0001
1000
0100
0000
,
2002
3003
0000
0000
;
