#TITLE:Will My Heart Survive;
#SUBTITLE:;
#ARTIST:Nightcore;
#TITLETRANSLIT:;
#SUBTITLETRANSLIT:;
#ARTISTTRANSLIT:;
#CREDIT:;
#BANNER:survive.png;
#BACKGROUND:survive-bg.png;
#LYRICSPATH:;
#CDTITLE:;
#MUSIC:Nightcore - Will My Heart Survive.ogg;
#OFFSET:-0.246;
#SAMPLESTART:74.049;
#SAMPLELENGTH:12.000;
#SELECTABLE:YES;
#BPMS:0.000=174.200,66.000=348.400,73.000=174.200,105.000=43.550,117.000=87.100,133.000=174.200,161.000=87.100,163.000=174.200,327.000=87.100,329.000=174.200,425.000=87.100,437.000=174.200,497.000=87.100;
#STOPS:70.000=0.240
,70.500=0.240
,71.000=0.050
,71.250=0.050
,71.500=0.070
,72.000=0.100
,72.500=0.100
;
#BGCHANGES:;
// cache tags:
#FIRSTBEAT:36.000;
#LASTBEAT:499.250;
#SONGFILENAME:Songs/Rodd's Rad Christmas Pack/Will My Heart Survive (Rodd Steps)/Will My Heart Survive (Rodd Steps).SM;
#HASMUSIC:1;
#HASBANNER:1;
#MUSICLENGTH:105.000;
// end cache tags

//---------------dance-single - R. Farias----------------
#NOTES:
     dance-single:
     R. Farias:
     Challenge:
     10:
     1.000,1.000,0.219,0.438,1.000,1150.000,23.000,46.000,6.000,0.000:

0000
0000
0000
0000
,
0000
0000
0000
0000
,
0000
0000
0000
0000
,
0000
0000
0000
0000
,
0000
0000
0000
0000
,
0000
0000
0000
0000
,
0000
0000
0000
0000
,
0000
0000
0000
0000
,
0000
0000
0000
0000
,
0002
0000
0000
0103
0010
0000
1000
0000
0002
0000
0000
1003
0100
0000
0010
0000
,
0002
0000
0000
0103
0010
0000
1000
0000
0002
0000
0000
1003
0001
0000
0100
0000
,
0020
0000
0000
0130
0001
0000
1000
0000
0200
0000
0000
0310
0001
0000
0100
0000
,
0020
0000
0000
0130
0001
0000
1000
0000
0200
0000
0000
0310
0001
0000
0100
0000
,
0020
0000
0000
1030
0001
0000
1000
0000
0002
0000
0000
0103
0010
0000
0100
0000
,
0020
0000
0000
1030
0001
0000
1000
0000
0001
0000
0001
0000
0100
0000
0100
0000
,
0020
0000
1030
0002
0000
0000
1003
0000
,
2002
0000
0000
0000
,
0000
0000
0000
0000
0000
0000
3003
0000
1001
0000
0101
0000
0100
0010
1000
0000
,
0001
0000
0001
0000
1000
0100
0010
0000
0001
0000
0100
0000
0010
0000
0100
0001
,
0000
0001
1000
0000
0100
0010
0001
0000
0100
0000
0010
0000
0100
0000
0001
1000
,
0000
0100
0010
0000
0001
0100
0010
0000
0100
0000
0001
0000
1000
0000
0100
0010
,
0000
0100
1000
0000
0001
0100
0010
0000
1000
0000
0100
0000
0010
0001
0100
0000
,
0010
0000
2000
0000
0000
3100
0010
0001
0100
0010
1000
0100
1000
0100
0010
0001
,
0100
0010
1000
0100
1000
0010
0100
0001
0010
0001
1000
0010
0100
0001
1000
0010
,
0100
0001
1000
0100
0010
0100
0010
0100
0010
0100
0010
0001
1000
0001
1000
0001
,
1000
0001
1000
0001
0100
0010
1000
0001
0100
0010
1000
0100
0010
0001
1000
0100
,
0010
0001
1000
0001
0200
0000
0000
0000
0300
0000
0000
0000
0020
0000
0030
0000
,
0000
0000
0000
0000
1000
0000
0001
0000
1000
0200
0000
0000
0000
0300
0000
0000
0000
0000
0000
0010
0001
0000
0001
0200
0000
0000
0300
0000
0000
0000
0000
0000
,
0000
0000
0000
0000
0000
0010
1000
0000
0001
1000
0000
0200
0000
0000
0310
0001
0000
0200
0000
0000
0310
0000
1000
0000
0002
0000
0000
0003
0000
0000
0000
0000
,
0000
0000
0000
1000
0100
0000
0010
0000
0001
0000
0100
0000
0001
0000
0100
0000
0010
0000
1000
0000
0010
0000
1000
0000
0001
0000
1000
0000
0001
0000
1000
0000
,
0100
1000
0100
1000
0100
0010
0100
0010
0001
0010
0001
0010
0001
0100
0001
0100
,
0010
1000
0010
1000
0100
0010
0001
0010
0100
1000
0001
0100
0010
1000
0100
1000
,
0010
0100
0001
1000
0100
0010
0001
0010
0100
1000
0001
0100
0010
1000
0001
1000
,
0001
1000
0001
0000
1000
0000
0001
0000
0100
0000
0000
0000
0010
0000
0000
0000
1000
0000
0000
0000
0100
0000
0000
0000
0010
0000
0000
0000
0001
0000
0000
0000
,
0100
0010
1000
0100
1000
0010
0100
0001
,
1000
0100
0001
0100
0010
0001
0100
1000
,
0100
0010
1000
0001
1000
0100
0020
0000
,
0031
0000
0100
0000
0010
1000
0100
0010
0001
0010
0100
1000
0001
0100
0010
1000
,
0100
1000
0010
0100
0001
0010
0001
0100
0010
1000
0100
0010
0001
0010
0100
1000
,
0001
0100
0010
1000
1001
0000
0000
0000
0001
0000
0000
0000
0101
0000
0000
0000
,
0010
0000
0000
0000
2010
0000
0000
0000
3002
0000
0000
0000
1003
0000
0100
0010
,
0000
0001
0100
0000
0010
0000
1000
0001
0000
0001
1000
0000
0100
0000
0010
0000
,
0100
0000
1000
0000
0001
0000
0100
0000
0010
0000
1000
0000
0100
0000
0010
0001
,
0000
0100
0010
0000
0100
0000
0001
1000
0100
0000
0010
0001
1000
0000
0001
0100
,
0010
0000
0100
0001
1000
0000
0001
1000
0001
0000
1000
0000
0100
0000
0010
0001
,
0000
0100
0010
0000
0100
0000
0001
1000
0000
1000
0100
0000
0010
0000
0001
0100
,
0000
0010
1000
0000
0001
0000
0001
0000
1000
0000
1000
0000
0100
0000
0010
0001
,
0100
0000
0010
0000
1000
0000
0001
1000
0001
0000
1000
0000
0100
0000
0010
0001
,
1000
0000
0001
0000
0100
0001
0100
0000
0101
0000
1010
0000
1000
0000
0100
0010
,
0000
0001
1000
0000
0001
0000
0100
0010
0000
0100
0001
0000
1000
0000
0100
0000
,
0010
0000
0001
0000
1000
0000
0001
0000
0100
0000
0010
0000
1000
0000
0100
0010
,
0000
0001
0100
0000
0010
0000
0100
0001
1000
0000
0100
0010
0001
0000
0010
0100
,
1000
0000
0001
0100
0010
0000
0100
0001
1000
0000
0100
0000
0010
0000
0001
0100
,
0000
0100
0010
0000
0100
0000
0001
1000
0000
1000
0100
0000
0010
0000
0001
1000
,
0000
1000
0001
0000
0100
0000
0100
0000
0010
0000
0010
0000
1000
0000
0100
0000
,
0010
0001
0010
0100
1000
0001
0101
0000
,
1010
0000
0000
0000
1000
0100
0010
0000
0110
0000
1001
0000
0001
0000
0100
0000
,
0010
0000
1000
0000
0100
0010
0001
0010
0100
1000
0001
0010
0100
1000
0001
0100
,
0020
0000
0000
0000
1030
0000
0001
0100
0010
1000
0001
1000
0100
0000
0010
0000
,
0001
0010
0100
1000
0001
0100
0010
0001
,
0010
1000
0100
0001
0100
0010
0001
1000
,
0001
0100
0010
1000
0100
1000
0010
0100
,
0001
1000
0100
0010
0002
0000
0103
0020
,
0000
2030
0000
0000
3100
0020
0000
0032
,
0000
0103
0020
0000
2030
0000
3001
0100
,
0010
0100
0001
0100
0010
1000
0100
0010
,
0001
0000
0100
0000
0010
1000
0010
0000
1000
0000
1000
0000
0001
0000
0100
0000
,
0010
1000
0100
1000
0001
0100
0010
1000
,
0100
0010
0001
0010
0100
1000
0001
0100
,
0010
1000
0100
0001
0100
0010
0001
0100
,
1000
0100
0010
1000
0001
1000
0100
1000
,
0001
0100
0010
1000
0100
1000
0010
1000
,
0001
0010
0001
0100
0010
1000
0001
1000
,
0100
0010
0100
1000
0001
0100
0010
1000
,
0001
0000
1000
0000
0010
0100
0010
0000
1000
0000
1000
0000
0001
1000
0100
0010
,
0001
0000
0100
0000
0010
0100
0001
1000
0100
0000
0010
0000
0001
0100
0010
0100
,
0001
0000
1000
0000
0100
0010
0001
0100
0010
0000
0100
0000
0001
1000
0100
1000
,
0010
0000
0100
0000
0001
1000
0100
0010
0001
0000
0010
0000
0100
1000
0001
0010
,
0100
0000
1000
0000
0001
0100
0010
1000
0001
0000
1000
0000
0100
0010
0001
0010
,
0100
1000
0001
0100
0010
1000
0100
1000
0010
0100
0001
1000
0100
0010
0001
0010
,
0100
1000
0001
0100
0010
1000
0100
1000
0001
0100
0001
1000
0100
1000
0010
0100
,
0001
1000
0010
0100
0001
1000
0001
1000
0001
1000
0100
0010
0002
0000
0000
0000
,
0203
0000
0000
0000
0310
0000
1000
0100
0000
0010
0001
0000
0100
0000
0010
1000
,
0000
1000
0001
0000
1000
0000
0001
0000
0100
0000
0010
0000
0100
0000
0001
0000
,
1000
0000
0100
0000
0010
0000
0001
0100
0000
0100
0010
0000
0100
0000
0001
1000
,
0100
0000
0010
0001
0100
0000
0010
1000
0100
0000
0010
0001
1000
0000
0001
0100
,
0010
0000
0100
0001
1000
0000
0100
0010
0000
0010
0100
0000
1000
0000
0001
0100
,
0000
0100
0001
0000
1000
0000
0100
0010
0001
0000
0100
0000
0010
0000
0010
0000
,
1000
0000
1000
0000
0001
0000
1000
0100
0000
0010
0001
0000
0100
0000
0010
1000
,
0000
0001
0100
0000
0010
0000
1000
0001
0000
0001
1000
0000
0100
0010
0001
0000
,
0101
0000
0110
0000
0010
0000
1000
0100
0000
1000
0100
0000
0010
0000
0001
0100
,
0000
0001
0100
0000
0010
0000
1000
0000
0001
0000
0100
0000
0010
0000
0100
0000
,
0001
0000
1000
0000
0001
0000
1000
0100
0000
0100
0010
0000
0001
0000
0100
0010
,
1000
0000
0100
0010
0001
0000
0010
0100
1000
0000
0001
0100
0010
0000
0100
0001
,
1000
0000
0100
0010
0001
0000
0100
0010
0000
0010
0100
0000
0001
0000
1000
0100
,
0000
0100
0010
0000
0001
0000
0100
0010
1000
0000
0100
0000
0010
0000
0010
0000
,
0001
0000
0001
0000
0100
0010
1000
0001
0100
0010
1000
0001
0100
0010
1000
0100
,
0010
0001
1000
0100
0010
0001
1000
0100
0010
0001
0100
0010
1000
0001
1000
0000
,
0001
0000
0001
0000
0100
0010
1000
0000
0001
0000
1000
0000
0100
0000
0010
0001
,
0000
0001
0100
0000
0010
1000
0001
0000
1000
0000
0100
0000
0010
0000
0100
1000
,
0000
1000
0001
0000
0100
0010
1000
0000
0100
0000
1000
0000
0010
0000
0100
0001
,
0000
0001
1000
0000
0100
0010
0100
0010
0100
0000
0010
0000
0001
1000
0001
1000
,
0001
0000
0200
0000
0000
0310
1000
0100
0010
0001
0010
0100
1000
0001
0100
0010
,
1000
0100
1000
0010
0100
0001
1000
0100
0010
0001
0010
0100
1000
0100
0010
0001
,
0100
0010
1000
0100
0010
0001
0010
0001
0010
0001
0010
0001
0100
0001
0100
0001
,
0100
0001
0100
0010
1000
0100
0010
0001
0100
0010
1000
0100
0010
0001
0010
0100
,
1000
0010
0100
0001
2000
0000
0000
0000
3002
0000
0000
0000
0203
0000
0000
0000
,
0000
0000
0310
2000
0000
0000
0000
0000
0000
3000
0001
0000
0100
0000
0010
0000
,
0100
0000
0001
0000
1000
0000
0100
0020
0000
0000
0000
0000
0032
0000
0000
0000
,
0000
0003
0000
0100
0101
0000
0000
0000
M0M0
0000
0000
0000
1010
0000
0000
0000
,
M00M
0000
0000
0000
1001
0000
0000
0000
1001
0000
0000
0000
0001
0100
0010
0000
,
0110
0000
0110
0000
0010
0000
1000
0100
0000
0010
0001
0000
0100
0000
0010
1000
,
0000
0001
1000
0000
0100
0000
0010
0000
0100
0000
1000
0000
0001
0000
0100
0000
,
0010
0000
1000
0000
0100
0000
0010
0001
0000
0001
0100
0000
0010
0000
1000
0100
,
0010
0000
0010
0001
0100
0000
0010
1000
0001
0000
1000
0100
0010
0000
0001
0100
,
0010
0000
0100
0001
1000
0000
0100
0010
0000
0001
0100
0000
0010
0000
1000
0001
,
0000
0001
1000
0000
0100
0000
0010
0000
0100
0000
1000
0000
0001
0000
0001
0000
,
0100
0100
0010
1000
0100
0010
0001
0010
,
0100
0000
1000
0000
0001
0000
0100
0000
0010
0000
1000
0000
0001
1000
0001
0000
,
1001
0000
1001
0000
0001
0100
0001
0100
0001
0100
0001
0100
0010
1000
0010
1000
,
0010
1000
0010
1000
0001
1000
0001
1000
0001
1000
0001
1000
0001
1000
0001
1000
,
0100
0010
0100
1000
0001
0100
0010
1000
0100
1000
0001
0100
0001
1000
0100
1000
,
0010
0100
0001
1000
0010
0000
0100
0000
0001
0000
1000
0000
0001
0000
1000
0000
,
0100
0010
0002
0000
0000
0000
0000
0000
,
0000
0003
0000
0000
M2M2
0000
0000
0000
0000
0000
0000
0000
0000
0303
0000
0000
;
