#TITLE:Horn of Betrayal;
#SUBTITLE:;
#ARTIST:DevilDriver;
#TITLETRANSLIT:;
#SUBTITLETRANSLIT:;
#ARTISTTRANSLIT:;
#CREDIT:;
#BANNER:HoBBanner.png;
#BACKGROUND:HoBBG.png;
#LYRICSPATH:;
#CDTITLE:;
#MUSIC:04 - DevilDriver - Horn Of Betrayal.ogg;
#OFFSET:-0.177;
#SAMPLESTART:52.140;
#SAMPLELENGTH:12.000;
#SELECTABLE:YES;
#DISPLAYBPM:210.000;
#BPMS:0.000=210.000,488.000=140.000;
#STOPS:;
#BGCHANGES:;
// cache tags:
#FIRSTBEAT:0.000;
#LASTBEAT:682.250;
#SONGFILENAME:Songs/SSSC PACK/[Soup] - Horn Of Betrayal/04 - DevilDriver - Horn Of Betrayal.sm;
#HASMUSIC:1;
#HASBANNER:1;
#MUSICLENGTH:234.777;
// end cache tags

//---------------dance-single - SoupNBread----------------
#NOTES:
     dance-single:
     SoupNBread:
     Challenge:
     14:
     1.000,1.000,0.498,0.869,1.000,1720.000,117.000,204.000,4.000,2.000:

1000
0100
1000
0000
0001
0010
0001
0000
0100
0001
0100
0000
0010
1000
0010
0000
,
1000
0100
0010
0000
0100
0010
0001
0000
1000
0100
1000
0100
0010
0001
0000
0000
,
1001
0000
1000
0000
0010
0000
1000
0000
0100
0000
0010
0000
0100
0010
0100
0010
,
0100
0000
1000
0000
0100
0000
1000
0000
0001
0000
0100
0000
0010
1000
0010
1000
,
0010
0000
1000
0000
0010
0000
0100
0000
0010
0000
1000
0000
0010
1000
0010
1000
,
0010
0000
0100
0000
0010
0000
0010
0000
1000
0100
0010
0001
0100
0000
1000
0000
,
0100
0000
0010
0000
1000
0000
0010
0000
0100
0000
0001
0000
0010
0100
0010
0100
,
0010
0000
0100
0000
1000
0000
1000
0000
0001
0000
0100
0000
0010
1000
0010
1000
,
0010
1000
0100
0001
0100
1000
0100
0010
,
0001
1000
0001
1000
0001
0000
0000
0000
0100
0010
0100
0010
0100
0000
0000
0000
,
1000
0100
1000
0001
0010
0001
1000
0010
1000
0001
0100
0001
1000
0100
0010
0001
,
1000
0100
1000
0001
0100
0010
1000
0010
0100
0010
1000
0001
0100
0010
0100
0001
,
0010
0100
1000
0010
0100
0001
0010
0001
0010
0100
1000
0100
1000
0010
0100
0001
,
0100
0010
0100
0001
1000
0010
0100
0010
1000
0010
0100
0010
0100
0000
0000
0000
,
1000
0001
0100
0001
1000
0010
0100
0001
0010
0001
1000
0100
1000
0001
0100
0001
,
1000
0010
1000
0100
0010
0100
0010
0100
1000
0010
0100
0001
0100
0010
0100
0001
,
1000
0010
0100
0010
1000
0100
0010
0100
0010
0100
1000
0010
0100
0000
0000
0000
,
1000
0001
1000
0001
1000
0000
0000
0000
0010
0100
0010
0100
0010
0000
0000
0000
,
1001
0000
1000
0000
0100
0000
1000
0000
1100
0000
0100
0000
0010
0100
0010
0100
,
0010
0000
1000
0000
0010
0000
0100
0000
0110
0000
0010
0000
0001
1000
0001
1000
,
0001
0000
0100
0000
1000
0000
0100
0000
0110
0000
0010
0000
1000
0100
1000
0100
,
1000
0000
0010
0000
0100
0000
0001
0000
1000
0100
0010
0001
1000
0000
0000
0000
,
0001
0010
0100
1000
0001
0010
0100
1000
0001
0010
0100
1000
0001
0010
0100
1000
,
0001
0100
0010
1000
0001
0100
0010
1000
0001
0100
0010
1000
0001
0100
0010
1000
,
0001
0010
0001
0010
0100
1000
0100
1000
0001
0010
0001
0010
0100
1000
0100
1000
,
1100
0110
1100
1001
,
1001
0000
2000
0000
3200
0000
0320
0030
0110
0000
0200
0000
0320
0000
0032
0003
,
0101
0000
0002
0000
0203
0000
0320
0030
0110
0000
0200
0000
0320
0000
2030
3000
,
1010
0000
0020
0000
0230
0000
0302
0003
1001
0000
2000
0000
3002
0000
0203
0300
,
1010
0000
0200
0000
0302
0000
0023
0030
1100
0000
0020
0000
2030
0000
3200
0300
,
0011
0000
0002
0003
1000
0001
1000
0001
1000
0001
1000
0001
1000
0001
1000
0001
,
1000
0100
0010
0001
0100
0010
0100
0001
0010
0100
0010
0001
0100
0010
1000
0010
,
0100
0010
1000
0100
0010
0100
1000
0010
0100
0001
1000
0001
1000
0100
1000
0001
,
0010
0001
1000
0010
1000
0001
0100
0001
0010
0100
1000
0100
1000
0010
0100
0001
,
1000
0000
0200
0000
0320
0000
0032
0003
1001
0000
0020
0000
0230
0000
2300
3000
,
0011
0000
2000
0000
3200
0000
0302
0003
1100
0000
0020
0000
0230
0000
0302
0003
,
1010
0000
0002
0000
2003
0000
3020
0030
0101
0000
2000
0000
3002
0000
0023
0030
,
1001
0000
0020
0000
2030
0000
3002
0003
1100
0000
2000
0000
3200
0000
0320
0030
,
0110
0000
0200
0300
1000
0001
1000
0010
0100
0010
1000
0100
0010
0001
0010
0001
,
1000
0100
1000
0010
0100
0010
1000
0001
0100
0001
1000
0010
0100
0001
0010
0100
,
0010
0001
0100
0010
1000
0100
0010
0001
0100
0010
0100
0001
0010
0100
0010
0100
,
1000
0001
0100
0001
1000
0100
1000
0001
0010
0001
1000
0010
0100
0001
0010
0100
,
1000
0000
2000
0000
3002
0000
2003
3000
1001
0000
0020
0000
0230
0000
0320
0030
,
0110
0000
2000
0000
3200
0000
2300
3000
1100
0000
0002
0000
0023
0000
0032
0003
,
0011
0000
2000
0000
3020
0000
2030
3000
1010
0000
0002
0000
0203
0000
0302
0003
,
0101
0000
2000
0000
3200
0000
0320
0030
0011
0000
0002
0000
0203
0000
0320
0030
,
1010
0000
0002
0003
0010
0001
1000
0001
1000
0100
1000
0010
0100
0010
1000
0100
,
0010
0100
1000
0010
0100
0001
0010
0001
0100
0010
0100
0001
0010
0100
0010
0001
,
0100
0010
1000
0100
1000
0001
0010
0001
1000
0010
1000
0001
0100
0001
0010
0100
,
1100
0011
0101
1010
,
1010
0000
0000
0000
0101
0000
0000
0000
1000
0001
1000
0001
1000
0001
1000
0000
,
2002
0000
0000
0003
0200
0000
0000
3300
M010
0100
1000
0010
0100
0001
0100
0000
,
2020
0000
0000
0030
0002
0000
0000
3003
M100
0010
0100
0001
0010
0100
1000
0000
,
0022
0000
0000
0003
0200
0000
0000
0330
1000
0000
0100
0000
0010
0000
0001
0000
,
0202
0000
0000
0300
0020
0000
0000
0033
1000
0100
1000
0010
0100
0001
0010
0000
,
2200
0000
0000
0300
0020
0000
0000
3030
0001
0100
0001
1000
0010
1000
0001
0000
,
2002
0000
0000
0000
0000
0000
0000
0000
0000
0000
0000
0000
0010
0000
0000
0000
0000
0000
0000
0000
0000
3003
0000
0000
1000
0000
0000
0000
0010
0000
0000
0000
0100
0000
0000
0000
0001
0000
0000
0000
1000
0000
0000
0000
0001
0000
0000
0000
,
0000
0000
0000
0000
,
1001
0100
0010
0100
1000
0100
1000
0100
,
0010
0001
0010
0100
0010
0001
1000
0100
,
0001
0100
1000
0010
0100
0001
1000
0100
,
1000
0010
0100
0001
0100
0010
0100
0001
,
0010
0100
0010
0001
0100
0010
1000
0010
,
0100
0010
1000
0100
0010
0100
1000
0001
,
1000
0100
0001
0100
1000
0010
0100
0001
,
1000
0100
1000
0100
1000
0100
1000
0100
0010
0001
0010
0001
0010
0001
0010
0001
,
2000
3002
0203
2300
3200
0302
2003
3200
,
0302
0203
2300
3020
0230
0302
0023
0230
,
2300
3002
2003
3020
0230
0320
2030
3200
,
0320
0230
0302
0203
0320
0230
2300
3020
,
0230
0000
0302
0000
0013
0100
0010
0001
0100
0010
0100
0001
0010
0100
1000
0001
,
1000
0010
1000
0010
0100
0001
0100
0001
0100
0010
0100
0010
1000
0010
0100
0001
,
0010
0001
0010
0100
1000
0100
1000
0010
0100
0010
0100
0001
1000
0010
1000
0001
,
0010
0001
1000
0100
0010
0001
0100
0010
1000
0010
1000
0001
0010
0001
0100
0010
,
2000
3002
0023
0230
0320
0230
2300
3002
,
0203
0302
2003
3020
2030
3020
0230
0302
,
2003
3200
2300
3002
2003
3020
0230
0320
,
0032
0023
0230
0320
2030
3020
0230
0302
,
0203
0000
0320
0000
1030
0100
1000
0100
1000
0100
1000
0100
1000
0001
1000
0001
,
1000
0001
1000
0001
1000
0010
1000
0010
1000
0010
1000
0010
0100
0001
0100
0001
,
0100
0001
0100
0001
0100
0010
0100
0010
0100
0010
0100
0010
0100
0010
1000
0001
,
1001
0101
0011
1100
,
1001
0000
0000
0000
0110
0000
0000
0000
1000
0010
1000
0010
1000
0010
1000
0000
,
2020
0000
0000
3000
0200
0000
0000
0330
1M00
0001
0100
0010
0100
0001
0100
0000
,
0220
0000
0000
0300
2000
0000
0000
3030
00M1
0100
0001
0010
0100
1000
0100
0000
,
2002
0000
0000
3000
0020
0000
0000
0033
1000
0000
0001
0000
0010
0000
0001
0000
,
2020
0000
0000
3000
0200
0000
0000
0330
1000
0100
1000
0010
0100
0001
0010
0000
,
2200
0000
0000
3000
0020
0000
0000
0330
0001
0100
0001
1000
0010
1000
0001
0000
,
2200
0000
0000
0000
0000
0000
0000
0000
0000
0000
0000
0000
0010
0000
0000
0000
0000
0000
0000
0000
0000
3300
0000
0000
0001
0000
0000
0000
0100
0000
0000
0000
0001
0000
0000
0000
0010
0000
0000
0000
0100
0000
0000
0000
1000
0000
0000
0000
,
2200
0000
0000
0000
0000
0000
0000
0000
0000
0000
0000
0000
0000
0000
0000
0000
0000
0000
0000
0000
0000
0000
0000
0000
0000
0000
0000
0000
0000
0000
0000
3300
,
0014
0000
1000
0000
,
0100
0000
4003
0000
,
0010
0000
0001
0000
,
0100
0000
0010
0010
,
3040
0000
1000
0000
,
0100
0000
1000
0000
,
0130
0000
1001
0000
0110
0000
1001
1000
,
0001
0100
0010
0100
0001
0010
0100
1000
0100
1000
0001
0100
0001
1000
0100
0010
,
0004
0000
0000
0003
4000
0000
0000
3000
,
0040
0000
0000
0030
0400
0000
0000
0300
,
0040
0000
0000
0030
4000
0000
0000
3000
,
0400
0000
0000
0300
0040
0000
0000
0030
,
1000
0100
0010
0100
1000
0001
0100
0001
1000
0010
0100
0010
1000
0001
0100
0010
,
0100
0001
1000
0100
1000
0001
0010
0001
1000
0010
1000
0001
0100
0001
0010
0100
,
1000
0001
0100
0010
1000
0010
0100
0001
0010
0000
0000
0000
0011
0000
0000
0000
,
0010
0001
0010
0001
1000
0100
1000
0010
0100
0010
1000
0100
1000
0001
0100
0001
,
1000
0100
1000
0000
0001
0010
0001
0000
0100
0010
0100
0000
0001
0010
0001
0000
,
1000
0100
1000
0000
0001
0010
0001
0000
0100
0010
0100
0000
0001
0010
0001
0000
,
1000
0100
1000
0000
0001
0010
0001
0000
0100
0010
0100
0000
0001
0010
0001
0000
,
1000
0100
1000
0000
0001
0010
0001
0000
0100
0010
0100
0000
0001
0010
0001
0000
,
1000
0100
1000
0000
0001
0010
0001
0000
0100
0010
0100
0000
0001
0010
0001
0000
,
1000
0100
1000
0000
0001
0010
0001
0000
0100
0010
0100
0000
0001
0010
0001
0000
,
1000
0100
1000
0000
0001
0010
0001
0000
0100
0010
0100
0000
0001
0010
0001
0000
,
1000
0100
0010
0001
0010
0000
0000
0000
0001
0100
0010
1000
0010
0000
0000
0000
,
1000
0010
0100
0001
0010
0001
1000
0100
0010
0001
1000
0010
0100
0001
0100
0010
,
0100
0001
0100
0001
1000
0100
1000
0010
0100
0001
0010
0100
1000
0100
1000
0001
,
0010
0001
1000
0010
1000
0001
0100
0001
1000
0100
1000
0010
0100
0001
0100
0010
,
0100
0010
1000
0001
0100
0001
0100
0010
1000
0000
0000
0000
1001
0000
0000
0000
,
0001
0100
0010
1000
0010
0100
0010
1000
0001
0100
0010
1000
0010
0100
0010
1000
,
0001
0010
0100
1000
0100
0010
0001
1000
0001
0010
0100
1000
0100
0010
0001
1000
,
0001
1000
0100
1000
0010
0100
0001
0010
0100
1000
0100
0010
0001
0000
0000
0000
,
1001
1100
0110
0011
,
1001
0001
0001
0001
,
0001
0001
0001
2000
,
3001
1000
0100
0010
0001
1000
0010
0100
,
0001
0000
1000
0000
0010
0000
1000
0100
1000
0100
1000
0000
0020
0000
0000
0030
,
0002
0100
0023
1000
0130
0001
0100
1000
,
0100
0000
0001
0000
0010
0000
0100
0000
0001
0000
1000
0000
0010
0000
0001
0100
,
0010
0100
0001
0000
2000
0000
0000
3000
0120
0000
0100
0030
2001
0000
0001
3000
,
0110
1000
0010
1000
0001
0010
0100
0010
,
0001
0000
1000
0000
0010
0000
1000
0010
0100
0010
1000
0000
0200
0000
0000
0300
,
0012
0000
0100
0003
1200
0000
0010
0300
0011
0000
0100
0000
0010
0000
1000
0000
,
0001
0000
1000
0000
0100
0000
0001
0000
0100
0000
1000
0000
0010
0000
1000
0100
,
0010
0001
1000
0000
0020
0000
0000
0030
1100
0000
0011
0000
1010
0000
0101
0000
,
1100
0011
1001
0110
1010
0010
0100
0010
,
1000
0000
0100
0000
0010
0000
0001
0000
0100
0000
1000
0000
0100
0000
1000
0100
,
0001
0100
0010
0000
0020
0000
0000
0030
2100
0000
0001
3000
0120
0000
1000
0030
,
0101
0001
0100
1000
0100
0001
0010
0100
,
1000
0000
0010
0000
1000
0000
0001
0100
1000
0100
0001
0000
2000
0000
0000
3000
,
0120
0000
0001
0030
1020
0000
0100
0030
0101
0000
0010
0000
1000
0000
0001
0000
,
0010
0000
0100
0000
1000
0000
0100
0000
0001
0000
0100
0000
1000
0000
0001
0100
,
0001
1000
0001
0000
2000
0000
0000
3000
0120
0000
1000
0030
0012
0000
0100
0003
,
1100
0001
0010
1000
0010
0001
0100
0001
,
0010
0000
0100
0000
0010
0000
0001
0100
0010
1000
0100
0000
0002
0000
0000
0003
,
1010
0000
0000
1001
0000
0000
1100
0000
0000
1001
0000
0000
0101
0000
0000
0001
1000
0001
1000
0000
0000
1001
0000
0000
,
1010
0001
1000
0010
1000
0001
0010
0100
,
0010
0000
0001
0000
1000
0000
0010
0100
0001
0100
0010
0000
2000
0000
0000
3000
,
0101
0101
1010
1010
1001
0001
0100
1000
,
0100
0000
0001
0000
0010
0000
0001
0000
1000
0000
0010
0000
1000
0000
0010
0100
,
1000
0100
0010
0000
0200
0000
0000
0300
0011
0000
0011
0000
1100
0000
1100
0000
,
0110
0001
1000
0001
0010
0100
0010
0100
,
0001
0000
0100
0000
0010
0000
1000
0100
0010
0100
1000
0000
0002
0000
0000
0003
,
0110
0110
1001
1001
0011
1000
0010
1000
,
0010
0000
0000
0100
0000
0000
0001
0000
0000
0001
0000
0000
0000
0000
0000
0000
0000
0000
1000
0001
0010
0001
0000
0000
,
1000
0001
0010
0001
0000
0000
1000
0100
0010
0001
0000
0000
1000
0100
0010
0001
0000
0000
0001
0100
0010
1000
0000
0000
,
0001
1000
0010
1000
0000
0000
0001
1000
0010
1000
0000
0000
0001
0100
0010
1000
0000
0000
0001
0000
0000
0010
0000
0000
,
0100
1000
0010
0100
1000
0100
0001
0100
,
1000
0000
0100
0000
0001
0000
0100
0001
0100
0000
0010
0000
1000
0000
0001
0000
,
1000
0100
1000
0100
0000
0000
1000
0010
1000
0010
0000
0000
1000
0100
1000
0100
0000
0000
0010
0001
0010
0001
0000
0000
,
0100
0001
0100
0001
0000
0000
0100
0010
0100
0010
0000
0000
1000
0001
1000
0001
0000
0000
1000
0000
0000
0010
0000
0000
,
0100
0001
0100
0010
1000
0001
0100
1000
,
0100
0001
0010
0100
1000
0010
0100
0001
,
1000
0001
1000
0100
0010
0001
0010
0100
1000
0010
0100
0001
0100
0001
1000
0010
,
1000
0010
0100
0001
1000
0001
1000
0100
1000
0001
0010
0001
1000
0010
1000
0001
,
0100
0001
0010
0100
1000
0100
1000
0001
0100
0001
1000
0010
0100
0010
1000
0001
,
0100
0010
0100
0001
0010
0100
1000
0100
0010
0100
1000
0100
0010
0001
0010
0100
,
0010
0001
0100
0010
1000
0100
0010
0001
1000
0010
0100
0010
1000
0100
1000
0100
,
0010
0001
0010
0001
1000
0010
1000
0010
0100
0001
0100
0001
1000
0010
0100
0001
,
0100
0001
0010
0100
1000
0010
0100
0001
0010
0100
1000
0001
0100
0001
1000
0010
,
0100
0001
1000
0100
0010
0001
0010
0100
1000
0001
0010
0001
0100
0010
1000
0100
,
0020
0000
0000
0000
0000
0000
0000
0000
0000
0030
0000
0000
0000
0000
0000
0000
;
