#TITLE:Overall;
#SUBTITLE:;
#ARTIST:Gaeddan and Braxen;
#TITLETRANSLIT:;
#SUBTITLETRANSLIT:;
#ARTISTTRANSLIT:;
#CREDIT:;
#BANNER:banner.png;
#BACKGROUND:bg.png;
#LYRICSPATH:;
#CDTITLE:!fsTitle.png;
#MUSIC:gaeddan_and_braxen-overall.mp3;
#OFFSET:-0.197;
#SAMPLESTART:53.015;
#SAMPLELENGTH:12.000;
#SELECTABLE:YES;
#BPMS:0.000=113.426;
#STOPS:;
#BGCHANGES:;
// cache tags:
#FIRSTBEAT:10.000;
#LASTBEAT:284.500;
#SONGFILENAME:Songs/Bemani.se Megapack/(fsFreak) Overall/steps.sm;
#HASMUSIC:1;
#HASBANNER:1;
#MUSICLENGTH:153.547;
// end cache tags

//---------------dance-single - fsFreak----------------
#NOTES:
     dance-single:
     fsFreak:
     Hard:
     11:
     0.974,0.834,0.059,0.410,1.000,975.000,9.000,63.000,0.000,2.000:
0000
0000
0000
0000
,
0000
0000
0000
0000
,
0000
0000
0000
0000
0000
0000
0000
0000
0000
0000
0000
0000
1000
0000
0100
1000
0000
0001
0010
0000
0100
1000
0000
0010
,
0100
0000
0001
1000
0000
0001
0010
0000
0100
0010
0000
0001
1000
0000
0010
0100
0000
0001
0010
0000
0001
1000
0000
0100
,
0010
0000
0001
0100
0000
0010
1000
0000
0100
1000
0000
0001
0010
0000
0100
1000
0000
0001
0010
0000
0100
1000
0000
0010
,
0100
0000
0001
1000
0000
0001
0010
0000
0100
0010
0000
0001
1000
0000
0010
0100
0000
0001
0010
0000
0001
1000
0000
0100
,
0010
0000
0001
0100
0000
0010
1000
0000
0100
1000
0000
0001
0010
0000
0001
0010
0000
0200
0010
0000
0000
0010
0000
0000
,
0310
0000
0010
0001
0000
0010
0001
0000
0000
1000
0000
0000
0001
0000
0000
0000
0000
0010
0000
0000
0000
0100
0000
0000
,
1000
0000
0010
0100
0000
0001
1000
0100
1000
0100
1000
0100
1000
0000
0010
0100
0000
0020
0100
0000
0000
0100
0000
0000
,
0100
0030
0000
0001
0010
0100
1000
0000
0000
1000
0000
0000
0100
0000
0000
0100
0000
0000
0100
0000
0010
0100
0000
0100
,
2000
0000
0000
0000
0000
0000
0100
0000
0000
0000
0000
0000
0100
0000
3000
0000
0100
0000
0010
0000
0000
0000
0001
0000
1000
0000
0000
0000
0001
0000
1000
0000
0000
0000
1000
0000
0001
0000
0000
0000
1000
0100
0010
0000
0000
0000
0001
0000
,
0100
0000
0100
0001
1000
0100
0010
0000
0100
0010
0000
0100
1000
0000
0001
0010
0001
1000
0001
0000
1000
0010
0000
1000
,
0100
1000
0001
1000
0000
0100
0010
0000
0100
1000
0000
0010
0100
0000
0001
1000
0000
0001
0010
0001
0010
0100
0000
1000
,
0010
0000
1000
0100
0000
1000
0100
0000
0100
1000
0000
0001
0100
0010
1000
0100
0000
0010
0001
0000
0010
0100
0000
1000
,
0010
1000
0100
1000
0000
0100
0010
0000
0100
1000
0100
1000
0100
0000
1000
0100
0000
0020
0100
0000
0000
0100
0000
0000
,
0130
0000
0100
1000
0000
0100
1000
0000
0000
0001
0000
0000
1000
0000
0000
0000
0000
0100
0000
0000
0000
0010
0000
0000
,
0001
0000
0100
0010
0000
1000
0001
0010
0001
0010
0001
0010
0001
0000
0100
0010
0000
0200
0010
0000
0000
0010
0000
0000
,
0010
0300
0000
1000
0100
0010
0001
0000
0000
0001
0000
0000
0010
0000
0000
0010
0000
0000
0010
0000
0100
0010
0000
0010
,
0002
0000
0000
0000
0000
0000
0010
0000
0000
0000
0000
0000
0010
0000
0003
0000
0010
0000
0100
0000
0000
0000
1000
0000
0001
0000
0000
0000
1000
0000
0001
0000
0000
0000
0001
0000
1000
0000
0000
0000
0001
0010
0100
0000
0000
0000
1000
0000
,
0010
0000
0010
1000
0001
0010
0100
0000
0010
0100
0000
0010
0001
0000
1000
0100
1000
0001
1000
0000
0001
0100
0000
0001
,
0010
0001
1000
0001
0000
0010
0100
0000
0010
0001
0000
0100
0010
0000
1000
0001
0000
1000
0100
1000
0100
0010
0000
0001
,
0100
0000
0001
0010
0000
0001
0010
0000
0010
0001
0000
1000
0010
0100
0001
0010
0000
0100
1000
0000
0100
0010
0000
0001
,
0100
0001
0010
0001
0000
0010
0100
0000
0010
0001
0010
0001
2100
0000
0000
3100
0000
0200
0010
0000
0300
0021
0000
0000
,
0031
0000
0001
0010
0000
0100
0010
0000
0001
1000
0000
0000
0120
0000
0000
0100
0000
0030
0001
0000
0010
0001
0000
0000
,
1000
0000
0010
0100
0001
0010
0100
0010
0001
0010
0000
0000
0020
0000
0000
0000
0000
0030
0001
0000
1000
0000
0000
0000
,
1000
0000
0001
0010
0100
1000
0001
1000
0001
1000
0000
0000
1000
0100
1000
0100
0000
0010
0100
0000
0000
0100
0000
0000
,
1000
0000
0100
0010
0100
1000
0010
0000
1000
0100
0000
0000
1000
0100
1000
0002
0000
0003
2000
0000
3000
0200
0000
0300
,
0020
0000
0031
1000
0000
0002
0000
0003
0000
0002
0000
0003
0100
0000
0010
0100
0000
0000
0001
0010
0100
1000
0000
0000
,
0100
0000
0010
0100
0000
2000
0100
0000
0000
0100
3000
0000
0001
0000
1000
0001
0000
0100
0010
0000
1000
0010
0000
0100
,
0001
0000
0200
0302
0003
0200
0000
0000
0000
0000
0300
0000
0001
0000
0000
0010
0000
0100
1000
0000
1000
0100
0000
0010
,
0100
0000
1000
0001
0010
0100
2000
0000
0000
0000
3000
0000
1000
0000
0100
1000
0000
0200
0010
0000
0000
0010
0000
0000
,
0010
0000
0000
0000
0000
0000
0010
0000
0000
0000
0300
0000
0010
0000
0000
0000
0001
0000
0100
0000
0000
0000
0001
0010
0001
0000
0000
0000
0200
0000
0010
0000
0000
0000
0000
0000
0010
0000
0300
0000
0020
0000
1000
0000
0000
0000
0000
0000
,
1030
0000
0100
0010
0000
0001
0100
0000
0010
1000
0000
0001
0100
0000
0010
0100
0000
0000
0001
0000
1000
0001
0000
0000
,
1000
0000
0100
0010
0000
0001
0100
0000
0000
0100
0000
0000
0100
0000
0010
0100
0000
0000
0010
0000
1000
0010
0000
0000
,
2100
0000
0000
0000
0000
0000
0100
0000
0000
0000
0000
0000
3210
0000
0000
0000
0000
0000
0010
0000
0000
0000
0300
0000
0002
0000
0000
0000
0000
0000
0000
0000
0003
0000
1000
0100
0010
0000
0000
0000
0001
0000
1000
0000
0000
0000
0001
0000
,
0010
0000
0100
1000
0100
1000
0100
0000
0010
0001
0000
0010
0002
0000
0000
1000
0000
0003
1000
0000
0200
1000
0000
0000
,
1300
0000
0001
1000
0000
0100
0010
0100
0010
0001
0000
0000
0001
0000
0010
0100
0000
2000
0100
0000
0000
3100
0000
0100
,
0010
0000
0000
0000
0001
0000
0010
0000
0000
0000
0001
0000
0010
0000
0000
0000
0001
0010
0001
0000
0000
0000
1000
0000
0100
0000
0000
0000
1000
0000
0010
0000
0000
0000
0100
0000
0001
0000
0000
0000
1000
0000
0100
0000
0000
0000
1000
0000
,
0100
1000
0100
0010
0000
0001
0010
0000
0100
1000
0000
0100
0010
0000
0001
0010
0000
0200
0010
0000
0000
0010
0000
0000
,
0310
0000
0010
0001
0000
0010
0001
0000
0000
1000
0000
0000
0001
0000
0000
0000
0000
0010
0000
0000
0000
0100
0000
0000
,
1000
0000
0010
0100
0000
0001
1000
0001
0100
0010
1000
0001
1000
0000
0010
0100
0000
0020
0100
0000
0000
0100
0000
0000
,
0100
0030
0000
0001
0010
0100
1000
0000
0000
1000
0000
0000
0100
0000
0000
0100
0000
0000
0100
0000
0010
0100
0000
0100
,
2000
0000
0000
0000
0000
0000
0100
0000
0000
0000
0000
0000
0100
0000
3000
0000
0100
0000
0010
0000
0000
0000
0001
0000
1000
0000
0000
0000
0001
0000
1000
0000
0000
0000
1000
0000
0001
0000
0000
0000
1000
0100
0010
0000
0000
0000
0001
0000
,
0100
0000
0100
0001
1000
0100
0010
0000
0100
0010
0000
0100
1000
0000
0001
0010
0001
1000
0001
0000
1000
0010
0000
1000
,
0100
1000
0001
1000
0000
0100
0010
0000
0100
1000
0000
0010
0100
0000
0001
1000
0000
0001
0010
0001
0010
0100
0000
1000
,
0010
0000
1000
0100
0000
1000
0100
0000
0100
1000
0000
0001
0100
0010
1000
0100
0000
0010
0001
0000
0010
0100
0000
1000
,
0010
1000
0100
1000
0000
0100
0010
0000
0001
1000
0001
1000
0200
0000
0300
1000
0000
0200
0010
0000
0300
0021
0000
0000
,
0031
0000
0001
0010
0000
0100
0010
0000
0001
1000
0000
0000
0120
0000
0000
0100
0000
0030
0001
0000
0010
0001
0000
0000
,
1000
0000
0010
0100
0001
1000
0100
1000
0001
0010
0000
0000
0020
0000
0000
0000
0000
0030
0001
0000
1000
0000
0000
0000
,
1000
0000
0001
0010
0100
1000
0010
1000
0001
1000
0000
0000
1000
0001
1000
0100
0000
0010
0100
0000
0000
0100
0000
0000
,
1000
0000
0100
0010
0100
1000
0010
0000
1000
0100
0000
0000
1000
0001
1000
0002
0000
0003
2000
0000
3000
0200
0000
0300
,
0020
0000
0031
0100
0000
0002
0000
0003
0000
0002
0000
0003
0100
0000
0010
0100
0000
0000
0001
0010
0100
1000
0000
0000
,
0100
0000
0010
0100
0000
2000
0100
0000
0000
0100
3000
0000
0001
0000
1000
0001
0000
0100
0010
0000
1000
0010
0000
0100
,
0001
0000
0200
0302
0003
2000
0000
0000
0000
0000
3000
0000
0001
0000
0000
0010
0000
0100
1000
0000
1000
0100
0000
0010
,
0100
0000
1000
0001
0010
0100
2000
0000
0000
0000
3000
0000
1000
0000
0100
1000
0000
0200
0010
0000
0000
0010
0000
0000
,
0010
0000
0000
0000
0000
0000
0010
0000
0000
0000
0300
0000
0010
0000
0000
0000
0001
0000
0100
0000
0000
0000
0010
0100
0010
0000
0000
0000
0200
0000
0010
0000
0000
0000
0000
0000
0010
0000
0300
0000
0020
0000
1000
0000
0000
0000
0000
0000
,
1030
0000
0100
0010
0000
0001
0100
0000
0010
1000
0000
0001
0100
0000
0010
0100
0000
0000
0001
0000
1000
0001
0000
0000
,
1000
0000
0100
0010
0000
0001
0100
0000
0000
0100
0000
0000
0100
0000
0010
0100
0000
0000
0010
0000
1000
0010
0000
0000
,
2100
0000
0000
0000
0000
0000
0100
0000
0000
0000
0000
0000
3210
0000
0000
0000
0000
0000
0010
0000
0000
0000
0300
0000
0002
0000
0000
0000
0000
0000
0000
0000
0003
0000
1000
0100
0010
0000
0000
0000
0001
0000
1000
0000
0000
0000
0001
0000
,
0010
0000
0100
1000
0001
1000
0100
0000
0010
0001
0000
0010
0002
0000
0000
1000
0000
0003
1000
0000
0200
1000
0000
0000
,
1300
0000
0001
1000
0000
0100
0010
0100
0010
0001
0000
0000
0001
0000
0010
0100
0000
2000
0100
0000
0000
3100
0000
0100
,
0010
0000
0000
0000
0001
0000
0010
0000
0000
0000
0001
0000
0010
0000
0000
0000
0001
0010
0001
0000
0000
0000
1000
0000
0100
0000
0000
0000
1000
0000
0010
0000
0000
0000
0100
0000
0001
0000
0000
0000
1000
0000
0100
0000
0000
0000
1000
0000
,
0100
1000
0100
0010
0000
0001
0010
0000
0100
1000
0000
0100
0010
0000
0001
0100
0000
0002
1000
0000
0000
1000
0000
0000
,
1003
0000
1000
0100
0000
0100
1000
0000
0000
0001
0000
0000
1000
0000
0000
0000
0000
0100
0000
0000
0000
0010
0000
0000
,
0001
0000
0100
0010
0000
1000
0001
0010
0100
0010
1000
0010
0001
0000
0100
0010
0000
0200
0010
0000
0000
0010
0000
0000
,
0010
0300
0000
1000
0100
1000
0001
0000
0000
0001
0000
0000
0010
0000
0000
0010
0000
0000
0010
0000
0100
0010
0000
0010
,
0002
0000
0000
0000
0000
0000
0010
0000
0000
0000
0000
0000
0010
0000
0003
0000
0010
0000
0100
0000
0000
0000
1000
0000
0001
0000
0000
0000
1000
0000
0001
0000
0000
0000
0001
0000
1000
0000
0000
0000
0001
0010
0100
0000
0000
0000
1000
0000
,
0010
0000
0010
1000
0001
0010
0100
0000
0010
0100
0000
0010
0001
0000
1000
0100
1000
0001
1000
0000
0001
0100
0000
0001
,
0010
0001
1000
0001
0000
0010
0100
0000
0010
0001
0000
0100
0010
0000
1000
0001
0000
1000
0100
1000
0100
0010
0000
0001
,
0100
0000
0001
0010
0000
0001
0010
0000
0010
0001
0000
1000
0010
0100
0001
0010
0000
0100
1000
0000
0100
0010
0000
0001
,
0100
0001
0010
0001
0000
0010
0100
0000
0010
0001
0010
0001
0020
0000
0000
0000
0000
0000
0000
0000
0000
0000
0000
0000
,
0000
0030
0000
0000
0000
0000
0000
0000
;

//---------------dance-single - for Spread----------------
#NOTES:
     dance-single:
     for Spread:
     Challenge:
     13:
     1.000,1.000,1.000,0.410,1.000,983.000,232.000,63.000,0.000,6.000:
0000
0000
0000
0000
,
0000
0000
0000
0000
,
0000
0000
0000
0000
0000
0000
0000
0000
0000
0000
0000
0000
1100
0000
0100
1000
0000
0001
0110
0000
0100
1000
0000
0010
,
1100
0000
0001
1000
0000
0001
0011
0000
0100
0010
0000
0001
1100
0000
0010
0100
0000
0001
1010
0000
0001
1000
0000
0100
,
0011
0000
0001
0100
0000
0010
1010
0000
0100
1000
0000
0001
1010
0000
0100
1000
0000
0001
0110
0000
0100
1000
0000
0010
,
0101
0000
0001
1000
0000
0001
1010
0000
0100
0010
0000
0001
1010
0000
0010
0100
0000
0001
0110
0000
0001
1000
0000
0100
,
0011
0000
0001
0100
0000
0010
1010
0000
0100
1000
0000
0001
1010
0000
0001
0010
0000
0200
0010
0000
0000
0010
0000
0000
,
0310
0000
0010
0001
0000
0010
1001
0000
0000
1000
0000
0000
0101
0000
0000
0000
0000
0010
0100
0000
0000
0100
0000
0000
,
1001
0000
0010
0100
0000
0001
1001
0100
1000
0100
1000
0100
1100
0000
0010
0100
0000
0020
1000
0000
0000
0100
0000
0000
,
1000
0030
0000
0001
0010
0100
1001
0000
0000
1000
0000
0000
0101
0000
0000
0100
0000
0000
0101
0000
0010
0100
0000
0100
,
2100
0000
0000
0000
0000
0000
0100
0000
0000
0000
0000
0000
0001
0000
3000
0000
0100
0000
0010
0000
0000
0000
0001
0000
1100
0000
0000
0000
0001
0000
1000
0000
0000
0000
1000
0000
1001
0000
0000
0000
1000
0100
0010
0000
0000
0000
0001
0000
,
0110
0000
0100
0001
1000
0100
0011
0000
0100
0010
0000
0100
1100
0000
0001
0010
0001
1000
1001
0000
1000
0010
0000
1000
,
1100
1000
0001
1000
0000
0100
0011
0000
0100
1000
0000
0010
1100
0000
0001
1000
0000
0001
0110
0001
0010
0100
0000
1000
,
0011
0000
1000
0100
0000
1000
0101
0000
0100
1000
0000
0001
1100
0010
1000
0100
0000
0010
1001
0000
0010
0100
0000
1000
,
0011
1000
0100
1000
0000
0100
0011
0000
0100
1000
0100
1000
1100
0000
1000
0100
0000
0020
1000
0000
0000
0100
0000
0000
,
1030
0000
0100
1000
0000
0100
1100
0000
0000
0001
0000
0000
1001
0000
0000
0000
0000
0100
0100
0000
0000
0010
0000
0000
,
1001
0000
0100
0010
0000
1000
1001
0010
0001
0010
0001
0010
1001
0000
0100
0010
0000
0200
0001
0000
0000
0010
0000
0000
,
0001
0300
0000
1000
0100
0010
1001
0000
0000
0001
0000
0000
0011
0000
0000
0010
0000
0000
0011
0000
0100
0010
0000
0010
,
0102
0000
0000
0000
0000
0000
0010
0000
0000
0000
0000
0000
0010
0000
0003
0000
0010
0000
0100
0000
0000
0000
1000
0000
0011
0000
0000
0000
1000
0000
0001
0000
0000
0000
0001
0000
1001
0000
0000
0000
0001
0010
0100
0000
0000
0000
1000
0000
,
0011
0000
0010
1000
0001
0010
1100
0000
0010
0100
0000
0010
0011
0000
1000
0100
1000
0001
1001
0000
0001
0100
0000
0001
,
0011
0001
1000
0001
0000
0010
1100
0000
0010
0001
0000
0100
0011
0000
1000
0001
0000
1000
0101
1000
0100
0010
0000
0001
,
1100
0000
0001
0010
0000
0001
1010
0000
0010
0001
0000
1000
0011
0100
0001
0010
0000
0100
1100
0000
0100
0010
0000
0001
,
1100
0001
0010
0001
0000
0010
0101
0000
0010
0001
0010
0001
2100
0000
0000
3100
0000
0200
0010
0000
0300
0021
0000
0000
,
0031
0000
0001
0010
0000
0100
0011
0000
0001
1000
0000
0000
0120
0000
0000
0100
0000
0030
0011
0000
0010
0001
0000
0000
,
1100
0000
0010
0100
0001
0010
1100
0010
0001
0010
0000
0000
0021
0000
0000
0000
0000
0030
1001
0000
1000
0000
0000
0000
,
1100
0000
0001
0010
0100
1000
0011
1000
0001
1000
0000
0000
1001
0100
1000
0100
0000
0010
0110
0000
0000
0100
0000
0000
,
1100
0000
0100
0010
0100
1000
0011
0000
1000
0100
0000
0000
1100
0100
1000
0002
0000
0003
2100
0000
3000
0200
0000
0300
,
0021
0000
0031
1000
0000
0002
1000
0003
0000
0002
0000
0003
0101
0000
0010
0100
0000
0000
0011
0010
0100
1000
0000
0000
,
0110
0000
0010
0100
0000
2000
0100
0000
0000
0100
3000
0000
1001
0000
1000
0001
0000
0100
0011
0000
1000
0010
0000
0100
,
1001
0000
0200
0302
0003
0200
0010
0000
0000
0000
0300
0000
0011
0000
0000
0010
0000
0100
1100
0000
1000
0100
0000
0010
,
0110
0000
1000
0001
0010
0100
2100
0000
0000
0000
3000
0000
1100
0000
0100
1000
0000
0200
0010
0000
0000
0010
0000
0000
,
0010
0000
0000
0000
0000
0000
0010
0000
0000
0000
0300
0000
0011
0000
0000
0000
0001
0000
0100
0000
0000
0000
0001
0010
0011
0000
0000
0000
0200
0000
0010
0000
0000
0000
0000
0000
0010
0000
0300
0000
0020
0000
1000
0000
0000
0000
0000
0000
,
1030
0000
0100
0010
0000
0001
0110
0000
0010
1000
0000
0001
1100
0000
0010
0100
0000
0000
0011
0000
1000
0001
0000
0000
,
1010
0000
0100
0010
0000
0001
1100
0000
0000
0100
0000
0000
0110
0000
0010
0100
0000
0000
0110
0000
1000
0010
0000
0000
,
2100
0000
0000
0000
0000
0000
0100
0000
0000
0000
0000
0000
3210
0000
0000
0000
0000
0000
0010
0000
0000
0000
0300
0000
0002
0000
0000
0000
0000
0000
0000
0000
0003
0000
1000
0100
0011
0000
0000
0000
0001
0000
1000
0000
0000
0000
0001
0000
,
1010
0000
0100
1000
0100
1000
1100
0000
0010
0001
0000
0010
0012
0000
0000
1000
0000
0003
1001
0000
0200
1000
0000
0000
,
1300
0000
0001
1000
0000
0100
0011
0100
0010
0001
0000
0000
0011
0000
0010
0100
0000
2000
0110
0000
0000
3100
0000
0100
,
0011
0000
0000
0000
0001
0000
0010
0000
0000
0000
0001
0000
0110
0000
0000
0000
0001
0010
0001
0000
0000
0000
1000
0000
0110
0000
0000
0000
1000
0000
0010
0000
0000
0000
0100
0000
1001
0000
0000
0000
1000
0000
0100
0000
0000
0000
1000
0000
,
0110
1000
0100
0010
0000
0001
1010
0000
0100
1000
0000
0100
0011
0000
0001
0010
0000
0200
0010
0000
0000
0010
0000
0000
,
0310
0000
0010
0001
0000
0010
0101
0000
0000
1000
0000
0000
0101
0000
0000
0000
0000
0010
0100
0000
0000
0100
0000
0000
,
1010
0000
0010
0100
0000
0001
1001
0001
0100
0010
1000
0001
1010
0000
0010
0100
0000
0020
0101
0000
0000
0100
0000
0000
,
0101
0030
0000
0001
0010
0100
1010
0000
0000
1000
0000
0000
0110
0000
0000
0100
0000
0000
0101
0000
0010
0100
0000
0100
,
2100
0000
0000
0000
0000
0000
0100
0000
0000
0000
0000
0000
0100
0000
3000
0000
0100
0000
0010
0000
0000
0000
0001
0000
1100
0000
0000
0000
0001
0000
1000
0000
0000
0000
1000
0000
0101
0000
0000
0000
1000
0100
0010
0000
0000
0000
0001
0000
,
0110
0000
0100
0001
1000
0100
0011
0000
0100
0010
0000
0100
1010
0000
0001
0010
0001
1000
0101
0000
1000
0010
0000
1000
,
0110
1000
0001
1000
0000
0100
0011
0000
0100
1000
0000
0010
0101
0000
0001
1000
0000
0001
0110
0001
0010
0100
0000
1000
,
0011
0000
1000
0100
0000
1000
0110
0000
0100
1000
0000
0001
1100
0010
1000
0100
0000
0010
0011
0000
0010
0100
0000
1000
,
0011
1000
0100
1000
0000
0100
0011
0000
0001
1000
0001
1000
0210
0000
0300
1000
0000
0200
0010
0000
0300
0021
0000
0000
,
0031
0000
0001
0010
0000
0100
0011
0000
0001
1000
0000
0000
0120
0000
0000
0100
0000
0030
0011
0000
0010
0001
0000
0000
,
1100
0000
0010
0100
0001
1000
0101
1000
0001
0010
0000
0000
0021
0000
0000
0000
0000
0030
0101
0000
1000
0000
0000
0000
,
1001
0000
0001
0010
0100
1000
0011
1000
0001
1000
0000
0000
1100
0001
1000
0100
0000
0010
0110
0000
0000
0100
0000
0000
,
1100
0000
0100
0010
0100
1000
0011
0000
1000
0100
0000
0000
1001
0001
1000
0002
0000
0003
2100
0000
3000
0200
0000
0300
,
0021
0000
0031
0100
0000
0002
0100
0003
0000
0002
0000
0003
0101
0000
0010
0100
0000
0000
0011
0010
0100
1000
0000
0000
,
0101
0000
0010
0100
0000
2000
0100
0000
0000
0100
3000
0000
1001
0000
1000
0001
0000
0100
0011
0000
1000
0010
0000
0100
,
1001
0000
0200
0302
0003
2000
0001
0000
0000
0000
3000
0000
1001
0000
0000
0010
0000
0100
1100
0000
1000
0100
0000
0010
,
0101
0000
1000
0001
0010
0100
2100
0000
0000
0000
3000
0000
1100
0000
0100
1000
0000
0200
0010
0000
0000
0010
0000
0000
,
0010
0000
0000
0000
0000
0000
0010
0000
0000
0000
0300
0000
0011
0000
0000
0000
0001
0000
0100
0000
0000
0000
0010
0100
0011
0000
0000
0000
0200
0000
0010
0000
0000
0000
0000
0000
0010
0000
0300
0000
0020
0000
1000
0000
0000
0000
0000
0000
,
1030
0000
0100
0010
0000
0001
0110
0000
0010
1000
0000
0001
0110
0000
0010
0100
0000
0000
0101
0000
1000
0001
0000
0000
,
1100
0000
0100
0010
0000
0001
0101
0000
0000
0100
0000
0000
0110
0000
0010
0100
0000
0000
1010
0000
1000
0010
0000
0000
,
2100
0000
0000
0000
0000
0000
0100
0000
0000
0000
0000
0000
3210
0000
0000
0000
0000
0000
0010
0000
0000
0000
0300
0000
0102
0000
0000
0000
0000
0000
0000
0000
0003
0000
1000
0100
0011
0000
0000
0000
0001
0000
1000
0000
0000
0000
0001
0000
,
0110
0000
0100
1000
0001
1000
0101
0000
0010
0001
0000
0010
0012
0000
0000
1000
0000
0003
1100
0000
0200
1000
0000
0000
,
1300
0000
0001
1000
0000
0100
0011
0100
0010
0001
0000
0000
0011
0000
0010
0100
0000
2000
0100
0000
0000
3100
0000
0100
,
1010
0000
0000
0000
0001
0000
0010
0000
0000
0000
0001
0000
0110
0000
0000
0000
0001
0010
0001
0000
0000
0000
1000
0000
0110
0000
0000
0000
1000
0000
0010
0000
0000
0000
0100
0000
0101
0000
0000
0000
1000
0000
0100
0000
0000
0000
1000
0000
,
0101
1000
0100
0010
0000
0001
0110
0000
0100
1000
0000
0100
0011
0000
0001
0100
0000
0002
1000
0000
0000
1000
0000
0000
,
1003
0000
1000
0100
0000
0100
1100
0000
0000
0001
0000
0000
1010
0000
0000
0000
0000
0100
0100
0000
0000
0010
0000
0000
,
0011
0000
0100
0010
0000
1000
0011
0010
0100
0010
1000
0010
0011
0000
0100
0010
0000
0200
0010
0000
0000
0010
0000
0000
,
0010
0300
0000
1000
0100
1000
0011
0000
0000
0001
0000
0000
0011
0000
0000
0010
0000
0000
0110
0000
0100
0010
0000
0010
,
1002
0000
0000
0000
0000
0000
0010
0000
0000
0000
0000
0000
0110
0000
0003
0000
0010
0000
0100
0000
0000
0000
1000
0000
0011
0000
0000
0000
1000
0000
0001
0000
0000
0000
0001
0000
1100
0000
0000
0000
0001
0010
0100
0000
0000
0000
1000
0000
,
0011
0000
0010
1000
0001
0010
1100
0000
0010
0100
0000
0010
0011
0000
1000
0100
1000
0001
1100
0000
0001
0100
0000
0001
,
0110
0001
1000
0001
0000
0010
0101
0000
0010
0001
0000
0100
1010
0000
1000
0001
0000
1000
0110
1000
0100
0010
0000
0001
,
1100
0000
0001
0010
0000
0001
0110
0000
0010
0001
0000
1000
0011
0100
0001
0010
0000
0100
1100
0000
0100
0010
0000
0001
,
1100
0001
0010
0001
0000
0010
0101
0000
0010
0001
0010
0001
0120
0000
0000
0000
0000
0000
0000
0000
0000
0000
0000
0000
,
0000
0030
0000
0000
0000
0000
0000
0000
;
