#TITLE:Black Dragon v2;
#SUBTITLE:;
#ARTIST:Luca Turilli (from Rhapsody);
#TITLETRANSLIT:;
#SUBTITLETRANSLIT:;
#ARTISTTRANSLIT:;
#CREDIT:;
#BANNER:blackdragonv2-bn.PNG;
#BACKGROUND:blackdragonv2-bg.PNG;
#LYRICSPATH:;
#CDTITLE:OMEGAspike.PNG;
#MUSIC:Rhapsody - Black Dragon.mp3;
#OFFSET:0.000;
#SAMPLESTART:26.320;
#SAMPLELENGTH:15.260;
#SELECTABLE:YES;
#BPMS:0.000=173.000;
#STOPS:;
#BGCHANGES:;
// cache tags:
#FIRSTBEAT:4.000;
#LASTBEAT:860.000;
#SONGFILENAME:Songs/toune 2/(OMEGAspike)Black Dragon v2/Rhapsody - Black Dragon.sm;
#HASMUSIC:1;
#HASBANNER:1;
#MUSICLENGTH:298.925;
// end cache tags

//---------------dance-single - ----------------
#NOTES:
     dance-single:
     :
     Hard:
     14:
     1.000,1.000,1.000,0.124,1.000,2604.000,419.000,37.000,0.000,10.000:
0000
0000
0000
0000
,
1001
0100
0010
1000
0001
0100
0001
1000
0010
1000
0001
0100
0001
1000
0100
0010
,
1001
0010
0100
1000
0001
0100
0001
1000
0010
0100
0001
1000
0100
0010
0001
0010
,
1100
0000
0011
0000
1001
0000
1010
0000
0101
0000
1001
0000
,
1100
0001
0100
0001
1000
0010
0100
0001
0100
0010
1000
0100
0010
0001
1000
0001
,
1100
0001
0100
0010
1000
0001
0100
0001
1000
0100
0010
0100
1000
0010
0100
0010
,
1100
0000
0011
0000
0101
0000
1010
0000
0000
1001
0000
0000
,
1001
0100
0001
1000
0010
0100
0001
1000
0100
0010
0001
0010
0100
1000
0001
0100
,
1010
0100
0001
1000
0010
0100
0001
1000
0100
0010
0001
0010
0100
1000
0010
0100
,
1001
0000
0110
0000
1010
0000
0110
0000
0101
0000
1001
0000
,
0011
0100
1000
0010
0100
0001
1000
0001
0100
0010
1000
0100
0010
0001
0010
0100
,
1010
0100
0010
0001
1000
0010
0100
0001
0010
0100
1000
0010
0100
0001
1000
0100
,
0011
0000
0110
0000
1010
0000
0101
0000
0000
1001
0000
0000
,
1001
0100
0010
0100
1000
0001
0010
0100
0010
0001
0100
0010
1000
0001
0100
0010
,
1100
0010
0100
0001
0010
0100
1000
0100
0010
0001
1000
0010
0100
0001
1000
0100
,
0011
0000
0110
0000
1010
0000
0110
0000
0011
0000
1001
0000
,
0110
1000
0001
0100
0001
1000
0100
0010
0001
0100
0010
1000
0100
0010
0001
1000
,
0011
1000
0001
0100
0010
1000
0010
0100
0010
1000
0001
0100
0001
1000
0100
0010
,
1001
0000
0110
0000
1010
0000
0101
0000
0000
0011
0000
0000
,
1001
0000
0110
0000
0101
0000
1010
0000
0000
1100
0000
0000
,
0001
0100
0001
0100
1010
0001
0010
0001
0010
0001
0010
0001
1100
0010
0100
0010
,
0100
0010
0100
0010
1001
0100
0001
0100
0001
0100
0001
0100
1010
0100
0010
0100
,
0010
0100
0010
0100
0011
1000
0010
1000
0010
1000
0010
1000
0101
0010
0001
0010
,
1100
0001
1000
0010
1000
0001
1000
0010
1000
0001
1000
0100
0010
0001
1000
0100
,
0011
1000
0001
0100
0001
1000
0001
0100
0001
1000
0001
0010
0100
1000
0001
0010
,
0100
0010
0100
0010
1100
0001
0100
0001
0100
0001
0100
0001
1010
0100
0010
0100
,
0010
0100
0010
0100
0011
1000
0100
1000
0100
1000
0100
1000
0110
0001
1000
0001
,
1000
0001
1000
0001
1010
0100
0001
0100
0001
0100
0001
0100
1001
0010
0100
0010
,
1100
0001
0100
0010
0100
0001
0100
0010
0100
0001
1000
0100
0010
0001
1000
0100
,
0011
1000
0010
0100
0010
1000
0010
0100
0010
1000
0001
0010
0100
1000
0001
0010
,
0100
1000
0100
1000
0011
0100
0010
0100
0010
0100
0010
0100
1010
0001
0100
0001
,
0100
0001
0100
0001
1100
0010
0001
0010
0001
0010
0001
0010
1100
0010
0100
0010
,
0100
0010
0100
0010
1001
0010
1000
0010
1000
0010
1000
0010
0101
1000
0100
1000
,
0011
0100
0001
0010
0001
0100
0001
0010
0001
0100
0001
0010
0100
1000
0001
0010
,
1100
0010
1000
0100
1000
0010
1000
0100
1000
0010
1000
0100
0010
0001
1000
0100
,
0010
0100
0010
0100
0011
1000
0010
1000
0010
1000
0010
1000
0101
0010
0100
0010
,
0100
0010
0100
0010
1100
0001
0010
0001
0010
0001
0010
0001
0110
1000
0010
1000
,
0010
1000
0010
1000
0101
0010
0100
0010
0100
0010
0100
0010
1001
0100
0001
0100
,
1010
0001
1000
0010
1000
0001
1000
0010
1000
0001
1000
0100
0010
0001
1000
0100
,
0011
1000
0001
0100
0001
1000
0001
0100
0001
1000
0001
0010
0100
1000
0001
0100
,
1001
0100
1010
0100
0001
0010
1100
0010
,
1001
0100
1010
0100
0001
1000
0011
1000
,
0110
1000
0011
0100
1000
0001
0110
1000
,
0101
0010
1100
0010
0100
0001
1010
0100
,
1001
0100
0011
0100
1000
0010
0101
0010
,
1100
0010
0101
0010
1000
0010
0101
1000
,
0110
0001
0110
1000
0001
0100
1010
0100
,
1001
0010
1001
0100
0001
0010
1100
0010
,
1001
0100
0011
0101
1010
1100
1001
0101
,
1000
0001
1000
0001
1100
0010
0100
0010
0100
0010
0100
0010
0101
1000
0100
1000
,
0100
1000
0100
1000
0110
0001
0100
0001
0100
0001
0100
0001
1010
0100
0010
0100
,
0010
0100
0010
0100
0011
1000
0100
1000
0100
1000
0100
1000
0101
0010
1000
0010
,
1001
0100
1000
0001
1000
0100
1000
0001
1000
0100
0010
0001
0100
0010
1000
0100
,
0011
1000
0001
0010
0001
1000
0001
0010
0001
1000
0001
0010
0100
1000
0010
0100
,
0001
1000
0001
1000
0110
1000
0010
1000
0010
1000
0010
1000
0101
0010
0100
0010
,
0100
0010
0100
0010
1100
0010
0001
0010
0001
0010
0001
0010
1100
0001
0100
0001
,
0100
0001
0100
0001
1010
0100
0010
0100
0010
0100
0010
0100
0011
1000
0010
1000
,
0110
0001
0100
0010
0100
0001
0100
0010
0100
0001
1000
0100
0010
0001
1000
0001
,
0110
1000
0010
0100
0010
1000
0010
0100
0010
1000
0001
0010
0100
1000
0010
0100
,
0001
0010
0001
0010
1100
0010
0100
0010
0100
0010
0100
0010
1001
0100
0001
0100
,
0001
0100
0001
0100
1010
0001
1000
0001
1000
0001
1000
0001
1010
0100
0001
0100
,
0001
0100
0001
0100
0011
1000
0010
1000
0010
1000
0010
1000
0011
1000
0100
1000
,
0101
1000
0001
0100
0001
1000
0001
0100
0001
1000
0001
0100
0010
1000
0100
0010
,
1100
0001
1000
0010
1000
0001
1000
0010
1000
0001
1000
0010
0100
0001
1000
0100
,
0010
0100
0010
0100
0011
1000
0010
1000
0010
1000
0010
1000
0101
1000
0001
1000
,
0001
1000
0001
1000
0101
0010
0100
0010
0100
0010
0100
0010
1100
0001
0010
0001
,
0010
0001
0010
0001
0110
1000
0001
1000
0001
1000
0001
1000
0101
0010
1000
0010
,
1100
0010
0001
0010
0100
0010
0001
0010
0100
1000
0001
0100
0010
1000
0100
0010
,
1001
0100
0010
0100
1000
0100
0010
0100
1000
0100
0010
0001
0100
0010
1000
0001
,
0110
1000
0101
0010
1000
0100
0011
0100
,
1001
0010
0101
0010
1000
0001
1100
0001
,
0110
0001
1100
0010
0001
1000
0110
0001
,
1010
0100
0011
0100
0010
1000
0101
0010
,
1001
0010
1100
0010
0001
0100
1010
0100
,
0011
0100
1010
0100
0001
0100
1010
0001
,
0110
1000
0110
0001
1000
0010
0101
0010
,
1001
0100
1001
0010
1000
0100
0011
0100
,
1001
0100
1010
1001
0010
0100
0010
0100
,
1001
0100
0001
0100
0001
0100
0001
0100
0001
0100
0001
0100
0001
0100
0001
0100
,
1010
0100
0010
0100
0010
0100
0010
0100
0011
1000
0010
1000
0010
1000
0010
1000
,
0101
1000
0001
1000
0001
1000
0001
1000
0001
1000
0001
1000
0001
1000
0001
1000
,
0101
0010
0100
0010
0100
0010
0100
0010
0100
0010
0100
0010
0100
0010
0100
0010
,
1100
0001
0100
0001
0100
0001
0100
0001
0100
0001
0100
0001
0100
0001
0100
0001
,
1010
0100
0010
0100
0010
0100
0010
0100
1001
0010
0001
0010
0001
0010
0001
0010
,
1100
0001
0100
0001
0100
0001
0100
0001
0100
0001
0100
0001
0100
0001
0100
0001
,
0100
0001
0100
0001
1100
0000
0000
0000
0010
0000
0001
0000
1010
0000
0100
0000
,
1001
0010
1000
0010
1000
0010
1000
0010
1000
0010
1000
0010
1000
0010
1000
0010
,
0101
1000
0100
1000
0100
1000
0100
1000
0011
0100
0010
0100
0010
0100
0010
0100
,
1001
0100
0001
0100
0001
0100
0001
0100
0001
0100
0001
0100
1010
0001
1000
0001
,
1000
0001
1000
0001
1000
0001
1000
0001
0110
1000
0100
1000
0100
1000
0100
1000
,
0011
0100
0010
0100
0010
0100
0010
0100
0010
0100
0010
0100
1001
0010
1000
0010
,
1000
0010
1000
0010
1000
0010
1000
0010
1001
0100
0001
0100
0001
0100
0001
0100
,
1010
0100
0010
0100
0010
0100
0010
0100
0010
0100
0010
0100
0010
0100
0010
0100
,
1001
0100
1010
0100
1010
0000
1001
0000
,
1001
0100
0001
0100
0001
0100
0001
0100
0001
0100
0001
0100
0001
0100
0001
0100
,
1010
0100
0010
0100
0010
0100
0010
0100
0011
1000
0100
1000
0100
1000
0100
1000
,
0101
0010
1000
0010
1000
0010
1000
0010
1000
0010
1000
0010
1000
0010
1000
0010
,
0101
1000
0001
1000
0001
1000
0001
1000
0001
1000
0001
1000
0001
1000
0001
1000
,
0110
0001
0100
0001
0100
0001
0100
0001
0100
0001
0100
0001
0100
0001
0100
0001
,
1010
0100
0010
0100
0010
0100
0010
0100
1001
0010
0001
0010
0001
0010
0001
0010
,
1100
0001
0100
0001
0100
0001
0100
0001
1000
0001
1000
0001
1000
0001
1000
0001
,
0100
0010
0100
0010
0100
0010
0100
0010
1000
0100
1000
0100
1000
0100
1000
0100
,
0011
0000
0000
0101
0000
0000
1010
0000
,
1001
0000
0000
0110
0000
0000
1010
0000
,
1001
0000
0000
0000
0000
0000
0000
0000
0000
0011
1000
0001
,
1100
0000
0000
0101
0000
0000
1001
0000
,
1010
0001
0100
0001
1000
0010
0100
0001
1000
0100
0010
0100
1000
0001
0100
0010
,
1100
0010
0001
0100
0001
1000
0010
0100
0001
1000
0100
0010
0001
0010
0100
1000
,
0101
0000
1010
0000
0101
0000
1001
0000
0110
0000
1100
0000
,
0011
0100
1000
0001
0100
0001
1000
0010
0100
0001
1000
0100
0010
0001
0010
0100
,
1001
0100
0010
0001
0100
0001
1000
0010
0100
0001
1000
0010
0100
0001
1000
0100
,
0011
0000
0101
0000
1010
0000
0110
0000
0000
1001
0000
0000
,
1010
0100
0001
1000
0001
0100
0001
1000
0010
0100
0010
1000
0001
0100
0001
1000
,
0011
1000
0001
0100
0010
1000
0100
0010
0001
0010
0100
1000
0010
0100
0001
0010
,
1100
0000
1010
0000
0110
0000
0011
0000
0101
0000
0110
0000
,
1001
0100
0010
1000
0001
0100
0001
1000
0100
0010
0001
0010
0100
1000
0010
0100
,
0011
0100
0010
1000
0100
0010
0001
0100
0010
1000
0001
0100
0001
1000
0010
0100
,
1001
0000
0110
0000
1010
0000
0011
0000
0000
0011
0000
0000
,
0110
0000
1010
0000
0101
0000
1001
0000
0000
1001
0000
0000
,
0010
0100
0010
0100
0001
0100
0001
0100
0010
0100
0010
0100
0001
0100
0001
0100
,
0010
0100
0010
0100
0001
0100
0001
0100
2020
0000
0000
3030
2020
0000
0000
3030
,
0001
1000
0001
1000
0001
0100
0001
0100
0001
1000
0001
1000
0001
0100
0001
0100
,
0001
1000
0001
1000
0001
0100
0001
0100
2002
0000
3113
0000
0000
0000
0110
0000
,
1000
0010
1000
0010
1000
0001
1000
0001
1000
0010
1000
0010
1000
0001
1000
0001
,
1000
0010
1000
0010
1000
0001
1000
0001
0220
0000
0000
0330
0220
0000
0000
0330
,
0001
0010
0001
0010
0001
0100
0001
0100
0001
1000
0001
1000
0001
0100
0001
0100
,
0001
0010
0001
0010
0001
0100
0001
0100
2002
0000
0000
3103
0010
0100
0001
1000
,
0010
0100
0010
0100
0010
1000
0010
1000
0010
0100
0010
0100
0010
1000
0010
1000
,
0010
0100
0010
0100
0010
1000
0010
1000
0022
0000
0000
0033
0022
0000
0000
0033
,
1000
0100
1000
0100
1000
0010
1000
0010
1000
0100
1000
0100
1000
0010
1000
0010
,
1000
0100
1000
0100
1000
0010
1000
0010
2200
0000
3311
0000
0000
0000
0011
0000
,
0010
0100
0010
0100
0010
0001
0010
0001
0010
0100
0010
0100
1000
0100
1000
0100
,
0010
0100
0010
0100
0010
0001
0010
0001
2020
0000
0000
3030
2020
0000
0000
3030
,
0001
0100
0001
1000
0001
0010
0001
0100
0001
1000
0001
0010
0001
0000
1100
0000
,
1010
0000
0110
0000
0101
0000
0110
0000
1001
0000
0100
0010
1000
0010
0100
0000
,
1001
0100
0010
1100
0010
0001
1010
0100
,
1001
0010
0100
0011
0100
1000
0110
0001
,
1010
0100
0001
1010
0100
1000
0101
0010
,
1001
0100
0010
0101
0010
0100
1010
0100
,
1001
0010
0100
0011
1000
0010
1001
0100
,
1010
0100
0001
1010
0100
0001
0110
1000
,
0110
0001
0100
1010
0100
0001
0110
1000
,
0011
0100
0001
1010
0100
0001
1100
0010
,
0101
0010
1000
0101
0010
0100
1001
0100
,
1001
0010
0100
1010
0100
0010
0101
0010
,
1001
0100
0001
1100
0001
0100
0011
1000
,
0110
1000
0001
0110
1000
0001
0110
1000
,
0101
0010
1000
0011
0100
0001
0110
1000
,
0110
1000
0001
0110
1000
0100
0011
0100
,
1001
0010
0001
1010
0100
0001
1100
0010
,
1100
0010
0001
0110
1000
0001
1010
0100
,
1001
0010
0100
0011
0100
1000
0101
0010
,
1100
0000
0000
0010
0000
0000
0001
0000
0000
1010
0000
0000
0101
0000
0010
0000
1000
0000
0101
0000
0010
0000
1000
0000
,
0101
0000
2000
0000
,
3200
0000
0320
0000
,
1031
0000
0100
0000
0010
0000
1000
0100
,
0011
0000
0100
0000
0001
1000
0020
0000
,
1130
0000
0020
0000
,
0230
0000
0302
0000
,
1013
0000
0100
0000
0010
0000
1000
0100
,
1010
0000
0001
0000
0100
0010
2000
0000
,
3101
0000
0020
0000
,
0230
0000
2300
0000
,
3101
0000
0010
0000
1000
0000
0001
0100
,
1001
0000
1000
0000
0010
0100
0002
0000
,
1103
0000
0020
0000
,
0032
0000
0203
0000
,
1310
0000
0100
0000
0001
0000
1000
0001
,
0110
0000
0000
0000
1000
0000
0000
0000
0001
0000
1000
0000
0001
0100
0001
0100
,
0010
0100
0010
1000
0011
0100
1000
0001
0100
0010
1000
0001
0110
1000
0100
0010
,
0001
0010
0100
1000
0011
1000
0010
0100
0001
1000
0001
0100
1010
0100
0001
1000
,
0100
0010
0001
1000
0101
0010
1000
0001
0100
0001
1000
0100
0011
0100
1000
0010
,
0100
0010
1000
0001
0110
1000
0001
0100
0001
1000
0100
0010
1001
0000
1001
0000
,
0010
0100
0010
1000
0011
1000
0100
0010
0001
1000
0001
0100
1001
0100
0010
1000
,
0001
0100
0001
1000
0011
1000
0010
0100
0001
1000
0100
0010
0101
0010
0100
1000
,
0001
0100
0001
1000
0101
0010
1000
0100
0010
0001
1000
0001
1100
0001
1000
0001
,
0100
0010
1000
0001
1100
0001
0100
0001
1010
0000
1010
0000
1010
0000
1010
0000
,
0100
0010
0001
1000
0110
0001
0100
0010
1000
0001
0100
0010
1100
0010
0001
0100
,
0001
1000
0100
0010
0101
0010
0100
1000
0001
0100
0010
1000
0101
0010
1000
0010
,
0100
0001
1000
0001
1100
0001
0100
0001
1000
0010
0100
0001
1100
0001
0100
0010
,
1000
0001
0100
0001
0110
1000
0100
0010
0001
1000
0001
0100
1001
0010
0100
0001
,
1000
0100
0010
0100
1001
0010
0001
0100
0001
1000
0010
0100
0011
0100
0010
1000
,
0001
0100
0010
1000
0011
1000
0010
0100
0001
1000
0001
0100
1010
0100
0001
1000
,
0100
0010
0001
1000
0011
1000
0001
0010
0100
1000
0001
0100
1010
0100
0001
1000
,
0010
0100
0001
0000
1000
0000
0100
0000
0010
0001
0010
0000
0100
0000
1000
0000
,
1001
0000
0000
0000
,
0110
0000
1000
0000
,
1001
0010
1000
0010
1000
0010
1000
0010
1000
0010
1000
0010
1000
0010
1000
0010
,
0101
0010
0100
0010
0100
0010
0100
0010
1100
0001
0100
0001
0100
0001
0100
0001
,
1010
0001
1000
0001
1000
0001
1000
0001
1000
0001
1000
0001
1000
0001
1000
0001
,
1010
0100
0010
0100
0010
0100
0010
0100
0010
0100
0010
0100
0010
0100
0010
0100
,
0011
1000
0010
1000
0010
1000
0010
1000
0010
1000
0010
1000
0010
1000
0010
1000
,
0101
0010
0100
0010
0100
0010
0100
0010
1001
0100
1000
0100
1000
0100
1000
0100
,
0011
1000
0010
1000
0010
1000
0010
1000
0010
1000
0010
1000
0010
1000
0010
1000
,
0010
1000
0010
1000
0110
0000
0000
0000
0001
0000
0100
0000
1001
0000
0100
0000
,
1001
0100
0001
0100
0001
0100
0001
0100
0001
0100
0001
0100
0001
0100
0001
0100
,
1010
0001
0010
0001
0010
0001
0010
0001
1100
0010
0100
0010
0100
0010
0100
0010
,
1001
0010
1000
0010
1000
0010
1000
0010
1000
0010
1000
0010
0101
1000
0001
1000
,
0001
1000
0001
1000
0001
1000
0001
1000
0110
0001
0010
0001
0010
0001
0010
0001
,
1100
0010
0100
0010
0100
0010
0100
0010
0100
0010
0100
0010
1001
0100
0001
0100
,
0001
0100
0001
0100
0001
0100
0001
0100
1001
0010
1000
0010
1000
0010
1000
0010
,
0101
0010
0100
0010
0100
0010
0100
0010
0100
0010
0100
0010
0100
0010
0100
0010
,
1001
0100
0010
0001
1000
0100
0010
0001
1000
0100
0010
0001
1000
0100
0010
0001
,
1100
0010
1000
0010
1000
0010
1000
0010
1000
0010
1000
0010
1000
0010
1000
0010
,
0101
0010
0100
0010
0100
0010
0100
0010
1100
0001
0010
0001
0010
0001
0010
0001
,
1010
0100
0001
0100
0001
0100
0001
0100
0001
0100
0001
0100
0001
0100
0001
0100
,
1010
0001
1000
0001
1000
0001
1000
0001
1000
0001
1000
0001
1000
0001
1000
0001
,
0110
1000
0010
1000
0010
1000
0010
1000
0010
1000
0010
1000
0010
1000
0010
1000
,
0101
0010
0100
0010
0100
0010
0100
0010
1001
0100
1000
0100
1000
0100
1000
0100
,
0011
1000
0010
1000
0010
1000
0010
1000
0001
1000
0001
1000
0001
1000
0001
1000
,
0010
0100
0010
0100
0010
0100
0010
0100
0001
0010
0001
0010
0001
0010
0001
0010
,
1100
0000
0000
1010
0000
0000
0101
0000
,
1001
0000
0000
0110
0000
0000
0101
0000
,
1001
0000
0000
0000
0000
0000
0000
0000
0000
1100
0001
1000
,
0011
0000
0000
1010
0000
0000
0101
0000
,
1001
0000
0000
0000
;
