#TITLE:Under a Glass Moon;
#SUBTITLE:Images And Words (1992);
#ARTIST:Dream Theater;
#TITLETRANSLIT:;
#SUBTITLETRANSLIT:;
#ARTISTTRANSLIT:;
#CREDIT:;
#BANNER:under a glass moon-bn.jpg;
#BACKGROUND:under a glass moon-bg.jpg;
#LYRICSPATH:;
#CDTITLE:!gloveTitle.png;
#MUSIC:06-Dream_Theater-Under_A_Glass_Moon-hh.mp3;
#OFFSET:-1.943;
#SAMPLESTART:100.000;
#SAMPLELENGTH:12.000;
#SELECTABLE:YES;
#BPMS:0.000=145.690;
#STOPS:;
#BGCHANGES:;
// cache tags:
#FIRSTBEAT:4.000;
#LASTBEAT:331.000;
#SONGFILENAME:Songs/Astronomic Metal Collection 2/(GLoVE) Under a Glass Moon/underaglassmoon.sm;
#HASMUSIC:1;
#HASBANNER:1;
#MUSICLENGTH:143.629;
// end cache tags

//---------------dance-single - ----------------
#NOTES:
     dance-single:
     :
     Hard:
     13:
     1.000,1.000,0.564,1.000,1.000,954.000,81.000,163.000,0.000,16.000:

0000
0000
0000
0000
,
0001
0010
0100
0010
0100
1000
0001
0010
1000
0001
0100
1000
0001
0010
0100
0010
0100
1000
0220
0000
0330
0022
0000
0033
,
0001
0010
0100
0010
0100
1000
0001
0010
1000
0001
0100
1000
0001
0010
0100
0010
0100
1000
0220
0000
0330
0022
0000
0033
,
0210
0300
0001
0000
0210
0300
1000
0000
0001
0000
2000
3000
0200
0300
0010
0000
,
0001
0000
0200
0300
0010
0000
0001
0000
2000
3000
0100
0000
0001
0000
0010
0000
,
0200
0000
0000
0300
0000
0000
0001
0000
0000
0000
0000
0000
0200
0000
0000
0300
0000
0000
1000
0000
0000
0000
0000
0000
0200
0000
0320
0000
0230
0000
2301
0000
0000
3000
0000
0000
0210
0000
0000
0300
0000
0000
0001
0000
0000
0000
0000
0000
,
0210
0300
1000
0000
0001
0000
2000
3000
0200
0300
0010
0000
0001
0000
0200
0300
,
0010
0000
0001
0000
2000
3000
0100
0000
0010
0000
1000
0000
0200
0300
0010
0000
,
0200
0000
0000
0300
0000
0000
1000
0000
0000
0000
0000
0000
0200
0000
0320
0000
0230
0000
2301
0000
0000
3000
0000
0000
0210
0000
0000
0300
0000
0000
0001
0000
0000
0000
0000
0000
1200
0000
0000
0300
0000
0000
0010
0000
0000
0000
0000
0000
,
0001
0000
2000
3000
0200
0300
0010
0000
0001
0000
0200
0300
0010
0000
0001
0000
,
2000
3000
0100
0000
0001
0000
0010
0000
0200
0300
0001
0000
0200
0300
0010
0000
,
0200
0000
0320
0000
0230
0000
2301
0000
0000
3000
0000
0000
0210
0000
0000
0300
0000
0000
0001
0000
0000
0000
0000
0000
1200
0000
0000
0300
0000
0000
0010
0000
0000
0000
0000
0000
0001
0000
0000
0000
0000
0000
2000
0000
0000
3000
0000
0000
,
0201
0300
0010
0000
0001
0000
0200
0300
1000
0000
0001
0000
2000
3000
0100
0000
,
0001
0000
0000
0000
0000
0000
0010
0000
0000
0000
0000
0000
0200
0000
0000
0300
0000
0000
0001
0000
0000
0000
0000
0000
0200
0000
0000
0300
0000
0000
0010
0000
0000
0000
0000
0000
0200
0000
0320
0000
0230
0000
2301
0000
0000
3000
0000
0000
,
0110
0000
0011
0000
1010
0000
1100
0000
0012
0003
0100
0100
1100
0000
0110
0000
,
0102
0003
1010
0000
1001
0000
0102
0003
0100
0100
1100
0000
0021
0030
1200
0300
,
1010
0000
0021
0030
0100
0010
0201
0300
1000
0000
1100
0000
0101
0000
0110
0000
,
1100
0000
1010
0000
0021
0030
0100
0100
1100
0000
0101
0000
0021
0030
1100
0000
,
1001
0000
0012
0003
0100
0100
1100
0000
0201
0300
2010
3000
0100
0000
0021
0030
,
0100
0010
0201
0300
1000
0000
1000
0000
0021
0000
1230
0000
0321
0000
1230
0000
,
0312
0000
0003
0000
0000
0000
2100
0000
3021
0000
1030
1000
0210
0000
1302
0000
,
0003
0000
2100
0000
3012
0000
2103
0000
3010
0010
0101
0000
0010
0010
1001
0000
,
0100
0100
1010
0000
1100
0000
0101
0000
1010
0000
0101
0000
0012
0000
0000
0000
,
0003
0000
2100
0000
3021
0000
1030
1000
0210
0000
1302
0000
0003
0000
2100
0000
,
3012
0000
2103
0000
3010
0010
0101
0000
0100
0100
1001
0000
0100
0100
1010
0000
,
0000
0000
0000
0000
0000
0000
0000
0000
0000
0000
0000
0000
0000
0000
0000
0000
0000
0000
0000
0000
0000
0000
0000
0000
0000
0000
0000
0000
0000
0000
0000
0000
0000
0000
0000
0000
0000
0000
0000
0000
0000
0000
0000
0000
0000
0000
0000
0000
0000
0000
0000
0000
0000
0000
0000
0000
0000
0000
0000
0000
0000
0000
0000
0020
,
0000
0000
0000
0000
0000
0000
0000
0000
0000
0000
0000
0000
0000
0000
0000
0000
0000
0000
0000
0000
0000
0000
0000
0000
0000
0030
0000
0000
0010
0000
0010
0000
,
0001
0000
0100
0100
0010
0000
1000
1000
0010
0001
0001
0001
0100
0000
1000
1000
,
0010
0000
0000
0000
0000
0100
0010
0001
0100
1000
0010
0000
0001
0010
0100
0001
1000
0010
0200
0000
0000
0000
0300
0000
,
2000
0000
0000
3010
0001
0010
0100
1000
0001
0100
0010
0100
1000
0001
0010
0100
,
2000
0000
0000
3200
0000
0000
0320
0000
0000
0000
0032
0000
0000
0000
0000
0003
,
0020
0000
0000
0030
0000
0000
1000
0000
0000
0100
0000
0000
0020
0000
0000
0030
0000
0000
1000
0000
0100
0000
0010
0000
0002
0000
0000
0000
0000
0000
0000
0000
0000
0000
0000
0000
0000
0000
0000
0000
0000
0000
0000
0000
0000
0000
0000
0000
,
0203
0000
0000
0000
0000
0000
0000
0000
0000
0000
0000
0000
0000
0000
0000
0000
0000
0000
0000
0000
0000
0000
0000
0000
0000
0000
0000
0000
0000
0000
0000
0000
0300
0000
0000
0000
0001
0000
0000
0000
0010
0000
0100
0000
1000
0000
0001
0000
0010
0000
0000
2000
0000
0000
0000
0000
0000
0000
0000
0000
0000
0000
0000
0000
,
3000
0000
0000
0000
0000
0000
0000
0000
0000
0000
0000
0000
0100
0000
0000
0000
0000
0000
0000
0000
0000
0000
0000
0000
1000
0000
0000
0000
0000
0000
0000
0000
0000
0000
0000
0000
0010
0000
0000
0000
0000
0000
0000
0000
0100
0000
0000
0000
0001
0000
0000
0000
0000
0000
0010
0000
0000
0000
0000
0000
0100
0000
0000
0000
0000
0000
1000
0000
0000
0000
0000
0000
0001
0000
0000
0000
0000
0000
0100
0000
0000
0000
0000
0000
0010
0000
0000
0000
0000
0000
1000
0000
0000
0000
0000
0000
0001
0000
0000
0000
0000
0000
0010
0000
0000
0000
0000
0000
0100
0000
0000
0000
0000
0000
1000
0000
0000
0000
0000
0000
0010
0000
0000
0000
0000
0000
0100
0000
0000
0000
0000
0000
0001
0000
0000
0000
0000
0000
0010
0000
0000
0000
0000
0000
0100
0000
0000
0000
0000
0000
1000
0000
0000
0000
0000
0000
0010
0000
0000
0000
0000
0000
0100
0000
0000
0000
0000
0000
0001
0000
0000
0000
0000
0000
0010
0000
0000
0000
0000
0000
0100
0000
0000
0000
0000
0000
1000
0000
0000
0000
0000
0000
,
0010
0000
0000
0100
0000
0000
0001
0000
0000
0000
0100
0000
0001
0001
0001
0001
,
0000
0000
2000
0000
3020
0000
0000
0030
0001
0010
0100
1000
0010
0100
1000
0000
,
0010
0000
0000
0100
0000
0000
0001
0000
0000
0000
0000
0000
0002
0000
0000
0003
,
0010
0100
1000
0010
0100
0001
0010
0100
1000
0010
0100
0001
0100
0000
0000
0000
,
1000
0000
0010
0000
0100
0000
0001
0000
0000
0000
0001
0010
0100
0000
1000
0000
,
0000
0000
0000
0000
0000
0000
0000
0000
0000
0000
0000
0000
0000
0000
0000
0000
0000
0000
0000
0000
0000
0000
0000
0000
1000
0000
0000
0000
0000
0000
0000
0000
0000
0000
0000
0000
0100
0000
0000
0000
0000
0000
0000
0000
0000
0000
0000
0000
0010
0000
0000
0000
0000
0000
0000
0000
0001
0000
0000
0000
0000
0000
0000
0000
0000
0000
0000
0000
0000
0000
0000
0000
0100
0000
0000
0000
0000
0000
0010
0000
0000
0000
0000
0000
1000
0000
0000
0000
0000
0000
0000
0000
0000
0000
0000
0000
0001
0000
0000
0000
0000
0000
0000
0000
0000
0000
0000
0000
0100
0000
0000
0000
0000
0000
0000
0000
0000
0000
0000
0000
0010
0000
0000
0000
0000
0000
0000
0000
0000
0000
0000
0000
0001
0000
0000
0000
0000
0000
0000
0000
0000
0000
0000
0000
1000
0000
0000
0000
0000
0000
0000
0000
0000
0000
0000
0000
0010
0000
0000
0000
0000
0000
0000
0000
0000
0000
0000
0000
0100
0000
0000
0000
0000
0000
0000
0000
0000
0000
0000
0000
1000
0000
0000
0000
0000
0000
0000
0000
0000
0000
0000
0000
,
0001
0000
0000
0000
0000
0000
0001
0010
0100
1000
0001
0000
0010
0000
0000
0000
0000
0000
0001
0000
0000
0000
0000
0000
0000
0000
0000
0000
0000
0000
0100
0000
0000
0000
0000
0000
0010
0000
0000
0000
0000
0000
0001
0000
0000
0000
0000
0000
,
1000
0000
0100
0000
0010
0000
0001
0000
0100
0000
0010
0000
1000
0000
0001
0000
1000
0000
0100
0000
0010
0000
0001
0000
1000
0000
0100
0010
1000
0000
0000
0002
,
0000
0000
0000
0003
0002
0000
0000
0000
0000
0000
0000
0003
0200
0000
0000
0300
,
0002
0100
1003
0020
1000
0130
0002
0100
1003
0020
1000
0130
0002
0100
1003
0010
,
0200
0000
0000
0300
0000
0000
0010
0000
0100
0000
1000
0000
0200
0000
0000
0000
0300
0000
0010
0000
0100
0000
1000
0000
0200
0000
0000
0000
0300
0000
0010
0000
0200
0000
0000
0000
0300
0000
0010
0000
0200
0000
0001
0000
0300
0010
0000
0000
,
0100
1000
0001
0010
0100
0010
0100
1000
0001
0010
0100
1000
0010
0000
0100
0001
,
2000
0000
0000
3200
0000
0000
0320
0000
0000
0000
0032
0000
0000
0000
0203
0000
,
0320
0230
0302
0203
2300
3002
0023
0230
,
2300
0000
0000
0000
0000
0000
0000
0000
0000
0000
0000
0000
0000
0000
0000
0000
0000
0000
0000
0000
0000
0000
0000
0000
0000
0000
0000
0000
0000
0000
0000
0000
0000
0000
0000
0000
0000
0000
0000
0000
0000
0000
0000
0000
0000
0000
0000
0000
0000
0000
0000
0000
0000
0000
0000
0000
0000
0000
0000
0000
0000
0000
0000
0000
0000
0000
0000
0000
0000
0000
0000
0000
3100
0000
0000
0000
0000
0000
0010
0000
0000
0000
0000
0000
0001
0000
0000
0000
0000
0000
1000
0000
0000
0000
0000
0000
0010
0000
0000
0000
0000
0000
0100
0000
0000
0000
0000
0000
0001
0000
0000
0000
0000
0000
0010
0000
0000
0000
0000
0000
0100
0000
0000
0000
0000
0000
1000
0000
0000
0000
0000
0000
0100
0000
0000
0000
0000
0000
0010
0000
0000
0000
0000
0000
0001
0000
0000
0000
0000
0000
1000
0000
0000
0000
0000
0000
0100
0000
0000
0000
0010
0000
0000
0000
0000
0000
0000
0000
0001
0000
0000
0000
0010
0000
0000
0000
0100
0000
0000
0000
0000
0000
0000
0000
0000
0000
1000
0000
0000
0000
0000
0000
,
0001
0000
0000
0000
0010
0000
0000
0000
0100
0000
0000
0000
0000
0000
0000
0000
0000
0000
0001
0000
0000
0000
0000
0000
0100
0000
0000
0000
0000
0000
1000
0000
0000
0000
0000
0000
0100
0000
0000
0000
0010
0000
0000
0000
0000
0000
0000
0000
0001
0000
0000
0000
1000
0000
0000
0000
0000
0000
0000
0000
0001
0000
0000
0000
1000
0000
0000
0000
0000
0000
0000
0000
0010
0000
0000
0000
0000
0000
0100
0000
0000
0000
0000
0000
0001
0000
0000
0000
0000
0000
1000
0000
0000
0000
0000
0000
0100
0000
0000
0000
0010
0000
0000
0000
0000
0000
0000
0000
0001
0000
0000
0000
0010
0000
0000
0000
0000
0000
0000
0000
0100
0000
0000
0000
0000
0000
0000
0000
1000
0000
0000
0000
0000
0000
0000
0000
0010
0000
0000
0000
0000
0000
0000
0000
0100
0000
0000
0000
0000
0000
0010
0000
0000
0000
0000
0000
0001
0000
0000
0000
0010
0000
0000
0000
0000
0000
0000
0000
0100
0000
0000
0000
0000
0000
0000
0000
1000
0000
0000
0000
0000
0000
0000
0000
0000
0000
0000
0000
0000
0000
0000
0000
,
0020
0000
0000
0000
0000
0000
0000
0030
,
0200
0000
0320
2030
0000
3200
0302
0023
2030
3200
0320
0230
0302
0000
0003
0000
,
1000
0000
0000
0010
0000
0000
0100
0000
0000
0001
0000
0000
1000
0000
0000
0010
0000
0000
0100
0000
0000
0001
0000
0000
1000
0000
0000
0100
0000
0000
0010
0000
0000
0001
0000
0000
0100
0000
0000
0010
0000
1000
0001
0000
0000
0100
0000
0000
,
0010
0000
1000
0001
0000
0000
0100
0000
0000
0010
0000
1000
0001
0000
0000
0100
0000
0000
0010
0000
1000
0002
0000
0000
0000
0000
0000
0000
0000
0000
0000
0000
0000
0000
0000
0000
0000
0000
0000
0000
0000
0000
0003
0000
0000
0000
0000
0000
,
0001
0000
0000
0000
0010
0000
0100
0000
1000
0000
0000
0020
0000
0000
0130
0000
,
0001
0000
0000
0000
0000
0000
0000
0020
0000
0000
0000
0000
0000
0000
0000
0000
0000
0000
0130
0000
0000
0000
0000
0000
1000
0000
0000
0000
0000
0000
0000
0000
0000
0000
0000
0000
0000
0000
0000
0000
0000
0000
0000
0000
0000
0000
0000
0000
,
1000
0100
0010
0001
0100
0010
1000
0100
0010
0001
0100
0010
0001
0001
0001
0010
0100
1000
0001
0010
0100
1000
0010
0100
,
0001
0010
0100
1000
0010
0100
0001
1000
0010
0100
0001
0010
0100
1000
0010
0100
0001
0010
0100
1000
0010
0100
0001
1000
,
0100
0000
0010
0000
0001
0000
0000
0001
0010
0100
1000
0001
0100
0010
1000
0000
,
0100
0000
0001
0000
0000
0010
1000
0001
0010
1000
0010
0100
1000
0000
0010
0000
,
0001
0000
0000
0010
0001
0100
0010
0100
1000
0010
0100
0000
0010
0000
0001
0000
,
0000
0000
0000
0000
1000
0010
1000
0000
1000
0000
1000
0010
1000
0000
1000
0000
0010
0000
0001
0000
1000
0000
0010
0000
0100
0000
1000
0000
0010
0000
0100
0000
,
0010
1000
0100
0001
0010
1000
0001
0100
1000
0001
0010
1000
0010
0100
0001
0100
,
1000
0010
0100
1000
0001
0010
0001
0010
1000
0001
0100
0010
0001
0100
1000
0010
,
0100
0010
0001
0100
1000
0100
0010
1000
0010
0100
0001
0010
1000
0100
0010
0100
,
0001
0010
1000
0100
0010
1000
0100
1000
0001
0010
1000
0100
0010
0100
0001
0010
,
1000
0100
0010
0100
1000
0010
0001
1000
0010
0100
0001
0100
0001
0010
1000
0100
,
0010
1000
0010
0001
0100
0001
1000
0100
1000
0010
0100
0001
0010
0001
0100
0010
,
1000
0001
0100
0010
1000
0100
0010
0001
0200
0300
0200
0000
0000
0000
0000
0000
,
0320
0000
0000
0000
0000
0000
0032
0000
0000
0000
0000
0000
0023
0000
0000
0000
0000
0230
0000
0000
2300
0000
0000
0000
0000
0000
0000
0000
3100
0010
0001
0000
,
0010
0000
0000
0000
0000
0000
0000
0000
0000
0000
0000
0000
0100
0000
0000
0000
0000
0000
0000
0000
0000
0000
0000
0000
1000
0000
0000
0000
0000
0000
0000
0000
0000
0000
0000
0000
0010
0000
0000
0000
0000
0000
0000
0000
0000
0000
0000
0000
0200
0000
0000
0000
0000
0000
0000
0000
0000
0000
0000
0000
0000
0000
0000
0000
0000
0000
0000
0000
0000
0000
0000
0000
0000
0000
0000
0000
0000
0000
0000
0000
0000
0000
0000
0000
0000
0000
0000
0000
0000
0000
0300
0000
0000
0000
0000
0000
0200
0000
0000
0000
0000
0000
0000
0000
0000
0000
0000
0000
0000
0000
0000
0000
0000
0000
0300
0000
0000
0000
0000
0000
1000
0000
0000
0000
0000
0000
0000
0000
0000
0000
0000
0000
0100
0000
0000
0000
0000
0000
0000
0000
0000
0000
0000
0000
0001
0000
0000
0000
0000
0000
0000
0000
0000
0000
0000
0000
1000
0000
0000
0000
0000
0000
0000
0000
0000
0000
0000
0000
0010
0000
0000
0000
0000
0000
0000
0000
0100
0000
0000
0000
0000
0000
0000
0000
0010
0000
0000
0000
0000
0000
0000
0000
,
0001
0000
0000
0010
0000
0000
0100
0000
0000
2000
0000
0000
0000
0000
0000
0000
0000
0000
0000
0000
0000
0000
0000
0000
0000
0000
0000
0000
0000
0000
3000
0000
1000
0000
0100
0000
0010
0000
0000
0100
0000
0000
0001
0000
0000
0010
0000
0000
,
1000
0000
0000
0000
0000
0000
0000
0000
0100
0000
0000
0000
0000
0000
0000
0000
0010
0000
0000
0000
0000
0000
0000
0000
0100
0000
0000
0000
0000
0000
0000
0000
0000
0000
0000
0000
0001
0000
0000
0000
0000
0000
0000
0000
0000
0000
0000
0000
0010
0000
0000
0000
0000
0000
0000
0000
0000
0000
0000
0000
0100
0000
0000
0000
0000
0000
0000
0000
0000
0000
0000
0000
0001
0000
0000
0000
0000
0000
0000
0000
0000
0000
0000
0000
0010
0000
0000
0000
0000
0000
0000
0000
0000
0000
0000
0000
0001
0000
0000
0000
0000
0000
0010
0000
0000
0000
0000
0000
0100
0000
0000
0000
0000
0000
0000
0000
1000
0000
0000
0000
0000
0000
0000
0000
0100
0000
0000
0000
0000
0000
0000
0000
0010
0000
0000
0000
0000
0000
0000
0000
0000
0000
0000
0000
0100
0000
0000
0000
0000
0000
0000
0000
0000
0000
0000
0000
0001
0000
0000
0000
0000
0000
0000
0000
0000
0000
0000
0000
0010
0000
0000
0000
0000
0000
0000
0000
0000
0000
0000
0000
1000
0000
0000
0000
0000
0000
0000
0000
0100
0000
0000
0000
,
0000
0000
0000
0000
0010
0000
0000
0000
0000
0000
0000
0000
0100
0000
0000
0000
0000
0000
0000
0000
0000
0000
0000
0000
1000
0000
0000
0000
0010
0000
0000
0000
0000
0000
0000
0000
0001
0000
0000
0000
0000
0000
0000
0000
0000
0000
0000
0000
0100
0000
0000
0000
0000
0000
0000
0000
0000
0000
0000
0000
1000
0000
0000
0000
0000
0000
0000
0000
0001
0000
0000
0000
0000
0000
0000
0000
0010
0000
0000
0000
0000
0000
0000
0000
0100
0000
0000
0000
0000
0000
0000
0000
0000
0000
0000
0000
1000
0000
0000
0000
0000
0000
0000
0000
0000
0000
0000
0000
0001
0000
0000
0000
0000
0000
0000
0000
0000
0000
0000
0000
0010
0000
0000
0000
0000
0000
0000
0000
0000
0000
0000
0000
0100
0000
0000
0000
0000
0000
0000
0000
1000
0000
0000
0000
0000
0000
0000
0000
0100
0000
0000
0000
0000
0000
0000
0000
0010
0000
0000
0000
0000
0000
0000
0000
0001
0000
0000
0000
0010
0000
0000
0000
0000
0000
0100
0000
0000
0000
0000
0000
1000
0000
0000
0000
0000
0000
0000
0000
0000
0000
0000
0000
,
0010
0000
0000
0000
0000
0000
0000
0000
0000
0000
0000
0000
0100
0000
0000
0000
0000
0000
0010
0000
0000
0000
0000
0000
0001
0000
0000
0000
0000
0000
0000
0000
0000
0000
0000
0000
0010
0000
0000
0000
0000
0000
0000
0000
0000
0000
0000
0000
0100
0000
0000
0000
0000
0000
0000
0000
0000
0000
0000
0000
1000
0000
0000
0000
0000
0000
0100
0000
0000
0000
0000
0000
0010
0000
0000
0000
0000
0000
0001
0000
0000
0000
0000
0000
0010
0000
0000
0000
0000
0000
0100
0000
0000
0000
0000
0000
1000
0000
0000
0000
0000
0000
0000
0000
0000
0000
0000
0000
0100
0000
0000
0000
0000
0000
0000
0000
0010
0000
0000
0000
0000
0000
0000
0000
0001
0000
0000
0000
0000
0000
0000
0000
0010
0000
0000
0000
0000
0000
0100
0000
0000
0000
0000
0000
1000
0000
0000
0000
0000
0000
0000
0000
0000
0000
0000
0000
0100
0000
0000
0000
0000
0000
0000
0000
0010
0000
0000
0000
0000
0000
0000
0000
0001
0000
0000
0000
0000
0000
0000
0000
0010
0000
0000
0000
0000
0000
0100
0000
0000
0000
0000
0000
,
1000
0000
0000
0000
0000
0000
0000
0000
0000
0000
0000
0000
0100
0000
0000
0000
0000
0000
0000
0000
0010
0000
0000
0000
0000
0000
0000
0000
0001
0000
0000
0000
0000
0000
0000
0000
0010
0000
0000
0000
0000
0000
0100
0000
0000
0000
0000
0000
1000
0000
0000
0000
0000
0000
0000
0000
0000
0000
0000
0000
0100
0000
0000
0000
0000
0000
0000
0000
1000
0000
0000
0000
0000
0000
0000
0000
0010
0000
0000
0000
0000
0000
0000
0000
0002
0000
0000
0000
0000
0000
0000
0000
0000
0000
0000
0000
0000
0000
0000
0000
0000
0000
0000
0000
0000
0000
0000
0000
0000
0000
0000
0000
0000
0000
0000
0000
0000
0000
0000
0000
0000
0000
0000
0000
0000
0000
0000
0000
0000
0000
0000
0000
0000
0000
0000
0000
0000
0000
0000
0000
0000
0000
0000
0000
0000
0000
0000
0000
0000
0000
0000
0000
0000
0000
0000
0000
0000
0000
0000
0000
0000
0000
0000
0000
0000
0000
0000
0000
0000
0000
0000
0000
0000
0000
0000
0000
0000
0000
0000
0000
0000
0000
0000
0000
0000
0000
0003
0000
0000
0000
0000
0000
,
0002
0000
0000
0000
0000
0000
0000
0000
0000
0000
0000
0003
0002
0000
0000
0000
0000
0000
0000
0000
0000
0000
0000
0000
0000
0000
0000
0000
0000
0000
0000
0003
,
0100
0000
0000
0000
0000
0000
0010
0000
0000
0000
0000
0000
0001
0000
0000
0100
0000
0000
0010
0000
0000
0100
0000
0000
1000
0000
0000
0000
0000
0000
0000
0000
0000
0000
0000
0000
1000
0100
0000
0010
0000
0000
0001
0000
0000
0010
0000
0000
,
0100
0000
1000
0100
0010
0000
0100
0000
0001
0000
0010
0000
0100
0000
1000
0000
0010
0000
0100
0000
0001
0000
0010
0000
0100
0000
1000
0000
0010
0000
0100
0000
,
0020
0000
0000
0000
0000
0000
0000
0000
0000
0000
0000
0000
0000
0000
0000
0230
0000
0000
0000
0000
0000
0000
0000
0000
0000
0000
0000
0000
0300
0000
0000
0000
1000
0000
0000
0000
0100
0000
0000
0000
0000
0000
0000
0000
0001
0000
0000
0000
0000
0000
0000
0000
0010
0000
0000
0000
0100
0000
0000
0000
0000
0000
0000
0000
,
1000
0000
1000
0000
0000
0000
0100
0010
0000
0100
0000
1000
0010
0100
0010
0002
,
0000
0000
0000
0000
0003
0000
0000
0000
0001
0000
0100
0000
0010
0000
0001
0000
1000
0000
0100
0000
0010
0001
0010
0000
0100
0000
0010
0000
1000
0000
0010
0000
,
1000
0100
0010
0001
1000
0100
0001
1000
0100
0010
0001
0001
0001
0000
0000
0000
;
