#TITLE:For you;
#SUBTITLE:;
#ARTIST:DJ Sharpnel;
#TITLETRANSLIT:;
#SUBTITLETRANSLIT:;
#ARTISTTRANSLIT:;
#CREDIT:Seoul Plaer;
#BANNER:;
#BACKGROUND:;
#LYRICSPATH:;
#CDTITLE:;
#MUSIC:For You.ogg;
#OFFSET:2.540;
#SAMPLESTART:33.333;
#SAMPLELENGTH:12.000;
#SELECTABLE:YES;
#BPMS:0.000=183.000,276.000=91.500,340.000=183.000;
#STOPS:275.750=1.300
;
#BGCHANGES:;
// cache tags:
#FIRSTBEAT:8.000;
#LASTBEAT:665.250;
#SONGFILENAME:Songs/toune 2/For you - Seoul Plaer/For you.sm;
#HASMUSIC:1;
#HASBANNER:0;
#MUSICLENGTH:105.000;
// end cache tags

//---------------dance-single - ----------------
#NOTES:
     dance-single:
     :
     Hard:
     12:
     1.000,1.000,1.000,0.210,1.000,1730.000,182.000,22.000,42.000,7.000:

0000
0000
0000
0000
,
0000
0000
0000
0000
,
1100
0000
0000
0110
0000
0000
0011
0000
0010
0000
0100
0000
0010
0000
0100
0000
,
1001
0000
0000
0000
0000
0000
0000
0000
1000
0001
0000
0100
0000
0010
1000
0000
,
0110
0000
0000
0011
0000
0000
1100
0000
0010
0000
0100
0000
0001
0000
1000
0000
,
0110
0000
0000
0000
0000
0000
0000
0000
0010
0100
0000
0001
0000
0100
0001
0000
,
0101
0000
0000
0110
0000
0000
1010
0000
0100
0000
0001
0000
0010
0000
0001
0000
,
1100
0000
0000
0000
0000
0000
0000
0000
1000
0001
0000
0100
0000
0001
0010
0000
,
1100
0000
0000
1100
0000
0000
0011
0000
1000
0000
0001
0000
1000
0000
0001
0000
,
0110
0000
0000
0000
0000
0000
0000
0000
1000
0100
0000
0010
0000
0001
0010
0000
,
1100
0000
0000
0110
0000
0000
0011
0000
0100
0000
0010
0000
0100
0000
0010
0000
,
1001
0000
0000
0000
0000
0000
0000
0000
1000
0001
0000
0100
0000
0010
1000
0000
,
0110
0000
0000
0011
0000
0000
1100
0000
0010
0000
0100
0000
0001
0000
1000
0000
,
0110
0000
0000
0000
0000
0000
0000
0000
0010
0100
0000
0001
0000
0100
0001
0000
,
0011
0000
0000
0110
0000
0000
1100
0000
0001
0000
0010
0000
0100
0000
0010
0000
,
1001
0000
0000
0000
0000
0000
0000
0000
0001
1000
0000
0010
0000
0100
0001
0000
,
0110
0000
0000
1100
0000
0000
0011
0000
0100
0000
0010
0000
1000
0000
0001
0000
,
0110
0000
0000
0000
0000
0000
0000
0000
0100
0010
0000
1000
0000
0010
1000
0000
,
1010
0000
0000
0110
0000
0000
0101
0000
0010
0000
1000
0000
0100
0000
1000
0000
,
0011
0000
0000
0011
0000
0000
1100
0000
0010
0000
0100
0000
0001
0000
1000
0000
,
1100
0000
0000
1100
0000
0000
0011
0000
0100
0000
0001
0000
0010
0000
0100
0000
,
1001
0000
0000
1001
0000
0000
0110
0000
1000
0000
0001
0000
0100
0000
0001
0000
,
1010
0000
0000
1010
0000
0000
0101
0000
1000
0000
0010
0000
1000
0000
0001
0000
,
0110
0000
0000
0110
0000
0000
1001
0000
0100
0000
0010
0000
1000
0000
0100
0000
,
0011
0000
0000
0011
0000
0000
1100
0000
0010
0000
0100
0000
0001
0000
0010
0000
,
1100
0000
0000
1100
0000
0000
0101
0000
0010
0000
0100
0000
0001
0000
0100
0000
,
1010
0000
0000
1100
0000
0000
1001
0000
0100
0000
0010
0100
0010
0000
1000
0000
,
0110
0000
0000
0011
0000
0000
1100
0000
0001
0000
0010
0100
0010
0000
0001
0000
,
0110
0000
0000
1001
0000
0000
0011
0000
1000
0000
0010
0100
0001
0000
0010
0000
,
0101
0000
0000
0011
0000
0000
1010
0000
0100
0000
0001
0010
0100
0000
1000
0000
,
0001
1000
0001
1000
0001
1000
0001
1000
,
0010
0100
0010
0100
0010
0100
0010
0100
,
0001
1000
0001
1000
0001
1000
0001
1000
0010
1000
0010
1000
0010
1000
0010
1000
,
0100
1000
0100
1000
0100
1000
0100
1000
0001
1000
0001
1000
0001
1000
0001
2000
,
0002
0000
0000
0000
0000
0000
0000
0000
0000
0000
0000
0000
0000
0000
0000
0000
0000
0000
0000
0000
0000
0010
0000
0000
0000
0000
0200
0000
0300
0000
0000
0000
0000
0000
0000
0000
0000
0000
0000
0000
0000
0000
3003
0000
0000
0000
0000
0000
,
1100
0000
0000
0001
0010
0000
0100
1000
0010
0000
0100
0000
0001
0000
1000
0000
,
0101
0000
0000
1000
0010
0000
0100
0001
0010
0000
0100
0000
1000
0000
0001
0000
,
0110
0000
0000
1000
0100
0000
0010
0001
0100
0000
0010
0000
1000
0000
0001
0000
,
1100
0000
0000
0100
0010
0000
0001
0010
0100
0000
1000
0000
0001
0000
0010
0000
,
1100
0000
0000
0001
0010
0000
0100
1000
0010
0000
0100
0000
0001
0000
1000
0000
,
0101
0000
0000
1000
0010
0000
0100
0001
0010
0000
0100
0000
1000
0000
0001
0000
,
0110
0000
0000
1000
0100
0000
0010
0001
0100
0000
0010
0000
1000
0000
0001
0000
,
1100
0000
0000
0100
0010
0000
0001
0010
0100
0000
1000
0000
0010
0000
0100
0000
,
0011
0000
0000
1000
0100
0000
0010
0001
0100
0000
0010
0000
1000
0000
0001
0000
,
1010
0000
0000
0001
0100
0000
0010
1000
0100
0000
0010
0000
0001
0000
1000
0000
,
0110
0000
0000
0001
0010
0000
0100
1000
0010
0000
0100
0000
0001
0000
1000
0000
,
0011
0000
0000
0010
0100
0000
1000
0100
0010
0000
0001
0000
1000
0000
0100
0000
,
0011
0000
0000
1000
0100
0000
0010
0001
0100
0000
0010
0000
1000
0000
0001
0000
,
1010
0000
0000
0001
0100
0000
0010
1000
0100
0000
0010
0000
0001
0000
1000
0000
,
0110
0000
0000
0001
0010
0000
0100
1000
0010
0000
0100
0000
0001
0000
1000
0000
,
0011
0000
0000
0010
0100
0000
1000
0100
0010
0000
0001
0000
0100
0000
0001
0000
,
1010
1000
1001
1000
1100
1000
1010
0000
,
0011
0001
1001
0001
0101
0001
0011
0000
,
1001
1000
1100
1000
1010
1000
1001
0000
,
1001
0001
0101
0001
0011
0001
1001
0000
,
0101
0001
1001
0001
0011
0001
0101
0000
,
1100
1000
1001
1000
1010
1000
1100
0000
,
1001
0001
0011
0001
0101
0001
1001
0000
,
1001
1000
1010
1000
1100
1000
1001
0000
,
1010
0100
0001
0010
1100
0010
0001
0000
,
0011
0100
0010
0001
0110
1000
0001
0000
,
0101
0010
1000
0100
0011
0100
1000
0000
,
0110
1000
0001
1000
0110
0001
1000
0000
,
0101
0010
1000
0100
0011
0100
1000
0000
,
1100
0010
0100
1000
0110
0001
1000
0001
,
1100
1001
1010
1001
0101
1001
0011
1001
,
0001
0100
0010
1000
0010
0100
0001
0100
0010
1000
0100
0010
0001
0010
0100
1000
,
0020
0000
0000
0000
,
0000
0000
0000
0000
0000
0000
0000
0030
,
1000
0010
0100
0010
1000
0100
0010
0001
0010
0100
1000
0100
0010
0100
0010
0001
,
0010
0100
0010
0001
1000
0100
0010
0100
1000
0010
0100
0010
1000
0100
1000
0100
,
0010
0001
1000
0100
0010
0001
1000
0100
0010
0001
1000
0100
0010
0001
0100
0010
,
0100
0010
1000
0001
1000
0001
0010
0100
0010
0001
1000
0100
0010
0001
0100
0010
,
0100
0001
1000
0010
0100
0001
0100
0010
0100
0001
0010
0100
1000
0100
0001
0100
,
1000
0010
0100
0001
1000
0010
0100
0010
1000
0100
0010
0001
0010
0100
1000
0001
,
0100
0010
1000
0001
0010
0100
0010
0001
0010
0100
1000
0010
0100
0001
1000
0001
,
1000
1100
0110
0011
0110
1100
1001
1001
0001
0010
0100
1000
0100
0010
0001
0001
,
1000
0100
0020
0000
0000
0000
0001
0000
0000
0000
0000
0000
0001
0000
0000
0000
0000
0000
0031
0000
0000
0000
0000
0000
0001
0010
0200
0000
0000
0000
1000
0000
0000
0000
0000
0000
1000
0000
0000
0000
0000
0000
1300
0000
0000
0000
0000
0000
,
0010
0100
0002
0000
0000
0000
1000
0000
0000
0000
0000
0000
1000
0000
0000
0000
0000
0000
1003
0000
0000
0000
0000
0000
0100
0010
2000
0000
0000
0000
0001
0000
0000
0000
0000
0000
0001
0000
0000
0000
0000
0000
3001
0000
0000
0000
0000
0000
,
0001
0010
0200
0000
0000
0000
0010
0000
0000
0000
0000
0000
0010
0000
0000
0000
0000
0000
0310
0000
0000
0000
0000
0000
1000
0100
0020
0000
0000
0000
0001
0000
0000
0000
0000
0000
0001
0000
0000
0000
0000
0000
0031
0000
0000
0000
0000
0000
,
0100
0010
2000
0000
0000
0000
0001
0000
0000
0000
0000
0000
0001
0000
0000
0000
0000
0000
3001
0000
0000
0000
0000
0000
0010
0100
0002
0000
0000
0000
1000
0000
0000
0000
0000
0000
1000
0000
0000
0000
0000
0000
1003
0000
0000
0000
0000
0000
,
2000
0020
3002
0000
2030
0000
0100
3003
,
0020
0200
0032
0300
0020
0000
1000
0033
,
1100
0000
0011
0000
1100
0000
0011
0000
1010
0000
0101
0000
1010
0000
0101
0000
1001
0000
1001
0010
0100
0001
1000
0100
0010
0001
0010
0100
1000
0100
0010
0100
,
1000
0010
0100
0010
1000
0010
0100
0001
0010
0001
0010
0001
1000
0001
0100
0001
1000
0000
0000
0000
0000
0000
0000
0000
MMMM
0000
0000
0000
MMMM
0000
0000
0000
,
1010
0000
0100
0000
0001
0000
0100
0000
0010
0000
0100
0000
1000
0000
0100
0001
,
0100
0010
0100
0001
0100
1000
0100
0001
,
0100
0010
1000
0100
0010
0001
1000
0001
,
0100
0000
1000
0100
1000
0000
0100
0010
0100
0000
0010
0000
0001
0000
0010
0000
,
0010
0001
0100
0010
1000
0100
0010
0100
,
1000
0001
1000
0001
0100
0001
0010
0100
,
1000
0100
0010
0100
1000
0100
1000
0001
,
0010
0000
0001
0000
0010
0000
0100
1000
0100
0000
0001
0100
0010
1000
0010
0100
,
0001
0100
0010
1000
0100
0010
0001
0010
,
0100
1000
0100
0010
0001
0010
0100
1000
,
0100
0010
0011
0010
0100
1100
0100
0010
,
0001
0000
1000
0000
0001
0000
1000
0000
0001
0100
0010
1000
0010
0100
0001
0010
,
0100
1000
0100
0010
0001
0100
0010
1000
0010
0100
0001
0000
0100
0000
0010
0000
,
1000
0010
1000
0000
0010
0000
0100
0000
0010
0100
0001
0000
0010
0000
0100
0000
,
1000
0010
0100
0000
0001
0000
0010
0000
0100
1000
0010
0000
0100
0000
0010
0000
,
1010
1000
0100
0010
0101
0001
0010
0100
,
1100
1000
0100
0010
0011
0001
0010
0100
,
1001
0100
0010
0100
0011
1000
0010
0100
,
0011
0100
1000
0100
0101
0010
0100
1000
,
0101
0010
0001
1000
0110
0001
1000
0100
,
0011
0100
1000
0010
0101
0010
0100
1000
,
0101
0010
0100
1000
0110
0001
0010
0100
,
1010
0100
0001
0100
1010
0100
0001
0010
,
1100
0000
0100
0000
0010
0000
0100
0000
0010
0100
0001
0100
0010
1000
0100
0010
,
0001
0010
0100
1000
0100
0010
0100
1000
0010
0100
0010
1000
0001
0100
0001
0010
,
0001
0010
0100
1000
0100
0010
0001
0100
,
0010
1000
0100
0001
0100
1000
0100
0001
,
0100
0000
1000
0000
0010
0000
0100
0000
0001
1000
0001
1000
0001
0100
0010
0100
,
0010
0100
1000
0010
0100
0010
1000
0100
0010
0001
0010
0100
1000
0010
0100
0001
,
0010
0100
0010
0001
1000
0100
0010
0001
1000
0100
0010
0001
0100
0010
1000
0001
,
1000
0001
1000
0001
1000
0001
1000
0010
0100
0010
0100
0010
0100
0010
0100
0010
,
1000
0001
1000
0001
1000
0001
1000
0001
0100
0010
0100
0010
0100
0010
0100
0010
,
1000
0100
0010
0001
0010
0100
1000
0100
1000
0001
0010
0100
1000
0100
0010
0001
,
1000
0001
1000
0010
0100
0001
0100
0010
1000
0100
0010
0001
0100
0010
1000
0100
,
0010
0001
1000
0010
0100
0010
1000
0100
0010
0001
0010
0100
0010
0001
1000
0001
,
1000
0010
0100
0010
0100
0001
1000
0100
0010
0001
1000
0001
0010
0100
1000
0001
,
1000
0100
0010
0001
0100
0010
1000
0001
0100
0010
1000
0100
0010
0001
1000
0001
,
1000
0010
0100
0001
0100
0010
1000
0100
0010
0001
1000
0001
1000
0001
0100
0010
,
1000
0100
1000
0100
0010
0100
0010
0001
0010
0100
1000
0001
0100
0010
0100
0001
,
0010
0100
1000
0100
0010
0001
0100
0010
1000
0010
0100
0001
1000
0100
0010
0100
,
0010
0100
1000
0001
0100
0001
0010
0100
1000
0010
0100
0010
1000
0100
0010
0001
,
0100
0001
0100
0001
1000
0010
1000
0100
1000
0100
0010
0001
0010
0100
1000
0100
,
0010
0100
0001
0100
0010
0100
1000
0100
0010
0001
1000
0100
1000
0010
1000
0100
,
0010
0001
0010
0001
0010
0100
1000
0100
0010
0001
1000
0001
0100
0001
0010
0100
,
1000
0100
0001
0100
1000
0010
0100
0001
0010
0100
1000
0100
0010
0001
0100
0010
,
1000
0001
0100
0010
1000
0001
0100
0010
1000
0001
0100
0010
1000
0100
0010
0001
,
0100
0010
1000
0100
0010
0001
0100
0010
1000
0100
0010
0001
0100
0010
1000
0100
,
0010
0001
0100
0010
1000
0010
0100
0001
0100
0010
1000
0010
0100
0001
0100
0010
,
1000
0010
0100
0001
0100
0010
1000
0010
0100
0001
0100
0010
1000
0100
0010
0100
,
1000
0001
1000
0100
0010
0100
1000
0001
0100
0010
0001
0010
0100
1000
0100
0010
,
0001
0010
0100
0001
0010
0100
1000
0100
0010
0001
1000
0100
0010
0001
0100
0010
,
1000
0001
0100
0010
1000
0001
1000
0010
0100
0001
1000
0010
0100
0010
0100
0010
,
1000
0100
0010
0001
0100
0001
0100
0001
0100
0010
1000
0100
0001
0100
0001
0100
,
0010
1000
0100
0001
0100
0001
0100
0010
1000
0100
1000
0100
1000
0100
0010
0001
,
1000
0100
1000
0100
1000
0100
0010
0001
1000
0100
0010
0001
0100
0010
0100
1000
,
0100
0010
0001
0100
0010
1000
0001
0100
0010
0100
0010
1000
0100
0010
0001
0010
,
0100
1000
0001
0010
0100
1000
0001
0100
0010
0100
0001
0100
0010
1000
0100
0010
,
0001
1000
0001
0100
0010
1000
0100
0010
0001
1000
0010
0100
0010
1000
0100
0010
,
0001
0100
1000
0100
0001
0010
0100
1000
0010
0100
0001
1000
0001
0010
0100
1000
,
0001
1000
0001
0100
0010
1000
0100
0010
0001
0000
0100
0000
0010
0000
0100
0000
,
0001
0010
0100
1000
0100
0010
0001
1000
0100
0010
0001
0010
0100
1000
0001
1000
,
0001
1000
0001
1000
0100
0010
0001
0010
0100
1000
0100
0010
0001
0010
0100
1000
,
0001
1000
0001
1000
0001
1000
0001
1000
0001
1000
0001
1000
0001
1000
0001
1000
,
0001
0100
0010
0100
0001
0100
0010
0100
0001
0100
0010
0100
0001
0100
0010
0100
0001
0100
0010
0100
0001
0100
0010
0100
,
0001
1000
0001
1000
0001
1000
0100
0010
,
0001
0100
0010
0001
0100
0010
1000
0100
,
0010
0001
1000
0010
0001
1000
0100
0010
,
0001
0010
0100
0001
0010
0100
1000
0100
,
1000
0010
0100
1000
0010
0100
0001
0010
,
1000
0100
0001
1000
0100
0001
0100
0010
,
0100
1000
0010
0100
1000
0010
0100
0001
,
0010
0100
1000
0010
0100
1000
0001
0100
,
0011
0100
0001
0010
0100
0001
1000
0010
,
1001
0100
1001
0010
1100
0010
0101
0010
,
1100
0001
0010
0100
1000
0100
0010
0001
,
0110
0001
0010
0100
1000
0100
0010
0001
,
1100
0010
0001
0010
0100
1000
0100
0010
,
0101
0010
0100
0010
1000
0001
1000
0001
,
1000
0010
0100
0001
1000
0010
0100
0001
0100
0010
1000
0010
0100
0001
0100
0010
,
1000
0000
0100
0000
1000
0000
0100
0000
1000
0000
0100
0000
1000
0000
0100
0000
1000
0000
0100
0000
1000
0000
0100
0000
1000
0000
0100
0000
1000
0000
0100
0000
1000
0000
0100
0000
1000
0000
0001
0MM0
1000
0000
0MM1
0000
1000
0MM0
0002
0000
,
2MM0
0MM0
0MM0
0MM0
0MM0
0M00
00M0
0M00
00M0
0M00
00M0
0M00
00M0
0M00
0000
00M0
,
3003
MMMM
0000
M00M
0000
0MM0
0000
0000
0000
0000
0000
0000
0000
0000
0000
0000
;
