#TITLE:Red Sheets, White Lies;
#SUBTITLE:;
#ARTIST:Kkrusty;
#TITLETRANSLIT:;
#SUBTITLETRANSLIT:;
#ARTISTTRANSLIT:;
#CREDIT:;
#BANNER:../fallback-bn.png;
#BACKGROUND:../fallback-bg.png;
#LYRICSPATH:;
#CDTITLE:monst3rjoe - cdtitle.png;
#MUSIC:04.Red Sheets, White Lies.ogg;
#OFFSET:0.024;
#SAMPLESTART:28.991;
#SAMPLELENGTH:12.000;
#SELECTABLE:YES;
#BPMS:0.000=120.000,16.000=240.000,471.000=120.000;
#STOPS:15.750=0.010
,15.896=0.010
,16.000=0.063
,16.250=0.063
,16.500=0.063
,16.750=0.063
,17.000=0.063
,17.250=0.063
,17.500=0.063
,17.750=0.063
,18.000=0.063
,18.250=0.063
,18.500=0.063
,18.750=0.063
,19.000=0.063
,19.250=0.063
,19.500=0.063
,19.750=0.063
,20.000=0.063
,20.250=0.063
,20.500=0.063
,20.750=0.063
,21.000=0.063
,21.250=0.063
,21.500=0.063
,21.750=0.063
,22.000=0.063
,22.250=0.063
,22.500=0.063
,22.750=0.053
,23.000=0.063
,23.250=0.063
,23.500=0.063
,23.750=0.063
,24.000=0.063
,24.250=0.063
,24.500=0.063
,24.750=0.053
,25.000=0.063
,25.250=0.063
,25.500=0.063
,25.750=0.063
,26.000=0.063
,26.250=0.063
,26.500=0.063
,26.750=0.063
,27.000=0.063
,27.250=0.063
,27.500=0.063
,27.750=0.069
,28.000=0.063
,28.250=0.063
,28.500=0.063
,28.750=0.063
,29.000=0.063
,29.250=0.063
,29.500=0.063
,29.750=0.063
,30.000=0.063
,30.250=0.063
,30.500=0.063
,30.750=0.063
,31.000=0.063
,31.250=0.063
,31.500=0.063
,31.750=0.060
,225.000=0.500
,342.000=2.500
;
#BGCHANGES:;
// cache tags:
#FIRSTBEAT:16.000;
#LASTBEAT:478.500;
#SONGFILENAME:Songs/SSSC PACK/[Monst3rjoe] - Red Sheets, White Lies/blank sm.sm;
#HASMUSIC:1;
#HASBANNER:1;
#MUSICLENGTH:133.495;
// end cache tags

//---------------dance-single - Monst3rjoe----------------
#NOTES:
     dance-single:
     Monst3rjoe:
     Challenge:
     15:
     1.000,1.000,0.464,0.719,0.940,992.000,62.000,96.000,100.000,0.000:


0000
0000
0000
0000
,
0000
0000
0000
0000
,
0000
0000
0000
0000
,
0000
0000
0000
0000
,
M000
0M00
00M0
000M
00M0
0M00
M000
000M
,
0M00
00M0
M000
00M0
0M00
000M
M000
0M00
,
M000
000M
0M00
000M
M000
00M0
M000
0000
,
0MM0
0000
0000
M00M
0MM0
0000
0000
0000
0000
0000
0000
0000
,
0002
1003
0100
1000
0002
0000
1003
0000
,
0200
0310
0001
0010
0002
0000
1003
0000
,
0020
0130
0001
0100
0020
0000
1030
0000
,
0002
0103
0010
1000
0020
0000
1030
0000
,
0200
1300
0001
1000
0200
0000
1300
0000
,
0002
1003
0100
1000
0002
0000
0103
0000
,
0020
0130
0001
0100
0020
0000
1030
0000
,
0200
0310
0001
0010
0100
0M00
0100
0000
,
2000
3100
0010
0100
2000
0000
3001
0000
,
0200
0310
0100
0001
0020
0000
0031
0000
,
0200
0301
0010
0100
2000
0000
3100
0000
,
2000
3010
0100
0001
0200
0000
0301
0000
,
0020
0031
1000
0001
0020
0000
0031
0000
,
2000
3001
0010
0001
2000
0000
3010
0000
,
0200
0310
1000
0010
0200
0000
0301
0000
,
4000
0000
0000
0000
0000
0000
0000
3000
0001
0100
0001
0100
0001
0000
MMMM
0000
,
1001
0000
1000
0001
1000
0000
0001
0000
1000
0100
1000
0100
1000
0000
0001
0100
,
0001
0000
0000
0000
0000
0000
1000
0000
0000
0000
0000
0000
1000
0000
0000
0000
0000
0000
0001
0000
0000
0010
0000
0000
0001
0000
0000
0010
0000
0000
0100
0000
0000
1000
0000
0000
0100
0000
1000
0000
0100
0000
1000
0000
0000
0100
0000
0000
,
1000
0000
0001
0000
0010
0100
0010
0000
0001
0000
0001
0000
0010
0000
0001
0000
,
1000
0001
0010
0100
1000
0100
0010
0001
1000
0001
1000
0001
0100
0000
0001
0100
,
0001
0100
0001
0400
0004
0000
0000
0000
0000
0000
0000
0000
0000
0303
0000
0000
0010
0000
1000
0000
0010
0000
0000
0000
1000
0000
0001
0000
1000
0000
0000
0000
,
0001
0100
0010
1000
0010
0100
0001
0100
0001
0000
1000
0000
0001
0000
1000
0000
,
1100
0000
1000
0100
0010
0000
0100
0010
0001
0000
1000
0100
1000
0001
1000
0000
,
0010
0000
0000
0100
0000
0000
0010
0000
0000
1000
0000
0000
0001
0100
0001
M100
0001
0000
0100
0000
0000
0010
0000
0000
,
1010
0000
0000
1001
0000
0000
12MM
0000
0300
M12M
0000
0030
,
MM12
0000
0000
0000
0000
0000
0000
0000
0003
0000
0000
0000
0100
0000
0000
0010
0000
0000
1000
0000
0000
0000
0000
0000
0010
0000
0000
0100
0000
0000
0001
0000
0000
0100
0000
0000
0001
0000
0000
0000
0000
0000
0000
0000
0000
0000
0000
0000
,
1000
0001
1000
0000
0200
0000
0320
0000
0032
0000
0023
0000
0130
1000
0100
1000
,
0001
0000
0000
0100
0000
0000
0010
0000
0000
1000
0000
0000
0100
0000
0000
0010
0000
0000
0001
0000
0000
1000
0001
1000
,
0001
0000
0100
0000
0100
0000
0001
0000
1000
0010
1000
0001
1000
0010
1000
0001
,
0100
0000
0001
0010
0001
0000
0100
0000
0001
0010
0100
1000
0100
0000
1000
0001
,
1000
0000
0010
0100
0010
0000
0100
0000
0001
0100
0010
0100
0001
0000
1000
0001
,
1000
0000
0001
0100
0001
1000
0002
0000
0043
0000
0000
0000
0034
0000
0000
0000
,
1003
0000
0000
0100
0000
0000
1000
0000
0000
0000
0000
0000
0001
0000
0000
0100
0000
0000
0001
0000
0000
0000
0000
0000
1000
0000
0000
0000
0000
0000
0001
0000
0000
0100
0000
0000
0001
0000
0000
0000
0000
0000
0100
0000
0001
0000
0100
0000
,
0001
0000
0100
0010
0100
0010
1000
0001
1000
0000
0100
0000
0010
0100
1000
0000
,
0100
1000
0001
0000
0010
0000
0001
0000
1000
0000
0004
0003
1100
0000
0100
0000
,
200M
0000
0000
0000
0000
0000
0000
0000
3100
0000
0000
0000
1000
0100
1000
0100
1000
0000
0000
0000
0100
0000
1000
0000
0100
0000
0000
0000
1000
0000
0001
0000
,
1000
0001
0100
0000
0100
0000
0001
0000
2MMM
3000
2MMM
3000
0001
0000
1000
0000
,
0001
0000
0100
0000
0001
0000
0000
0000
0100
0000
0000
0000
0001
0100
0001
0100
0001
0000
0000
0000
0100
0000
0010
0000
0100
0000
0000
0000
0001
0000
1000
0000
,
0001
1000
0100
1000
1100
0100
1000
0001
,
0100
0010
1000
0001
1001
1000
0001
1000
,
0004
4000
0000
0000
0000
0000
0000
3003
0000
0000
MMMM
0000
0000
0000
0000
0000
,
2000
3000
0002
0003
,
1000
0000
0000
0001
0000
0000
1000
0001
1000
0001
0000
0000
0000
0000
0000
1000
0000
0000
0002
0000
0000
0000
0000
0000
,
2003
0000
0000
0000
0000
0000
0000
0000
3000
0000
0000
0000
0001
1000
0001
1000
0001
0000
0000
0000
0000
0000
0000
0000
0000
0000
0000
0000
0000
0000
0000
0000
,
1000
0001
1000
0001
2000
0000
3001
1000
,
0002
2003
3002
2003
,
3001
1000
0001
1000
0002
0000
0103
0010
,
0200
0000
0301
1000
0001
1000
0001
0000
,
1001
0000
0000
0000
0000
0000
0000
0000
2MM2
3003
0000
0000
1000
0000
0000
0000
0010
0000
0100
0000
0001
0000
0100
0000
0010
0000
0100
0000
0001
0000
0000
0000
,
1000
0001
1001
0001
2000
3200
0320
0030
,
0011
0000
0001
0010
0001
0000
0010
0100
0010
0000
0100
1000
0100
0000
2000
0000
,
3002
2003
3002
0103
1010
1000
1001
0001
,
0010
0000
0100
1000
0001
0100
0000
0001
0100
0000
0020
0000
0230
0000
0000
0000
,
0301
0000
0000
1000
0000
0000
0100
0000
0000
0010
0000
0000
0001
0000
0000
0000
0000
0000
0100
0001
0100
0001
0100
0001
,
0100
0000
0001
0000
0100
0010
0100
0000
0001
0000
1000
0001
1000
0000
0010
0000
,
1010
1000
0001
0010
0100
1000
1100
0000
,
1001
0000
0000
0000
MMMM
0000
0000
0000
0002
0003
0002
0003
0200
0000
0320
0000
,
1030
0000
0000
0010
0000
0000
1000
0000
0000
0010
0000
0000
0100
0000
0000
0010
0000
0000
1000
0000
0000
0000
0000
0000
1001
0000
0000
0000
0000
0000
0001
0000
1000
0000
0001
0000
1000
0000
0001
0000
1000
0000
0001
0000
0000
0000
0000
0000
,
1000
0100
2000
0000
3200
0000
2300
0000
3002
0000
0023
0030
1100
0000
0001
0000
,
1100
1000
0001
0100
0100
0001
1000
0010
,
0010
0000
1000
0000
0100
1000
0100
1000
0010
0000
1000
0000
0110
0000
0001
0000
,
0110
1000
0101
0000
1010
1000
1010
0001
,
0010
0100
1000
0100
0010
0100
1000
0000
0001
0000
1000
0001
1000
0000
0001
1000
,
0001
0010
0001
0010
0100
1000
0100
1000
0001
0000
1000
0000
1001
0000
0000
0000
,
0001
0100
0001
0100
0010
0000
1000
0000
1010
0000
0010
0000
1000
0000
0001
0000
,
1001
0000
1000
0100
1000
0000
0001
0000
0001
0000
1000
0000
0100
0000
1000
0000
,
1100
0000
0000
0000
0100
0000
1000
0000
0100
0000
0000
0000
1000
0000
0000
0000
0001
0000
0010
0000
0001
0000
0000
0000
1000
0000
0000
0000
0001
1000
0001
1000
,
0004
0000
4000
0000
0000
0000
0000
0000
0000
0000
3003
0000
0010
0000
0000
0100
0000
0000
0001
0000
0000
0010
0000
0000
0002
0000
0000
0000
0000
0000
0203
0000
0000
0000
0000
0000
0320
0000
0000
0000
0000
0000
2030
0000
0000
0000
0000
0000
,
3200
0320
0032
0203
0320
2030
3200
2300
,
3001
0000
0100
0010
0100
0000
0000
0000
0010
1000
0010
1000
0010
1000
0010
0000
,
0110
1000
0110
0001
0110
1000
0101
0000
,
0011
0000
0010
0000
0001
0010
0100
1000
0001
1000
0001
0000
0010
0001
0010
0000
,
0011
0000
0000
0000
0000
0000
0001
0000
0000
0000
0000
0000
0010
0000
0000
0000
0000
0000
0001
0000
0010
0000
0001
0000
0010
0000
0000
0000
0000
0000
0000
0000
0000
0100
0000
0000
1000
0000
0000
0000
0000
0000
0001
0000
0000
0000
0000
0000
,
1000
0010
0000
0000
1040
0000
0000
0000
0130
0000
0001
0000
1001
0000
1000
0000
,
0001
1000
0001
1000
0010
0000
0010
0000
0110
0000
0100
0001
0100
0000
0001
0000
,
0400
0000
0301
0000
0010
0100
1100
0000
,
2000
3002
0103
0001
0011
0010
0100
1000
,
1100
0000
0100
0000
1000
0000
M000
000M
00M0
0M00
0000
0000
1001
0000
0001
0000
,
0010
0100
1000
0001
1000
0001
0010
0100
,
1000
0100
0010
0001
1000
0010
1000
0001
,
1000
0100
1000
0001
1000
0010
0100
0001
,
1000
0001
0010
0001
1000
0001
0101
0001
,
1000
0001
0010
0001
1000
0010
1000
0001
,
0100
0001
1000
0100
1000
0010
0100
0001
,
0100
0000
0010
0000
1000
0000
0001
0000
0010
0000
0100
0000
1000
0001
1000
0001
,
1000
0001
1000
0001
01M0
0000
0001
0010
0001
0010
0001
0010
0100
0000
1000
0001
,
0000
1000
0001
0000
1001
0000
0001
0010
0100
0000
0010
0100
0010
0100
0000
1000
,
0001
0100
0010
1000
0001
1000
0010
0000
0100
0000
0001
0010
0001
0000
1000
0100
,
4000
0400
0000
0000
0300
3000
0000
0000
0001
0000
1000
0000
0001
0000
1000
0000
0100
0000
0010
0000
0001
0000
0000
0000
1000
0000
0010
0000
0100
0000
0010
0000
,
1000
0010
0100
0001
0010
0000
0100
0000
0010
0001
0010
0100
1000
0000
0001
0000
,
1001
0000
0001
0100
0001
0000
1000
0000
0100
0000
0010
0001
0010
0100
1000
0001
,
0010
0100
1000
0100
0010
0000
0001
0100
0001
0100
0001
0000
0100
0010
1000
0001
,
1000
0010
1000
0001
0010
0000
0100
1000
0100
0010
0001
0000
1000
0000
0010
0000
,
1000
0000
0000
0000
0000
0000
0001
0000
1000
0000
0001
0000
1000
0000
0000
0001
0000
0000
1000
0000
0000
0001
0000
0000
1000
0000
0000
0000
0000
0000
0000
0000
0000
1001
0000
0000
0001
0000
0000
0000
0000
0000
0100
0000
0000
0000
0000
0000
,
1001
0000
0000
0100
0000
0000
MM21
0000
0000
0000
0030
0000
M21M
0000
0000
0000
0300
0000
21MM
0000
0000
0000
3000
0000
,
0010
0100
0001
0000
0100
0010
1000
0010
1000
0000
0000
0000
0001
1000
0001
0000
,
0020
0000
0230
0000
2300
0000
3200
0000
0310
0001
0010
0001
1000
0000
0010
0000
,
0100
0000
0000
0001
0000
0000
0010
0000
0000
0100
0000
0000
1000
0000
0000
0001
1000
0001
1000
0000
0000
0010
0000
0000
,
0010
0000
1000
0000
0001
0100
0001
1000
0001
0100
0001
1000
0010
0000
1000
0100
,
1000
0000
0010
0000
1000
0100
0010
0001
0010
0000
0001
1000
0001
0000
0100
0010
,
0100
0000
0010
0000
1000
0010
0100
0010
1000
0000
0001
1000
0001
0000
1000
0010
,
1000
0001
2000
0000
3004
0000
0000
0000
4003
0000
0000
0000
3001
0010
0001
0000
,
1000
0000
0000
0100
0000
0000
1000
0000
0000
0000
0000
0000
0100
0000
0000
0000
0000
0000
0010
0000
0000
0001
0000
0000
0010
0000
0000
0000
0000
0000
0001
0000
0010
0000
0001
0000
0010
0000
0000
0000
0000
0000
0100
0000
0000
1000
0000
0000
,
0100
1000
0010
0100
0001
0000
1000
0000
0010
0100
0001
0000
0010
0001
1000
0000
,
0100
0000
1000
0000
0001
0000
4000
3000
0011
0000
0010
0000
M002
0000
0000
0000
,
0013
0000
0000
0000
0001
0010
0001
0010
0001
0000
0000
0000
0010
0000
0001
0000
0010
0000
0000
0000
0001
0000
1000
0000
0001
0000
1000
0000
0010
0000
0000
0000
,
0010
0000
1000
0000
MMM2
0003
MMM2
0003
1000
0000
0001
0000
1000
0010
1000
0000
,
0010
0000
0000
0000
1000
0010
1000
0010
1000
0000
0000
0000
0010
0000
0100
0000
0010
0000
0000
0000
1000
0000
0001
0000
1000
0000
0000
0000
0001
0000
0000
0000
,
0010
0001
0011
0010
0001
1000
0010
0100
,
0001
0000
1000
0000
1001
0000
0001
0000
0110
0000
1000
0000
00M0
000M
0M00
M000
,
000M
0000
000M
0000
0M00
00M0
M000
0M00
M000
0000
M000
0000
0M00
00M0
000M
00M0
,
0M00
0000
0M00
0000
000M
0M00
00M0
M000
00M0
0000
00M0
0000
0000
0000
0000
0000
;
