#TITLE:Intro;
#SUBTITLE:Banjo-Kazooie;
#ARTIST:Rareware;
#TITLETRANSLIT:;
#SUBTITLETRANSLIT:;
#ARTISTTRANSLIT:;
#CREDIT:;
#BANNER:intro.PNG;
#BACKGROUND:bk.PNG;
#LYRICSPATH:;
#CDTITLE:kyka06.png;
#MUSIC:BanjoKazooieIntro.mp3;
#OFFSET:-0.100;
#SAMPLESTART:36.992;
#SAMPLELENGTH:12.000;
#SELECTABLE:YES;
#BPMS:0.000=151.130,20.000=148.130,28.000=151.130,40.000=148.130,52.000=153.130,64.000=148.130,72.000=151.130,84.000=148.130,91.000=151.130,99.000=148.130,102.000=151.130,106.000=148.130,112.000=151.130,136.000=148.130,148.000=151.130;
#STOPS:;
#BGCHANGES:1.000=intro-bg.PNG=1.000=0=0=1,
158.000=bk.PNG=1.000=0=0=1,
99999=-nosongbg-=1.000=0=0=0 // don't automatically add -songbackground-
;
// cache tags:
#FIRSTBEAT:0.000;
#LASTBEAT:157.000;
#SONGFILENAME:Songs/new/BK - Intro/intro.sm;
#HASMUSIC:1;
#HASBANNER:1;
#MUSICLENGTH:64.156;
// end cache tags

//---------------dance-single - ----------------
#NOTES:
     dance-single:
     :
     Challenge:
     11:
     0.955,1.000,0.592,0.000,1.000,391.000,38.000,0.000,0.000,0.000:
1000
0100
0010
0001
0000
0000
0010
0100
0010
0100
0000
0000
,
1000
0000
0000
0000
0100
0000
0000
0000
0010
0000
0000
0000
0001
0000
0000
0000
0000
0000
0000
0000
0000
0000
0000
0000
0000
0000
0000
1001
0000
0000
0000
0000
1001
0000
0000
0000
0000
0000
0000
0000
0000
0000
0000
0000
0000
0000
0000
0000
,
1000
0100
0010
0001
1000
0100
0010
0001
0100
0010
0100
0010
0100
0010
0100
0010
,
1000
0100
1000
0100
1000
0100
1000
0100
0010
0001
0010
0001
0010
0001
0010
0001
,
1000
0100
0000
0110
0000
0011
0000
1100
,
1000
0100
0010
0001
0100
0001
0100
0010
1000
0100
0010
0001
1000
0100
1000
0100
,
0010
0100
0010
0100
1000
0100
0010
0100
1000
0001
0100
0010
0001
0010
0100
1000
,
0010
0000
0000
0000
1000
0000
0000
0100
0001
0000
0000
0000
1000
0000
0000
0000
,
0110
0000
0000
0000
1000
0000
0000
0001
0100
0000
0000
0000
1010
0000
0000
0000
,
1000
0100
0010
0001
0100
0001
0010
0001
0100
0001
0010
0001
0100
0001
0010
0001
,
0100
0010
1000
0100
0010
0100
1000
0001
1000
0100
0010
0001
0100
0010
1000
0100
,
0010
0000
0000
0000
0001
0000
0000
0100
0010
0000
0000
0000
1000
0000
0000
0000
,
0100
0010
0001
0100
,
0010
0000
1000
0100
0010
0000
0001
0000
0010
0100
1000
0100
0010
0001
0010
0100
,
1000
0000
0100
0010
0001
0000
0100
0000
0010
1000
0100
0010
0100
1000
0100
0010
,
0100
0000
0000
0000
1000
0000
0000
0100
0001
0000
0000
0000
0010
0000
0000
0000
,
0100
0001
0010
0001
0100
0000
0001
0000
1000
0000
0100
0000
0010
0000
0001
0000
,
1000
0000
0100
0010
0001
0000
0100
0000
0010
1000
0010
0100
0010
1000
0010
1000
,
0010
0000
0001
0010
0100
0000
0001
0000
0001
0100
0001
0010
0001
0100
0001
1000
,
0001
0000
1000
0100
0010
0000
0010
0001
,
0100
0000
0100
0010
1000
0000
1000
0100
,
1000
0100
0010
0001
0100
0000
0010
0000
1000
0000
0100
0000
0100
0000
1000
0000
,
0010
1000
0010
1000
0001
0000
0100
0000
0010
0000
1000
0000
0100
0000
0010
0000
,
0001
0000
0000
0000
0100
0000
0000
0010
1000
0000
0000
0000
0101
0000
0000
0000
,
1000
0100
0010
0001
1000
0000
0010
0000
0100
0000
0010
0000
1001
0000
0110
0000
,
0001
0010
0100
1000
0001
0010
0100
1000
0001
0010
0100
1000
0001
0010
0100
1000
,
1000
0100
0010
0001
1000
0100
0010
0001
1000
0100
0010
0001
1000
0100
0010
0001
,
1001
0000
0000
0000
1100
0000
0000
0100
0011
0000
0000
0000
1100
0000
0000
0000
,
0110
0000
0000
0000
0011
0000
0000
1000
0101
0000
0000
0000
1001
0000
0000
0000
,
0001
0010
0100
1000
0001
0010
0100
1000
0001
0010
0100
1000
0001
0010
0100
1000
,
1000
0100
0010
0001
1000
0100
0010
0001
1000
0100
0010
0001
1000
0100
0010
0001
,
1001
0000
0000
0000
1100
0000
0000
0100
0011
0000
0000
0000
1100
0000
0000
0000
,
0110
0011
0101
1001
,
1000
0000
0100
0010
1000
0000
0001
0000
0100
0010
1000
0100
0010
0001
0100
0010
,
0001
0000
0010
0100
0001
0000
1000
0000
0010
0100
0001
0010
0100
1000
0010
0100
,
1000
0000
0100
0010
1000
0000
0001
0000
0100
0010
1000
0100
0010
0001
0100
0010
,
1100
0000
0000
0000
0011
0000
0000
0100
1100
0000
0000
0000
0110
0000
0000
0000
,
0110
0000
0000
1100
1100
0000
0000
0011
,
0110
0000
1000
0100
1000
0000
1000
0000
0001
0010
0100
1000
0110
0000
1001
0000
,
0000
1100
0000
0000
;

//---------------dance-single - ----------------
#NOTES:
     dance-single:
     :
     Hard:
     10:
     0.786,0.918,0.140,0.000,0.748,344.000,9.000,0.000,0.000,0.000:
1000
0100
1000
0100
0000
0000
0010
0001
0010
0001
0000
0000
,
1000
0000
0000
0000
0100
0000
0000
0000
0100
0000
0000
0000
1000
0000
0000
0000
0000
0000
0000
0000
0000
0000
0000
0000
0000
0000
0000
1001
0000
0000
0000
0000
1100
0000
0000
0000
0000
0000
0000
0000
0000
0000
0000
0000
0000
0000
0000
0000
,
1000
0100
1000
0100
1000
0100
1000
0000
0010
0100
0010
0100
0010
0100
0010
0000
,
0100
0001
0100
0001
0100
0001
0100
0000
0010
0001
0010
0001
0010
0001
0010
0001
,
0010
0001
0000
1000
0000
0100
0000
0010
,
0001
1000
0001
0000
0010
0100
0010
0000
0100
1000
0010
0000
0100
0010
0100
0000
,
0010
1000
0100
0000
0001
0100
0001
0000
1000
0100
1000
0000
0010
0001
0010
0000
,
0001
0000
0000
0000
0100
0000
0000
0010
1000
0000
0000
0000
0100
0000
0000
0000
,
0010
0000
0000
0000
0001
0000
0000
0100
0010
0000
0000
0000
1000
0000
0000
0000
,
0100
1000
0100
0000
0010
0100
0010
0000
0100
0010
0100
0000
0010
1000
0010
0000
,
0001
0100
0001
0000
0010
0001
0100
0000
0010
1000
0010
0000
0100
0001
1000
0000
,
0100
0000
0000
0000
0010
0000
0000
0001
1000
0000
0000
0000
0100
0000
0000
0000
,
0010
0001
0100
0010
,
1000
0000
0100
1000
0100
0000
1000
0000
0100
0010
0100
0000
0010
0001
0010
0001
,
0010
0000
0001
1000
0010
0000
0100
0000
0001
1000
0001
0000
0100
0001
1000
0001
,
0010
0000
0000
0000
0100
0000
0000
1000
0010
0000
0000
0000
0100
0000
0000
0000
,
0001
0010
0001
0000
0010
0000
0100
0000
1000
0000
0010
0000
0110
0000
1000
0000
,
0100
0000
1000
0001
0010
0000
0001
0000
1000
0000
0100
0000
0010
0001
0010
0001
,
0100
0000
0010
1000
0100
0000
0010
0000
0001
0000
0100
0000
0010
1000
0010
0100
,
0010
0000
1000
0100
0010
0000
0010
0001
,
0100
0000
0100
0010
1000
0000
0100
0010
,
1000
0100
0001
0100
1000
0000
0001
0000
0100
0000
0010
0000
1000
0000
0001
0000
,
0100
0001
0010
0001
0100
0000
0001
0000
1000
0000
0100
0000
0010
0000
0001
0000
,
0100
0000
0000
0000
0010
0000
0000
1000
0100
0000
0000
0000
0010
0000
0000
0000
,
0010
0001
0100
0001
0010
0000
0001
0000
0010
0000
0001
0000
1000
0000
0100
0000
,
1000
0100
1000
0000
0010
0100
0010
0000
1000
0001
1000
0000
0001
0010
0001
0000
,
0010
0100
0010
0000
0100
1000
0100
0000
1000
0010
1000
0000
0010
0100
0010
0000
,
1000
0000
0000
0000
0001
0000
0000
0001
0010
0000
0000
0000
0100
0000
0000
0000
,
1000
0000
0000
0000
0010
0000
0000
0010
0100
0000
0000
0000
0001
0000
0000
0000
,
0010
0001
0010
0000
0100
1000
0100
0000
0010
0100
0010
0000
0001
1000
0001
0000
,
1000
0010
1000
0000
0010
0100
0010
0000
0100
0010
0100
0000
0010
1000
0010
0000
,
0100
0000
0000
0000
0001
0000
0000
0010
0100
0000
0000
0000
1000
0000
0000
0000
,
0010
0100
0001
0010
,
0001
0000
0010
0000
0100
0000
1000
0000
0010
0100
0010
0100
0010
0100
0010
0100
,
0010
0000
0100
0000
0010
0000
1000
0000
0100
0010
0001
0100
0001
1000
0010
0000
,
0100
0000
0001
0000
1000
0000
0100
0010
0001
0000
1000
0000
0100
0010
0100
0010
,
0001
0000
0000
0000
1000
0000
0000
0010
0100
0000
0000
0000
0001
0000
0000
0000
,
1001
0000
0000
0110
0110
0000
0000
1010
,
1100
0000
0010
0001
0010
0000
0001
0000
0100
0010
1000
0010
0100
0000
0001
0000
,
0000
1001
0000
0000
;

//---------------dance-single - ----------------
#NOTES:
     dance-single:
     :
     Medium:
     7:
     0.530,0.520,0.031,0.000,0.062,236.000,2.000,0.000,0.000,0.000:
1000
0100
1000
0100
0000
0000
0001
0100
0001
0100
0000
0000
,
0010
0100
0010
0100
0000
0000
0000
1000
0100
0000
0000
0000
,
0010
0001
0010
0001
0001
0100
0001
0100
,
0100
0010
1000
0100
0100
0010
0001
0100
,
0010
1000
0000
0100
0000
0010
0000
0001
,
1000
0100
1000
0000
0010
0001
0010
0000
,
0100
0001
0100
0000
0100
0010
0100
0000
,
1000
0100
0010
0001
,
0100
0000
0010
0000
1000
0000
0100
0010
,
0001
0100
0010
0000
1000
0100
0001
0000
,
0001
0100
1000
0000
1000
0010
0100
0000
,
0001
0010
0001
0100
,
0010
0000
1000
0000
0100
0000
0010
0001
,
0100
0010
0100
0010
1000
0000
1000
0000
,
1000
0100
0010
0001
0100
0010
1000
0100
,
0010
0001
0100
0010
,
1000
0100
1000
0100
0010
0010
0010
0010
,
0001
0000
0010
0000
0100
1000
0010
0100
,
0001
0000
0010
0000
0100
1000
0010
0100
,
0010
0000
1000
0100
1000
0000
0001
0100
,
0001
0000
0010
0100
0010
0000
0001
0010
,
0001
0010
0100
1000
0100
0000
0010
0000
,
0001
0100
0010
1000
0100
0000
0010
0000
,
0001
0000
0100
0010
1000
0000
0100
0000
,
0010
0001
0100
0000
0010
0100
0010
0000
,
1000
0100
1000
0100
0010
0001
0010
0001
,
0100
0010
0100
0010
1000
0100
1000
0100
,
1000
0010
0100
0001
,
0010
0001
0100
0010
,
1000
0100
0010
0001
0100
0010
1000
0100
,
0001
1000
0010
0001
0100
0010
1000
0100
,
0010
0001
0100
0010
,
1000
0100
0010
0001
,
0100
0010
1000
0000
0010
0100
0010
0001
,
0100
0010
1000
0000
1000
0100
0010
0001
,
0100
0010
1000
0000
0010
0001
0100
0010
,
1000
0100
0010
0001
,
0100
0000
0000
0010
1000
0000
0000
0100
,
0010
0001
0100
0010
1000
0001
1000
1001
,
0000
0110
0000
0000
;

//---------------dance-single - ----------------
#NOTES:
     dance-single:
     :
     Easy:
     3:
     0.227,0.275,0.094,0.031,0.000,94.000,6.000,2.000,0.000,0.000:
0000
0100
0000
0000
,
0000
1000
0000
0000
,
0001
0000
1000
0000
,
0010
0000
0100
0000
,
0010
0000
0000
0000
,
1000
1000
0001
0001
,
0010
0010
0100
0100
,
1000
0000
0000
0000
,
0001
0000
0000
0000
,
1000
1000
0010
0010
,
0100
0100
0010
0010
,
1000
0000
0000
0000
,
0001
0000
0000
0000
,
0100
0010
0100
0000
,
1000
0100
0010
0000
,
0001
0100
0010
0000
,
1000
0100
1000
0100
,
0010
0001
0010
0000
,
0100
1000
0010
0000
,
1001
0000
0110
0000
,
1100
0000
0110
0000
,
1000
0001
0010
0100
,
1000
0010
0001
0010
,
0100
0001
0010
0001
,
0100
0010
1000
0100
,
0010
0000
0001
0000
,
0100
0000
0010
0000
,
1000
0000
0000
0000
,
0001
0000
0000
0000
,
1000
0000
0010
0000
,
0100
0000
0010
0000
,
0100
0000
0000
0000
,
0010
0000
0000
0000
,
1000
0100
1000
0001
,
0002
0000
0000
0000
,
0103
0010
1000
0100
,
0020
0000
0000
0000
,
0031
0000
1000
0000
,
1000
0000
0000
0000
1000
0000
0000
0110
,
0000
1001
0000
0000
;
