#TITLE:Guchagucha Coke Screw;
#SUBTITLE:;
#ARTIST:t+pazolite;
#TITLETRANSLIT:;
#SUBTITLETRANSLIT:;
#ARTISTTRANSLIT:;
#CREDIT:;
#BANNER:Guchagucha Coke Screw-bn.png;
#BACKGROUND:Guchagucha Coke Screw-bg.png;
#LYRICSPATH:;
#CDTITLE:;
#MUSIC:Guchagucha Coke Screw.ogg;
#OFFSET:-0.025;
#SAMPLESTART:11.635;
#SAMPLELENGTH:16.000;
#SELECTABLE:YES;
#DISPLAYBPM:240.000;
#BPMS:0.000=100.000,16.000=240.000,166.000=224.000,167.000=232.000,168.000=240.000,196.000=252.000,197.000=250.000,198.000=245.000,199.000=240.000,436.000=120.000,438.000=240.000,470.000=120.000,472.500=240.000;
#STOPS:;
#BGCHANGES:;
// cache tags:
#FIRSTBEAT:20.000;
#LASTBEAT:475.500;
#SONGFILENAME:Songs/Index Tournament 1/Guchagucha Coke Screw/Guchagucha Coke Screw.sm;
#HASMUSIC:1;
#HASBANNER:1;
#MUSICLENGTH:129.173;
// end cache tags

//---------------dance-single - Sefirot----------------
#NOTES:
     dance-single:
     Sefirot:
     Challenge:
     14:
     1.000,1.000,0.488,0.488,0.561,891.000,63.000,63.000,16.000,0.000:
0000
0000
0000
0000
,
0000
0000
0000
0000
,
0000
0000
0000
0000
,
0000
0000
0000
0000
,
0000
0000
0000
0000
,
1000
1000
0001
0100
0010
0010
1000
1000
,
0001
0000
0100
0010
1000
0000
0001
0000
1000
0010
0100
0000
0001
0000
1000
0000
,
0001
0000
0010
0100
1000
0000
0001
0000
1000
0100
0010
0000
0001
0000
1000
0000
,
0010
0000
0100
0001
1000
0000
0001
0000
0010
0001
0100
0000
0010
0000
1000
0000
,
0200
1300
0002
1003
0020
1030
0200
1300
,
0001
0000
1000
0100
0010
0000
0001
0000
1000
0010
0100
0000
0001
0000
1000
0000
,
0001
0000
0010
0100
1000
0000
0001
0000
0100
0010
1000
0000
0001
0000
1000
0000
,
0100
0000
0010
0001
0100
0000
0010
0000
1000
0001
1000
0000
0001
0000
0010
0000
,
0011
0110
1100
1001
,
1000
0000
0100
0010
0001
0000
1000
0000
0001
0010
0100
0000
1000
0000
0001
0000
,
1000
0000
0010
0100
0001
0000
1000
0000
0001
0100
0010
0000
1000
0000
0001
0000
,
0010
0000
0100
1000
0001
0000
1000
0000
0010
1000
0100
0000
0010
0000
0001
0000
,
0200
0301
2000
3001
0020
0031
0200
0301
,
1000
0000
0001
0100
0010
0000
1000
0000
0001
0010
0100
0000
1000
0000
0001
0000
,
1000
0000
0010
0100
0001
0000
1000
0000
0100
0010
0001
0000
1000
0000
0001
0000
,
1000
0100
1000
0001
1000
0100
1000
0001
0100
0001
1000
0001
0100
0001
1000
0100
,
0010
0001
0010
0001
1000
0100
1000
0100
0010
0001
1000
0010
0100
0001
1000
0001
,
0010
0010
0100
1000
,
0010
0100
0001
0100
0010
1000
0001
1000
,
0200
0310
0200
1300
,
0200
0000
0310
0000
0001
0100
0010
1000
,
0100
0100
1000
0010
,
0100
0010
1000
0010
0100
0001
1000
0001
,
0020
0130
0020
0031
,
0020
0000
0130
0000
1000
0010
0100
0001
,
0100
0000
0010
0000
0100
0000
0001
0010
0001
0000
0100
0000
0010
1000
0010
1000
,
0001
0000
1000
0000
0100
0000
0010
0100
1000
0000
0010
0000
0100
0001
1000
0010
,
0100
0000
0001
0000
0010
0000
0100
1000
0100
0000
0010
0000
0001
1000
0001
1000
,
0001
0000
0100
0000
0010
0000
1000
0100
1000
0000
0010
0000
0100
0001
0100
0001
,
1000
0000
0100
0000
1000
0000
0010
0100
0001
0000
0010
0000
0100
1000
0001
0010
,
0100
0000
1000
0000
0001
0000
0100
0001
0100
0000
0010
0000
1000
0001
1000
0001
,
1000
0000
0001
0000
0100
0000
0010
1000
0100
0000
0010
0000
0001
1000
0010
1000
,
0001
0000
0100
0000
0010
0000
1000
0001
0010
0000
0001
0000
1000
0001
0010
0100
,
1000
0000
0001
0000
0100
0000
0010
1000
0001
0000
0100
0000
0010
1000
0001
1000
,
0010
0000
0100
0000
0001
0000
0100
0001
0010
0000
0100
0000
1000
0001
0100
0001
,
1000
0000
0100
0000
0010
0000
0001
1000
0010
0000
1000
0000
0001
1000
0100
0010
,
0001
0000
0100
0000
0100
0000
0100
0000
0100
0000
0000
0000
000M
00M0
0M00
M000
,
0001
0010
0100
1000
0001
0200
0000
0000
,
0301
0010
0100
1000
0001
0200
0000
0000
,
0301
0010
0100
1000
0001
0100
0010
0100
,
0001
0000
1000
0200
0000
0000
0300
0000
,
1000
1000
0000
0001
0100
0000
0101
0000
,
0100
0001
1000
0020
0000
0000
0130
0000
,
0010
0000
1000
0000
0001
0000
1000
0001
0000
1000
0001
0000
1000
0000
0100
0000
,
1100
0000
0110
0000
0011
0000
2002
3003
,
0001
0000
1000
0000
0100
0000
1000
0000
0020
0030
0200
0300
0001
0000
0010
0000
,
0001
0000
1000
0000
0100
0000
1000
0000
0020
0030
0200
0300
0001
0000
0010
0000
,
0001
0000
1000
0000
0100
0000
1000
0000
0020
0030
0200
0300
0002
0003
2000
3000
,
0200
0010
1300
0001
0100
0001
0010
0100
,
1000
0000
0001
0000
0100
0000
0001
0000
0020
0030
0200
0300
1000
0000
0010
0000
,
1000
0000
0001
0000
0100
0000
0001
0000
0020
0030
0200
0300
1000
0000
0010
0000
,
1000
0000
0001
0000
0100
0000
0001
0000
0020
0030
0200
0300
2000
3000
0002
0003
,
0200
0000
0010
0000
0301
0000
1000
0000
0010
1000
0001
0000
1000
0001
1000
0001
,
1000
0000
0001
0000
1000
0000
0001
0000
0020
0030
0200
0300
1000
0000
0001
0000
,
1000
0000
0010
0000
0100
0000
0001
0000
0020
0030
0200
0300
1000
0000
0001
0000
,
1000
0000
0010
0000
0100
0000
0001
0000
0020
0030
0200
0300
2000
3000
0002
0003
,
0200
0010
0301
1000
0010
1000
0100
0010
,
0001
1000
0000
0001
0010
0000
0100
0000
,
1000
0010
0200
0002
0000
0303
0101
0000
,
0001
0001
0010
0100
1000
0001
0100
0010
,
1000
0000
0100
0010
0100
0000
1000
0000
0002
0000
0000
0000
1003
0000
0000
0000
,
1000
1000
0100
0100
0010
0010
0001
0001
,
1000
0100
0010
0001
1000
0100
0010
0001
1000
0010
0100
0001
1000
0010
0100
0001
,
1000
0001
0100
0010
0000
0010
0100
0001
,
1000
0000
0000
0000
0100
0000
0000
0000
0100
0000
0000
0000
1000
0100
1000
0100
,
0010
0011
1001
1100
,
1000
0001
0000
0101
0000
1001
0000
0001
,
0011
1001
1010
1001
,
0001
1000
0000
1100
0000
1001
0000
1000
,
1010
1001
0101
1001
,
1000
0010
0000
0110
0000
1010
0000
0010
,
0110
1010
1001
1100
,
1000
0100
0000
0110
0000
1100
0000
0100
,
0110
0011
1001
0101
,
0001
1000
0000
1100
0000
1001
0000
1000
,
1010
1001
0011
1001
,
1000
0001
0000
0101
0000
1001
0000
0001
,
0011
1001
1100
1001
,
1000
0010
0000
0110
0000
1001
0000
1000
,
0010
0100
0001
1000
0100
0010
0001
1000
,
0001
0100
0001
0100
0001
0100
0001
0100
0010
1000
0010
1000
0010
1000
0010
1000
,
0010
0000
0100
0001
1000
0000
0001
0000
0010
0100
1000
0000
0010
0000
1000
0000
,
0100
0000
0010
0001
1000
0000
0010
0000
0100
0001
1000
0000
0100
0000
0010
0000
,
0100
0000
1000
0001
0100
0000
0010
0000
0100
0001
0010
0000
0100
0000
1000
0000
,
0200
0310
0002
0103
0020
1030
0200
0310
,
0001
0000
0100
0010
1000
0000
0001
0000
1000
0001
0010
0000
0100
0000
1000
0000
,
0010
0000
1000
0001
0100
0000
0001
0000
0010
0001
1000
0000
0010
0000
0100
0000
,
0001
0000
0010
0100
1000
0000
0010
0000
1000
0001
1000
0000
0010
0000
1000
0000
,
1010
0110
0101
1001
,
1000
0000
0100
0010
0001
0000
1000
0000
0010
1000
0001
0000
0100
0000
0001
0000
,
0010
0000
0100
1000
0001
0000
0100
0000
0010
1000
0001
0000
0010
0000
0100
0000
,
1000
0000
0001
1000
0100
0000
0010
0000
0100
1000
0010
0000
0100
0000
0001
0000
,
0200
0310
2000
3100
0020
0031
0200
0310
,
1000
0000
0010
0100
0001
0000
1000
0000
0100
1000
0001
0000
0100
0000
0010
0000
,
1000
0000
0100
0010
0001
0000
1000
0000
0001
0100
0010
0000
1000
0000
0001
0000
,
0100
0001
1000
0001
0100
0010
1000
0001
0100
0001
1000
0100
0010
0001
1000
0001
,
1000
1100
1001
0101
,
1001
0000
1000
0000
0100
0000
0010
0001
,
0000
0001
1000
0000
0002
0000
0203
0000
,
0310
0000
1000
0000
0001
0000
0100
0001
,
0000
0001
2000
0000
0100
0000
3001
0000
,
1000
0000
0010
0000
0100
0000
0010
1000
,
0000
1000
0002
0000
0023
0000
0130
0000
,
1000
0001
0100
0010
,
M00M
0000
000M
00M0
0M00
0000
M000
0000
0001
0000
0000
0000
1000
0000
0000
0000
,
0010
0100
0010
1000
0000
1000
0001
0000
,
0010
0010
0100
0000
1000
0000
0001
0000
,
0100
0010
0100
0001
0000
0001
1000
0000
,
0100
0100
0010
0000
0001
1000
0100
1000
,
0010
0100
0010
1000
0001
0010
0001
1000
,
0100
0000
0010
0000
0001
0000
1000
0000
0001
1000
0001
0100
0001
1000
0001
0100
,
0010
1000
0001
1000
0010
1000
0001
1000
0010
0100
0001
1000
0010
0100
0001
1000
,
0001
0010
0100
1000
0001
0010
0100
1000
0MM1
0000
00M0
0M00
M000
0000
000M
0000
,
0000
1010
0000
0110
0000
0101
0000
0011
;
