#TITLE:Treasure Trove Cove;
#SUBTITLE:Banjo-Kazooie;
#ARTIST:Rareware;
#TITLETRANSLIT:;
#SUBTITLETRANSLIT:;
#ARTISTTRANSLIT:;
#CREDIT:;
#BANNER:ttc.png;
#BACKGROUND:ttc-bg.png;
#LYRICSPATH:;
#CDTITLE:kyka06.png;
#MUSIC:TreasureTroveCove.mp3;
#OFFSET:0.000;
#SAMPLESTART:59.647;
#SAMPLELENGTH:12.500;
#SELECTABLE:YES;
#BPMS:0.000=124.980;
#STOPS:;
#BGCHANGES:;
// cache tags:
#FIRSTBEAT:0.000;
#LASTBEAT:248.000;
#SONGFILENAME:Songs/new/BK - Treasure Trove Cove/ttc.sm;
#HASMUSIC:1;
#HASBANNER:1;
#MUSICLENGTH:125.160;
// end cache tags

//---------------dance-single - ----------------
#NOTES:
     dance-single:
     :
     Hard:
     9:
     0.457,0.421,0.008,0.032,0.292,395.000,1.000,4.000,0.000,0.000:
1000
0100
0010
0001
0100
0010
1000
0100
,
0010
0000
0000
0001
0000
0000
0100
0000
0010
0000
0000
1000
0000
0000
0100
0000
,
0010
0000
0000
0001
0000
0000
0100
0000
0010
0000
1000
0000
0000
0000
0001
0000
,
0010
0000
0000
0100
0000
0000
1000
0000
0010
0000
0000
0100
0000
0000
0001
0000
,
0010
0000
0000
0100
0000
0000
1000
0000
0010
0000
0100
0000
0000
0000
0000
0000
,
0010
0000
0000
0001
0000
0000
1000
0000
0010
0000
0000
0100
0000
0000
0001
0000
,
0010
0000
0000
0100
0000
0000
1000
0000
0010
0000
0100
0000
0000
0000
0001
0000
,
0010
0000
0000
0100
0000
0000
1000
0000
0010
0000
0000
0100
0000
0000
0001
0000
,
0010
0000
0000
0001
0000
0000
1000
0000
0100
0000
0000
0000
0000
0000
0000
0000
,
1000
0000
0000
0100
0000
0000
0010
0000
0001
0000
0000
0100
0000
0000
0010
0000
,
1000
0000
0000
0001
0000
0000
0010
0000
0001
0000
0000
0100
0000
0000
0001
0000
,
0010
0000
0000
0100
0000
0000
1000
0000
0010
0000
0000
0100
0000
0000
0001
0000
,
0010
0000
0000
0001
0000
0000
0100
0000
0010
0000
0000
1000
0000
0000
0100
0000
,
1000
0000
0000
0100
0000
0100
0010
0000
0010
0000
0001
0000
0100
0000
0010
0000
,
1000
0000
0000
0100
0000
0000
0010
0000
0001
0000
0100
0000
0000
0000
0010
0000
,
1000
0000
0000
0100
0000
0100
0010
0000
0001
0000
0100
0000
0010
0000
1000
0000
,
0001
0000
0000
0100
0000
0000
0001
0000
0010
0000
0001
0000
0000
0000
0000
0000
,
0100
0000
0000
0001
0000
0000
0010
0000
0100
0000
1000
0010
0100
0000
0010
0000
,
1000
0000
0000
0100
0000
0000
0010
0000
0001
0000
0100
0000
0000
0000
0010
0000
,
1000
0000
0000
0100
0000
0000
0010
0000
0001
0000
0100
0000
0010
0000
1000
0000
,
0001
0000
0000
0010
0000
0000
0001
0000
0001
0000
0000
0000
0000
0000
0000
0000
,
1000
0000
0000
0100
0010
0000
0001
0000
0010
0000
0001
0000
0010
0000
0001
0000
,
0100
0000
0000
0100
0010
0000
0100
0010
0100
0000
0000
0000
0000
0000
0000
0000
,
1000
0000
0000
0100
0010
0000
0001
0000
0100
0000
0010
0000
1000
0000
0000
0000
,
0001
0000
0000
0000
0010
0000
0100
0010
0100
0000
0000
0000
0000
0000
0000
0000
,
1000
0000
0000
1000
0010
0000
0100
0000
0001
0010
0001
0010
0001
0000
0100
0000
,
0010
0000
0000
1000
0100
0000
0010
0000
0001
0000
1000
0000
0010
0000
0000
0000
,
0100
0000
0000
0001
0010
0000
0100
0000
1000
0000
0010
0000
0100
0000
0010
0000
,
1000
1000
0010
0000
,
0100
0000
0000
0001
0010
0000
0100
0000
1000
0000
0010
0000
0100
0000
0010
0000
,
1000
0000
0000
0100
0010
0000
0001
0010
0002
0000
0000
0000
0000
0000
0000
0003
,
1000
0000
0000
0100
0010
0000
0001
0000
0100
0000
0010
0000
1000
0000
0000
0000
,
0100
0000
0000
0010
0001
0000
1000
0010
2000
0000
0000
0000
0000
0000
0000
3000
,
0100
0000
0000
0010
0001
0000
0100
0000
0010
0000
1000
0000
0010
0000
0100
0000
,
0001
0000
0000
0010
0100
0000
1000
0000
0002
0000
0000
0000
0000
0000
0003
0000
,
0010
0000
0000
0100
1000
0000
0010
0000
0100
0000
0001
0000
0010
0000
0001
0000
,
0100
0000
0000
0010
1000
0000
0100
0000
1000
0000
1000
0000
0001
0000
0001
0000
,
0010
0000
0000
0010
0000
0000
0001
0000
1000
0000
0000
1000
0000
0000
0010
0000
,
0100
0000
0000
0100
0000
0000
0010
0000
1000
0000
0000
1000
0000
0000
0100
0000
,
0010
0000
0000
0010
0000
0000
0001
0000
0001
0000
0000
0100
0000
0000
0010
0000
,
1000
0000
0000
0100
0000
0000
0010
0000
0001
0000
0000
0100
0000
0000
0010
0000
,
1000
0000
0000
0100
0000
0000
0010
0000
0001
0000
0100
0000
0010
0000
1000
0000
,
0100
0000
0010
0000
0002
0000
1000
0000
1003
0000
0000
1000
0000
0000
1000
0000
,
0100
0010
0001
0100
0010
1000
0100
0010
,
0001
0100
0010
1000
0001
1000
0001
0001
,
0010
0100
1000
0010
0100
0001
0010
0001
,
0100
0000
0010
0000
1000
0000
0100
0000
0010
0000
0000
0010
0000
0000
0010
0000
,
0001
0100
0010
1000
0100
0010
0001
0100
,
0010
1000
0100
0010
0001
0000
1000
0000
,
0001
1000
0010
0100
,
0001
0010
0100
1000
0010
0000
0100
0000
,
0001
0010
0100
1000
,
0001
0000
0000
0010
0001
0000
0100
0000
0010
0000
0000
1000
0100
0000
0010
0000
,
0001
0100
0010
1000
,
0100
0100
0010
0010
0001
0000
0001
0000
,
1000
0000
0000
0000
0010
0000
0000
0000
0100
0000
0000
0000
0001
0000
0000
0010
,
0100
1000
0010
0000
,
0100
0000
0000
0001
0000
0000
0010
0000
0100
0000
0000
1000
0000
0000
0010
0000
,
0100
0000
0000
0001
0000
0000
0010
0000
0100
0000
0000
1000
0000
0000
0010
0000
,
0100
0000
0000
0001
0000
0000
0010
0000
0100
0000
0000
1000
0000
0000
0010
0000
,
0100
0000
0000
0001
0000
0000
0010
0000
0100
0000
0000
1000
0000
0000
0001
0000
,
0010
0100
0001
0010
1000
1000
0100
0001
,
1001
0000
0000
0000
;

//---------------dance-single - ----------------
#NOTES:
     dance-single:
     :
     Medium:
     5:
     0.309,0.347,0.048,0.000,0.008,265.000,6.000,0.000,0.000,0.000:
1000
0100
0010
0001
,
1000
0000
0100
0000
,
0001
0000
0000
0000
0010
1001
0000
0000
,
1000
0000
0010
0000
,
0100
0000
0000
0000
1000
0001
0000
0000
,
0100
0000
0010
0000
,
1000
0000
0000
0000
0010
0110
0000
0000
,
0001
0000
0010
0000
,
0100
1000
1001
0000
,
1000
0000
0000
0001
0100
0000
0000
0010
,
1000
0000
0000
0100
0010
0000
0000
0000
,
0101
0000
0000
0010
1000
0000
0000
0100
,
0010
0000
0000
0001
0100
0000
0000
0010
,
1000
0100
0010
0001
,
0100
0000
0010
1000
0100
0000
0000
0000
,
0010
0001
0010
1000
,
0100
0000
0001
0100
0010
0100
0000
0000
,
0100
0001
0010
0001
,
1000
0000
0100
0010
0001
0000
0000
0000
,
1000
0010
0100
0001
,
0010
0001
1000
0010
0100
0000
0000
0000
,
1000
0000
0001
0000
0010
0100
0010
0000
,
0001
0000
1000
0010
1000
0000
0000
0000
,
0001
0000
0010
0000
0100
1000
0010
0000
,
1000
0000
0100
0010
0001
0000
0000
0000
,
0100
0000
0001
0000
0010
0100
1000
0000
,
0010
0000
0100
0000
0001
0010
0001
0000
,
0100
0000
0010
1000
0100
0000
0010
0001
,
0100
0010
1000
0100
0010
0000
1001
0000
,
0100
0000
0010
1000
0100
0010
0001
0000
,
0100
0000
0010
1000
0100
0000
0000
0000
,
0010
0000
0001
0100
0010
1000
0100
0000
,
0010
0000
0001
0100
0010
0000
0000
0000
,
1000
0000
1000
0000
0100
0010
0001
0000
,
0001
0001
0100
0000
,
1000
0000
0001
0000
0010
0100
1000
0010
,
0100
0000
0001
0000
0010
0100
1000
0010
,
0100
0000
0000
1000
0100
0000
0000
0001
,
0010
0000
0000
1000
0100
0000
0000
0001
,
0010
0000
0000
1000
0100
0000
0000
0001
,
0010
0000
0000
1000
0100
0000
0000
0001
,
0010
0001
0100
0010
,
1000
0000
0000
0000
0100
0000
0000
0000
0010
0000
0000
0010
0000
0000
0010
0000
,
0001
1000
0010
0100
,
0010
0000
0001
0000
0100
1000
0010
1000
,
0100
0010
0001
0100
,
0010
0000
0000
0000
1000
0000
0000
0000
0100
0000
0000
0100
0000
0000
0100
0000
,
0001
1000
0100
0010
,
0001
0100
0010
1000
,
0001
0010
0100
1000
,
0010
0010
0100
0100
0001
0000
0010
0000
,
0100
1000
0010
0100
,
0001
0000
0010
0100
1000
0000
0010
0100
,
0001
0010
0100
1000
,
1000
1000
0001
0001
0010
0000
0100
0000
,
1000
0010
0100
0001
,
0010
0001
0100
0000
,
1000
0000
0000
0001
1000
0000
0000
0010
,
0100
0000
0000
1000
0100
0000
0000
0001
,
0010
0000
0000
1000
0100
0000
0000
0001
,
0100
0000
0000
0100
0010
0000
0000
0010
,
1000
0000
0100
0000
0010
0001
0100
0001
,
1001
0000
0000
0000
;

//---------------dance-single - ----------------
#NOTES:
     dance-single:
     :
     Challenge:
     10:
     0.705,0.817,0.008,0.000,0.883,617.000,1.000,0.000,0.000,0.000:
1000
0000
0001
0010
0100
0000
0100
0010
1000
0000
0100
0010
0001
0000
0010
0100
,
1000
0000
0100
0010
0000
0001
0100
0000
0010
0000
1000
0100
0010
0000
0001
0000
,
0100
0000
0010
1000
0000
0100
0010
0000
0001
0000
0100
0000
0000
0000
0010
0000
,
1000
0000
0100
0010
0000
0001
0100
0000
0001
0000
0010
0001
0100
0000
0010
0000
,
1000
0000
0100
0010
0000
0010
0001
0000
0100
0000
1000
0000
0000
0000
0000
0000
,
0100
0000
0100
0010
0000
0010
1000
0000
1000
0000
0100
0010
0001
0000
0100
0000
,
0001
0000
0010
0001
0000
0001
0100
0000
1000
0000
0010
0000
0000
0000
0100
0000
,
0001
0000
0010
0100
0000
0100
1000
0000
1000
0000
1000
0010
0100
0000
0010
0000
,
1000
0000
0001
1000
0000
0001
0010
0000
0001
0000
0000
0000
0000
0000
0000
0000
,
1000
0000
0100
0010
0000
0001
0100
0000
0010
0000
1000
0100
0000
0010
0001
0000
,
0100
0000
0001
0010
0000
0001
0100
0000
0010
0000
1000
0100
0000
1000
0010
0000
,
0100
0000
0001
1000
0000
0001
1000
0000
0100
0000
0010
0001
0000
0100
0010
0000
,
1000
0000
0100
0001
0000
1000
0100
0000
0001
0000
0010
0001
0000
0100
0001
0000
,
1000
0000
0010
0100
0000
0001
1000
0100
0010
0000
0001
0100
0010
0000
1000
0000
,
0100
0000
0010
0001
0000
0100
0001
0000
0010
0000
0001
0000
0000
0000
1000
0000
,
0010
0000
0100
0001
0000
0001
0010
0000
1000
0000
0100
0010
0001
0000
0100
0000
,
0010
0000
1000
0100
0000
0100
1000
0000
0010
0000
0100
0000
0000
0000
0000
0000
,
0100
0000
0001
0010
0000
0010
0001
0000
0100
0000
0100
0010
1000
0000
0010
0000
,
1000
0000
0001
0010
0000
0100
1000
0000
0001
0000
0100
0000
0000
0000
0010
0000
,
0001
0000
0100
0010
0000
0010
1000
0000
1000
0000
0100
0010
0001
0000
0100
0000
,
0001
0000
1000
0100
0000
0100
0010
0000
0001
0000
0000
0000
0000
0000
0000
0000
,
1000
0000
0000
0100
0010
0000
0001
0000
0100
0010
1000
0010
0100
0000
0001
0000
,
1000
0000
0000
0100
0010
0000
0001
0100
0001
0000
0000
0000
0000
0000
0000
0000
,
0010
0000
0000
0001
0100
0000
0010
0100
1000
0000
0100
0000
0010
0000
0000
0000
,
0100
0000
0000
0001
0010
0000
0001
0100
0001
0000
0000
0000
0000
0000
0000
0000
,
1000
0000
0000
0100
0010
0000
0001
0000
0100
0010
1000
0010
0100
0000
0001
0000
,
1000
0000
0000
0100
0010
0000
0001
0000
0100
0001
0010
0001
0100
0000
0000
0000
,
1000
0000
0000
0100
0010
0000
0001
0000
0100
0000
0010
0000
1000
0000
0100
0000
,
0010
0000
0000
0001
0010
0001
0010
0000
0000
0100
0000
0000
0010
0000
0000
0000
0000
0000
0000
0000
0000
0000
0000
0000
,
0001
0000
0000
0010
0100
0000
1000
0000
0010
0100
0001
0100
0010
0000
1000
0000
,
0001
0000
0000
0010
0100
0000
1000
0010
1000
0000
0000
0000
0000
0000
0000
0000
,
0100
0000
0000
1000
0010
0000
0100
0010
0001
0000
0010
0000
0100
0000
0000
0000
,
0010
0000
0000
1000
0100
0000
1000
0010
1000
0000
0000
0000
0000
0000
0000
0000
,
0001
0000
0000
0010
0100
0000
1000
0000
0010
0100
0001
0100
0010
0000
1000
0000
,
0001
0000
0000
0010
0100
0000
1000
0000
0010
0000
0000
0000
0000
0000
0010
0000
,
0001
0000
0000
0010
0100
0000
1000
0000
0010
0000
0100
0000
0001
0000
0010
0000
,
0100
0000
0000
0100
1000
0000
0010
0000
0100
0000
0010
0000
1000
0000
0010
0000
,
1000
0000
0100
0010
0000
0001
0100
0000
0001
0000
0010
0001
0000
0100
0010
0000
,
1000
0000
0100
0010
0000
0001
0100
0000
0010
0000
1000
0100
0000
1000
0010
0000
,
0100
0000
0001
0010
0000
0001
0100
0000
0010
0000
1000
0100
0000
0010
0001
0000
,
0100
0000
0001
0010
0000
0001
0100
0000
0010
0000
1000
0100
0000
0010
0001
0000
,
0100
0000
0001
0010
0000
0100
1000
0010
0100
0000
0001
0010
0001
0000
0100
0000
,
0010
0000
1000
0100
0000
0010
0001
0000
0100
0000
0010
1000
0000
0100
0010
0000
,
0001
0000
0100
0001
0000
0001
0010
0000
1000
0000
1000
0100
0010
0000
0001
0000
,
0100
0000
0010
1000
0000
0100
0001
0000
1000
0000
0100
0000
0010
0000
0001
0000
,
0100
0000
0010
1000
0000
0100
0010
0000
0001
0000
0100
0001
0010
0000
0001
0000
,
0100
0000
0010
1000
0000
0100
0010
0000
0001
0000
0100
1000
0000
1000
0100
0000
,
0010
0000
0001
0100
0000
0010
1000
0000
0100
0000
0010
0001
0100
0000
0001
0000
,
0010
0000
0000
0000
0100
0000
1000
0000
0000
0000
0001
0000
0100
0000
0000
0000
0001
0000
0000
0000
0000
1000
0001
0010
0100
0000
0000
0000
0000
0000
0000
0000
,
1000
0100
1000
0100
0010
0001
0010
0001
0100
0001
0100
0001
0010
0001
0010
0001
,
0100
0001
0010
0001
0100
0001
1000
0010
0100
0010
1000
0100
0010
0001
0010
0001
,
0100
0001
1000
0001
0100
0010
1000
0001
0100
0001
0010
0001
0100
0001
0010
0001
,
1000
0100
1000
0100
0010
0001
0010
0001
0100
0001
0010
0001
1000
0010
0100
0010
,
1000
0100
0001
0100
0010
1000
0010
0001
0100
0001
0010
0001
0100
0010
1000
0100
,
0010
0001
0100
0001
1000
0100
0010
0001
0100
0001
1000
0001
0100
0001
1000
0001
,
0010
0001
0100
0001
1000
0100
1000
0010
0100
0010
1000
0001
0010
0001
0100
0010
,
1000
0100
0010
0001
0100
0010
1000
0100
0010
0001
0100
0010
1000
0100
0010
0000
,
1000
0000
0001
0010
0000
0010
0001
0000
0100
0000
0100
0010
0000
0010
1000
0000
,
1000
0000
0100
0010
0000
0010
0001
0000
0100
0000
0100
0001
0000
0001
1000
0000
,
1000
0000
1000
0010
0000
0010
0100
0000
0100
0000
0100
0001
0000
0001
0010
0000
,
0010
0000
0010
0100
0000
0100
1000
0000
1000
0000
1000
0010
0000
0010
0100
0000
,
1000
0000
0001
0010
0100
0000
0100
0010
1000
0000
0100
0010
0001
0000
0010
0100
,
1001
0000
0000
0000
;

//---------------dance-single - ----------------
#NOTES:
     dance-single:
     :
     Easy:
     3:
     0.209,0.223,0.032,0.000,0.000,179.000,4.000,0.000,0.000,0.000:
1001
0000
0000
0000
,
1000
0000
0001
0000
,
0010
0000
0100
0000
,
0010
0000
1000
0000
,
0001
0000
0000
0000
1000
0001
0000
0000
,
0100
0000
0010
0000
,
1000
0000
0100
0000
,
1000
0000
0010
0000
,
0100
0001
1000
0000
,
0001
0000
1000
0000
,
1000
0000
0100
0000
,
0010
0000
1000
0000
,
0001
0000
0010
0100
,
1000
0000
0100
0010
,
0001
0000
0100
0010
,
1000
0000
0100
0010
,
0001
0000
0000
0000
0100
0010
0000
0000
,
1000
0100
1000
0000
,
0001
0010
0001
0000
,
0100
0010
1000
0000
,
0001
0010
0001
0000
,
1000
0100
0010
0010
,
0001
1000
0001
0000
,
0100
0100
0010
0010
,
1000
0100
0010
0000
,
0001
0010
0001
0100
,
0010
1000
0100
0010
,
0001
0100
0010
1000
,
0100
1000
0001
0000
,
0010
0001
0100
0010
,
1000
0100
0010
0000
,
0010
0001
0100
0010
,
1000
0100
1000
0000
,
0001
0010
0100
1000
,
0010
0100
0001
0000
,
1000
0100
0010
0001
,
1000
0100
0010
0001
,
0100
0000
0001
0000
,
0010
0000
0100
0000
,
1000
0000
0010
0000
,
1000
0000
0001
0000
,
1000
0000
1000
0000
,
0001
0000
1000
0001
,
0010
0000
0010
0000
,
0010
0000
0100
1000
,
0001
0000
0001
0000
,
0001
0000
0001
1000
,
0100
0000
0100
0000
,
0100
0000
0100
1000
,
0010
1000
0001
0100
,
0010
0010
1000
1000
,
0001
0010
0100
1000
,
1000
0000
0000
0100
0001
0000
0000
0001
,
1000
0010
0100
0001
,
0010
0010
0100
0100
,
1000
0010
0100
0001
,
0010
0001
1001
0000
,
1000
0000
1000
0000
,
0001
0000
0001
0000
,
0100
0000
0100
0000
,
0010
0000
0010
0000
,
1001
0000
0000
0000
,
0110
0000
0000
0000
;
