#TITLE:Canon D;
#SUBTITLE:;
#ARTIST:Banya;
#TITLETRANSLIT:;
#SUBTITLETRANSLIT:;
#ARTISTTRANSLIT:;
#CREDIT:;
#BANNER:Canon D.png;
#BACKGROUND:Canon D.jpg;
#LYRICSPATH:;
#CDTITLE:KOMBO.png;
#MUSIC:Canon D.mp3;
#OFFSET:-11.330;
#SAMPLESTART:35.880;
#SAMPLELENGTH:13.000;
#SELECTABLE:YES;
#BPMS:0.000=160.000,228.000=140.000,230.000=120.000,232.000=100.000,234.000=80.000;
#STOPS:;
#BGCHANGES:;
// cache tags:
#FIRSTBEAT:2.000;
#LASTBEAT:237.000;
#SONGFILENAME:Songs/Definitive Keyboard Megapack/Canon D [KOMBO]/Canon D.sm;
#HASMUSIC:1;
#HASBANNER:1;
#MUSICLENGTH:103.583;
// end cache tags

//---------------dance-single - KOMBO Spread Steps----------------
#NOTES:
     dance-single:
     KOMBO Spread Steps:
     Challenge:
     16:
     1.000,1.000,1.000,0.859,1.000,704.000,311.000,89.000,0.000,114.000:
0000
0000
0000
0000
0000
0000
0000
0000
1001
0000
0000
0100
0001
0000
0100
0000
,
0010
0000
0100
0000
0001
1000
0001
1000
0001
0000
0000
1000
0100
0000
1000
0000
,
0001
0000
0010
0000
0001
0100
0001
0100
1001
0000
0000
0100
0001
0000
0100
0000
,
0010
0000
0100
0000
0001
1000
0001
1000
0001
0000
0000
0010
0001
0000
0100
0000
,
0010
0000
1000
0000
0001
0100
0001
0100
1010
0000
0000
0001
0010
0000
0001
0000
,
1000
0000
0001
0000
0010
0100
0010
0100
1001
0000
0000
0100
0001
0000
0100
0000
,
0010
0000
0100
0000
0001
1000
0001
1000
0011
0000
0000
0001
0100
0000
0001
0000
,
0010
0000
0001
0000
0100
1000
0100
1000
0101
0000
0000
0100
0001
0000
0100
0000
,
0010
0000
0100
0000
1001
0010
0001
0010
1100
0010
1000
0010
0100
0010
1000
0001
,
0010
0100
1000
0100
0011
1100
0011
1100
0011
1000
0001
1000
0010
0100
1000
0001
,
0010
0100
0010
0001
1100
0011
1100
0001
1110
0001
0010
0100
0010
1000
0100
0010
,
0001
0010
1000
0100
1001
0110
1001
0110
1001
0100
0010
0100
0010
1000
0001
1000
,
0001
0010
0100
1001
0110
1001
0110
1000
0111
1000
0001
0010
0001
1000
0001
0010
,
0100
1000
0100
0010
0101
1000
0111
1000
0111
1000
0100
1000
0010
0001
0010
0100
,
0010
0100
1000
0100
1010
0001
1110
0001
1110
0001
0100
0001
0010
0100
1011
0100
,
1011
0100
0010
0100
1000
0100
1000
0010
1001
0000
1001
0000
1001
0000
1001
0000
,
1001
0100
0010
0001
1100
0010
0001
0010
2000
0000
0010
0000
0011
0000
0010
0000
,
0100
0011
0000
3002
0023
1000
0101
0230
,
0302
0000
0000
0000
0000
0000
1203
0000
0010
0002
0000
0000
2303
0000
0000
0000
0000
0000
0002
0000
0000
0000
0000
0000
3023
0000
0000
0000
0000
0000
0001
0000
0000
0000
0000
0000
1100
0000
0000
0000
0000
0000
0001
0000
0000
0000
0000
0000
,
1000
0101
0032
0023
2230
0010
0011
0010
,
0010
0000
3300
0010
0012
0010
2013
3200
,
0302
1100
0000
0023
2130
0001
0001
3210
,
0302
1010
0010
0213
0320
0100
1100
0032
,
2003
0101
0000
0000
3012
0010
2010
3200
,
1320
0000
1100
1100
0233
0000
1302
0023
,
0230
0011
0320
2030
3002
0203
1320
0032
,
0023
0000
0000
0000
0231
0000
0000
0000
2300
0000
0000
0000
3020
0000
0000
0100
0032
0000
0000
0000
0000
0000
0000
0000
2103
0000
0000
0000
3020
0000
0000
0000
,
0230
1010
0302
0023
0230
0302
2013
3210
,
0321
0132
2103
3210
0320
0000
2031
3002
,
0203
1001
0321
0230
0302
2003
3102
0203
,
0302
1023
0230
2300
3102
0100
2003
3201
,
0320
0000
0230
0302
2103
3021
0231
1320
,
2130
0001
3120
0000
0032
0000
0023
0000
1130
0011
1100
0001
1110
0001
0110
1000
,
0110
0001
1110
0001
0110
1000
0011
1000
0110
1000
0011
1000
0111
1000
0011
1000
,
0011
1000
0111
1000
0110
1001
0110
1001
0110
0001
1100
0001
1110
0001
0110
1000
,
0110
0001
1110
0001
0110
1000
0011
1000
0110
1000
0011
1000
0111
1000
0011
1000
,
0011
1000
0111
1000
0101
1010
0101
0010
1100
0011
1100
0001
1110
0001
0110
1000
,
0110
0001
1110
0001
0110
1000
0011
1000
0110
1000
0011
1000
0111
1000
0011
1000
,
0011
1000
0111
1000
0011
1100
0011
1100
0011
1100
0011
1000
0111
1000
0110
0001
,
0110
1000
0111
1000
0110
0001
1100
0001
0110
0000
1100
0000
0011
0000
0101
0000
,
1100
0011
1100
0011
1100
0011
1100
0011
0100
1010
0101
0010
1101
0010
1001
0100
,
1001
0010
1101
0010
1001
0110
1001
0110
1001
0100
1010
0100
1011
0100
1010
0100
,
1010
0100
1011
0100
0011
1100
0011
0100
1001
0110
1001
0100
1011
0100
0011
1000
,
0011
0100
1011
0100
0011
1000
0110
1000
0011
1000
0110
1000
0111
1000
0110
1000
,
0110
1000
0111
1000
0110
1001
0110
0001
1100
0011
1100
0001
1110
0001
0110
1000
,
0110
0001
1110
0001
0110
1000
0011
1000
0110
1000
0011
1000
0111
1000
0011
1000
,
0011
1000
0111
1000
0110
1001
0110
1000
0011
1100
0011
1000
0111
1000
0110
1001
,
0110
1000
0111
1000
0110
0001
1100
0001
1110
0001
1110
0001
1110
0001
1110
0001
,
1100
0011
1100
0000
0111
0000
1110
0001
1100
0011
1100
0001
1110
0001
0110
1001
,
0110
0001
1110
0001
0110
1000
0011
1000
0110
1000
0011
1000
0111
1000
0011
1000
,
0011
1000
0111
1000
0110
1001
0110
0001
1100
0011
1100
0001
1110
0001
0110
1000
,
0110
0001
1110
0001
0110
1000
0011
1000
0110
1000
0011
1000
0111
1000
0011
1100
,
0011
1100
0011
1000
0111
1000
0111
1000
0011
1100
0011
1000
0111
1000
0110
0001
,
0110
1000
0111
1000
0110
0001
1100
0001
0110
0001
1100
0001
1110
0001
1100
0001
,
1100
0001
1110
0001
1100
0001
1010
0001
1100
0011
1100
0001
1110
0001
0110
1000
,
0110
0001
1110
0001
0110
1000
0011
1000
0110
1000
0011
1000
0111
1000
0011
1000
,
0011
1000
0111
1000
0011
1000
0011
1000
0222
0000
0000
0000
0000
0000
0000
0000
,
0000
0000
0000
0000
,
0000
0000
0000
0000
,
0000
0333
0000
0000
;

//---------------dance-single - KOMBO----------------
#NOTES:
     dance-single:
     KOMBO:
     Hard:
     14:
     1.000,1.000,1.000,0.850,1.000,694.000,236.000,88.000,0.000,29.000:

0000
0000
0000
0000
0000
0000
0000
0000
1001
0000
0000
0100
0001
0000
0100
0000
,
0010
0000
0100
0000
0001
1000
0001
1000
0001
0000
0000
1000
0100
0000
1000
0000
,
0001
0000
0010
0000
0001
0100
0001
0100
1001
0000
0000
0100
0001
0000
0100
0000
,
0010
0000
0100
0000
0001
1000
0001
1000
0001
0000
0000
0010
0001
0000
0100
0000
,
0010
0000
1000
0000
0001
0100
0001
0100
1010
0000
0000
0001
0010
0000
0001
0000
,
1000
0000
0001
0000
0010
0100
0010
0100
1001
0000
0000
0100
0001
0000
0100
0000
,
0010
0000
0100
0000
0001
1000
0001
1000
0011
0000
0000
0001
0100
0000
0001
0000
,
0010
0000
0001
0000
0100
1000
0100
1000
0101
0000
0000
0100
0001
0000
0100
0000
,
0010
0000
0100
0000
1001
0010
0001
0010
0100
0010
1000
0010
0100
0010
1000
0001
,
0010
0100
1000
0100
0001
1000
0001
1000
0001
1000
0010
0100
0010
0100
1000
0001
,
0010
0100
0010
0001
1000
0001
1000
0001
1000
0001
0010
0100
0010
1000
0100
0010
,
0001
0010
1000
0100
1000
0010
0001
0010
1000
0100
0010
0100
0010
1000
0001
1000
,
0001
0010
0100
0001
0010
0001
0100
1000
0100
1000
0001
0010
0001
1000
0001
0010
,
0100
1000
0100
0010
0100
1000
0010
1000
0100
1000
0001
1000
0010
0001
0010
0100
,
0010
0100
1000
0100
0011
0000
1100
0000
1100
0000
0010
0000
0010
0000
1100
0000
,
1100
0000
0010
0100
1000
0001
1000
0001
1100
0000
1100
0000
1100
0000
1100
0000
,
1100
0010
0001
1000
0100
0010
0001
0010
2000
0000
0010
0000
0100
0000
0010
0000
,
0100
0011
0000
3002
0023
1000
0001
0230
,
0302
0000
0203
0002
2303
0000
0002
0000
3023
0000
0001
0000
1000
0000
0001
0000
,
0100
1000
0032
0023
2030
0010
0101
0010
,
0010
0000
3000
0010
0012
0010
2013
3200
,
0302
1100
0000
0023
2130
0001
0001
3210
,
0302
1000
0010
0203
0320
0000
0000
0032
,
2003
0010
0000
0000
3012
0010
2010
3200
,
1320
0000
0100
0100
0233
0000
0302
0023
,
0230
0000
0320
2030
3002
0203
0320
0032
,
0023
0230
2300
3020
0032
0000
2003
3020
,
0230
0001
0302
0023
0230
0302
2013
3200
,
0321
0032
2103
3002
0023
0000
2230
3302
,
0203
1000
0320
0230
0302
2003
3012
0203
,
0302
0023
0230
2300
3012
0010
2003
3201
,
0320
0000
0230
0302
2103
3020
1230
0321
,
2130
0001
3120
0000
0032
0000
0023
0000
1130
0001
1100
0001
0110
0001
1100
0001
,
0110
1000
0011
0100
1010
0100
0011
1000
0110
1000
0011
0100
1001
0100
0011
1000
,
0110
0001
1100
0010
0101
1000
0110
0001
1100
0010
1100
0001
1010
0100
0011
1000
,
0110
0001
1100
0010
1001
0100
0011
1000
0110
0001
1010
0100
1001
0100
0011
1000
,
0110
0001
1100
0010
0101
1000
0011
0100
0011
1000
0110
1000
0011
0100
1010
0100
,
0011
1000
0110
0001
1100
0010
0101
0010
1001
0100
0011
1000
0011
1000
0110
0001
,
1010
0100
0011
1000
0110
1000
0011
0100
1001
0100
0011
1000
0101
0010
0101
1000
,
0110
1000
0011
1000
0110
0001
1100
0001
0110
0000
1100
0000
0011
0000
0101
0000
,
0110
1001
0110
1001
0110
1001
0110
1001
0110
1000
0011
0100
1010
0100
0011
1000
,
0110
1000
0011
0100
1001
0100
0011
1000
0110
0001
1100
0010
0101
1000
0110
0001
,
1100
0010
1100
0001
1010
0100
0011
1000
0110
0001
1100
0010
1001
0100
0011
1000
,
0110
0001
1010
0100
1001
0100
0011
1000
0110
0001
1100
0010
0101
1000
0011
0100
,
0011
1000
0110
1000
0011
0100
1010
0100
0011
1000
0110
0001
1100
0010
0101
0010
,
1001
0100
0011
1000
0011
1000
0110
0001
1010
0100
0011
1000
0110
1000
0011
0100
,
1001
0100
0011
1000
0101
0010
0101
1000
0110
1000
0011
1000
0110
0001
1100
0010
,
1001
0010
0101
0010
1001
0010
0101
0010
1001
0100
1010
0001
1100
0001
1010
0100
,
1001
0100
1010
0001
0110
0001
1010
0100
1001
0010
0101
1000
0011
0100
1001
0010
,
0101
1000
0101
0010
1100
0001
1010
0100
1001
0010
0101
1000
0011
0100
0011
1000
,
0110
0001
1010
0100
1001
0100
0011
1000
0110
0001
1100
0010
0101
1000
0011
0100
,
0011
1000
0110
1000
0011
0100
1010
0100
0011
1000
0110
0001
1100
0010
0101
0010
,
1001
0100
0011
1000
0011
1000
0110
0001
1010
0100
0011
1000
0110
1000
0011
0100
,
1001
0100
0011
1000
0101
0010
0101
1000
0110
1000
0011
1000
0110
0001
1100
0010
,
0101
0010
1001
0100
1010
0001
1100
0001
0110
1000
0101
0010
0101
0010
1001
0100
,
0011
1000
0101
0010
1001
0010
0101
1000
0110
1000
0101
0010
1100
0001
1100
0010
,
1001
0010
0101
0010
1001
0010
0101
0010
2200
0000
0000
0000
0000
0000
0000
0000
,
0000
0000
0000
0000
,
0000
0000
0000
0000
,
3300
0000
0000
0000
;

//---------------dance-single - KOMBO----------------
#NOTES:
     dance-single:
     KOMBO:
     Medium:
     11:
     1.000,1.000,0.309,0.830,1.000,690.000,32.000,86.000,0.000,20.000:
0000
0000
0000
0000
0000
0000
0000
0000
1001
0000
0000
0100
0001
0000
0100
0000
,
0010
0000
0100
0000
0001
1000
0001
1000
0001
0000
0000
1000
0100
0000
1000
0000
,
0001
0000
0010
0000
0001
0100
0001
0100
1001
0000
0000
0100
0001
0000
0100
0000
,
0010
0000
0100
0000
0001
1000
0001
1000
0001
0000
0000
0010
0001
0000
0100
0000
,
0010
0000
1000
0000
0001
0100
0001
0100
1010
0000
0000
0001
0010
0000
0001
0000
,
1000
0000
0001
0000
0010
0100
0010
0100
1001
0000
0000
0100
0001
0000
0100
0000
,
0010
0000
0100
0000
0001
1000
0001
1000
0011
0000
0000
0001
0100
0000
0001
0000
,
0010
0000
0001
0000
0100
1000
0100
1000
0101
0000
0000
0100
0001
0000
0100
0000
,
0010
0000
0100
0000
1001
0010
0001
0010
0100
0010
1000
0010
0100
0010
1000
0001
,
0010
0100
1000
0100
0001
1000
0001
1000
0001
1000
0010
0100
0010
0100
1000
0001
,
0010
0100
0010
0001
1000
0001
1000
0001
1000
0001
0010
0100
0010
1000
0100
0010
,
0001
0010
1000
0100
1000
0010
0001
0010
1000
0100
0010
0100
0010
1000
0001
1000
,
0001
0010
0100
0001
0010
0001
0100
1000
0100
1000
0001
0010
0001
1000
0001
0010
,
0100
1000
0100
0010
0100
1000
0010
1000
0100
1000
0001
1000
0010
0001
0010
0100
,
0010
0100
1000
0100
0011
0000
1100
0000
1100
0000
0010
0000
0010
0000
1100
0000
,
1100
0000
0010
0100
1000
0001
1000
0001
1100
0000
1100
0000
1100
0000
1100
0000
,
1100
0010
0001
1000
0100
0010
0001
0010
2000
0000
0010
0000
0100
0000
0010
0000
,
0100
0010
0000
3002
0023
0000
0000
0230
,
0302
0203
2300
0002
3023
0001
1000
0001
,
1000
0001
0230
0320
2030
0001
0001
0001
,
0001
0000
3000
0000
0002
0010
2103
3020
,
0032
1000
0000
0023
2030
0000
0001
3210
,
0302
1000
0000
2003
3020
0000
0000
0230
,
2300
0010
0000
0000
3012
0010
2000
3200
,
0320
0000
0000
0000
0233
0000
0302
0023
,
0230
0000
0320
2030
3002
0203
0320
0032
,
0023
0230
2300
3020
0032
0000
2003
3020
,
0230
0001
0302
0023
0230
0302
2013
3200
,
0321
0032
2103
3002
0023
0000
2230
3302
,
0203
1000
0320
0230
0302
2003
3012
0203
,
0302
0023
0230
2300
3012
0010
2003
3201
,
0320
0000
0230
0302
2103
3020
1230
0321
,
2130
0001
3120
0000
0032
0000
0023
0000
1030
0001
1000
0001
0100
0010
0100
0001
,
0100
0001
1000
0001
1000
0100
0010
0001
0010
0100
0010
0100
0010
1000
0001
1000
,
0010
1000
0001
1000
0100
1000
0100
1000
0100
1000
0100
0010
0001
0010
0001
0010
,
0001
0100
0010
1000
0010
0100
0010
1000
0010
1000
0001
0100
0010
1000
0001
0100
,
0010
1000
0100
0010
0100
1000
0001
0010
0001
0010
0001
0010
0001
0010
0100
0010
,
0001
1000
0001
1000
0001
1000
0010
1000
0010
1000
0001
1000
0001
1000
0001
0100
,
0001
0100
0001
0100
0001
1000
0001
1000
0001
1000
0001
0010
0100
1000
0100
0010
,
0001
1000
0001
1000
0100
0010
0100
1000
0001
1000
0001
1000
0001
0010
0100
0010
,
0001
0010
0001
0010
0001
0100
0010
0100
1000
0001
1000
0001
0100
0010
0100
0001
,
0100
0001
1000
0001
1000
0100
0010
0001
0010
0100
0010
0100
0010
1000
0001
1000
,
0010
1000
0001
1000
0100
1000
0100
1000
0100
1000
0100
0010
0001
0010
0001
0010
,
0001
0100
0010
1000
0010
0100
0010
1000
0010
1000
0001
0100
0010
1000
0001
0100
,
0010
1000
0100
0010
0100
1000
0001
0010
0001
0010
0001
0010
0001
0010
0100
0010
,
0001
1000
0001
1000
0001
1000
0010
1000
0010
1000
0001
1000
0001
1000
0001
0100
,
0001
0100
0001
0100
0001
1000
0001
1000
0001
1000
0001
0010
0100
1000
0100
0010
,
0001
1000
0001
1000
0100
0010
0100
1000
0001
1000
0001
1000
0001
0010
0100
0010
,
0001
0010
0001
0010
1000
0100
0010
0001
0010
0001
0010
0001
0100
1000
0100
0001
,
0100
0001
0010
0001
0010
0100
1000
0001
1000
0100
1000
0100
1000
0010
0001
0010
,
1000
0010
0001
0010
0100
0010
0100
0010
0100
0010
0100
1000
0001
1000
0001
1000
,
0001
0100
1000
0010
1000
0100
1000
0010
1000
0010
0001
0100
1000
0010
0001
0100
,
1000
0010
0100
1000
0100
0010
0001
1000
0001
1000
0001
1000
0001
1000
0100
1000
,
0001
0010
0001
0010
0001
0010
1000
0010
1000
0010
0001
0010
0001
0010
0001
0100
,
0001
0100
0001
0100
0001
0010
0001
0010
0001
0010
0001
1000
0100
0010
0100
1000
,
0001
0010
0001
0010
0100
1000
0100
0010
0001
0010
0001
0010
0001
1000
0100
1000
,
0001
1000
0001
0010
0100
1000
0100
0010
0002
0000
0000
0000
0000
0000
0000
0000
,
0000
0000
0000
0000
,
0000
0000
0000
0000
,
0000
0003
0000
0000
;
