#TITLE:Pure Ruby;
#SUBTITLE:;
#ARTIST:Shiki;
#TITLETRANSLIT:;
#SUBTITLETRANSLIT:;
#ARTISTTRANSLIT:;
#CREDIT:;
#BANNER:../banner.png;
#BACKGROUND:../bg.png;
#LYRICSPATH:;
#CDTITLE:;
#MUSIC:Pure Ruby.ogg;
#OFFSET:-0.701;
#SAMPLESTART:95.060;
#SAMPLELENGTH:21.780;
#SELECTABLE:YES;
#BPMS:0.000=178.002;
#STOPS:;
#BGCHANGES:;
// cache tags:
#FIRSTBEAT:12.000;
#LASTBEAT:376.000;
#SONGFILENAME:Songs/Cirque du Lykan/Pure Ruby - [Zaia]/Pure Ruby.sm;
#HASMUSIC:1;
#HASBANNER:1;
#MUSICLENGTH:133.668;
// end cache tags

//---------------dance-single - Zaia - 13(high)----------------
#NOTES:
     dance-single:
     Zaia - 13(high):
     Challenge:
     13:
     1.000,1.000,0.120,0.090,1.000,990.000,16.000,12.000,0.000,0.000:
0000
0000
0000
0000
,
0000
0000
0000
0000
,
0000
0000
0000
0000
,
0110
0000
0000
0000
1001
0000
0000
0000
0001
0100
0000
0000
0010
1000
0001
1000
,
0001
0000
0010
0000
0100
0000
1000
0000
0001
0100
0010
1000
0001
1000
0100
0010
,
0001
1000
0001
0100
0010
1000
0100
0010
,
0001
0000
1000
0000
0010
0000
1000
0000
0001
0010
0100
1000
0001
1000
0010
0100
,
0001
1000
0100
1000
0010
0100
0001
1000
,
0001
0000
0010
0000
0100
0000
1000
0000
0010
1000
0001
1000
0100
1000
0001
0010
,
0001
1000
0010
0100
0001
1000
0100
1000
,
0010
0100
0001
1000
0100
1000
0001
0010
0001
1000
0010
0100
0001
1000
0100
1000
,
0010
0100
0001
1000
0001
0010
0100
0010
0001
1000
0010
0100
0001
0010
0100
1000
,
0020
0000
0000
0000
,
0000
0000
0030
0000
,
0100
0001
0010
0100
1000
0001
1000
0010
,
1000
0000
0000
0100
0000
0000
0010
0000
0000
0100
0000
0000
1000
0000
0010
0000
0100
0000
0001
0000
0010
0000
0100
0000
,
1000
0010
0100
0001
1000
0001
0010
0100
,
1000
0001
1000
0010
0100
0001
1000
0100
,
0010
0001
1000
0001
0100
0010
1000
0100
,
1000
0010
0100
0001
0010
0100
0010
0001
,
1000
0001
0100
0010
0100
0001
1000
0100
,
0010
0100
1000
0001
1000
0010
0100
0001
,
0010
0001
0100
0010
1000
0001
1000
0100
,
1000
0000
0000
0010
0000
0000
0100
0000
0000
0010
0000
0000
1000
0000
0100
0000
0010
0000
0001
0000
0100
0000
0010
0000
,
1000
0100
0010
0001
1000
0001
0100
0010
,
1000
0001
1000
0100
0010
0001
1000
0010
,
0100
0001
1000
0001
0010
0100
1000
0010
,
1000
0100
0010
0001
0100
0010
0100
0001
,
1000
0001
0010
0100
0010
0001
1000
0010
,
0100
0010
1000
0001
1000
0100
0010
0001
,
2000
0000
3010
0100
0000
0001
0010
0100
,
2000
0000
3100
0010
0000
0001
0100
0001
,
0020
0000
0230
0000
2300
3002
0000
0203
,
0000
0000
0320
0000
0000
0000
2030
0000
0000
0000
3001
0000
1000
0100
0010
0001
,
1000
0100
1000
0001
1000
0010
0100
0001
,
1000
0100
1000
0010
1000
0001
0010
0100
,
2000
0000
0000
0000
,
0000
0000
0000
3000
,
0001
0100
0010
1000
0001
0010
0001
1000
0100
0010
0001
1000
0010
1000
0001
0010
,
0001
0100
0010
1000
0001
0100
0010
0100
0001
1000
0001
0010
0100
0010
0001
0100
,
0010
1000
0100
0010
0100
1000
0001
1000
0001
0010
0001
1000
0010
0100
0001
0010
,
0001
0100
0001
1000
0010
1000
0001
0010
0001
1000
0100
1000
0010
0100
0001
1000
,
0001
0010
0100
1000
0010
0100
0001
1000
0001
1000
0100
1000
0001
0010
0100
1000
,
0001
0100
0010
1000
0100
0010
0001
1000
0001
1000
0010
0100
0001
1000
0001
0010
,
0001
1000
0100
1000
0010
0100
0001
0010
0001
1000
0010
1000
0100
0010
0001
0100
,
0001
1000
0100
1000
0010
0100
0001
0010
0001
0100
0010
1000
0100
1000
0001
0010
,
0100
1000
0010
1000
0001
0100
0001
1000
0010
0100
0001
1000
0100
1000
0001
0100
,
0001
0010
0100
1000
0001
0010
0100
0010
0001
1000
0001
0100
0010
0100
0001
0010
,
0100
1000
0010
0100
0010
1000
0001
1000
0001
0100
0001
1000
0100
0010
0001
0100
,
0001
0010
0001
1000
0100
1000
0001
0100
0001
1000
0010
1000
0100
0010
0001
1000
,
0001
0100
0010
1000
0100
0010
0001
1000
0001
1000
0010
1000
0001
0100
0010
1000
,
0001
0010
0100
1000
0010
0100
0001
1000
0001
1000
0100
0010
0001
1000
0001
0100
,
0001
1000
0010
1000
0100
0010
0001
0100
0001
1000
0100
1000
0010
0100
0001
0010
,
0001
1000
0010
1000
0100
0010
0001
0100
0001
0010
0100
1000
0010
1000
0001
0100
,
0020
0000
0000
0000
,
0000
0000
0000
0030
0000
0000
0100
0000
0000
0000
0000
0000
0001
0000
0000
0000
0010
0000
0000
0000
0100
0000
0000
0000
,
1000
0000
0000
0000
,
0010
0000
0000
0100
0000
0000
0001
0000
,
1000
0000
0000
0000
,
0100
0000
0000
0010
0000
0000
0001
0000
,
0100
0000
0000
0010
0000
0000
0000
0000
,
0000
0000
1000
0000
0000
0000
1000
0000
0000
0000
1000
0000
0001
0100
0001
1000
,
0010
0100
0101
0001
1000
0100
1100
1000
,
0001
0010
0110
0100
1000
0001
0011
0010
,
0100
1000
1001
0001
0100
0010
1010
1000
,
0001
0010
0110
0100
1000
0001
1001
1000
,
0010
0100
0101
0001
1000
0100
1100
1000
,
0001
0010
0011
0001
0100
0010
1010
1000
,
0001
0100
0110
0010
1000
0001
1001
1000
,
0100
0010
0100
0010
0100
1000
0001
1000
,
0001
1000
0010
1000
0001
0000
0100
0010
0100
0001
1000
0000
0100
1000
0100
1000
,
0010
0100
0001
1000
0001
0000
0100
0001
1000
0100
0010
0000
0001
0010
0001
0010
,
0100
1000
0001
0100
0010
0000
0100
0001
1000
0001
0100
0000
0010
1000
0001
1000
,
0100
0010
0100
1000
0001
0000
1000
0010
0100
0010
1000
0000
0001
1000
0001
1000
,
0100
0010
0001
0010
0100
0000
1000
0001
0010
0001
0100
0000
0010
1000
0010
1000
,
0001
0010
0001
1000
0100
0000
1000
0001
0100
0001
1000
0000
0100
0010
0100
0010
,
0001
0100
0010
1000
0001
0000
0100
0001
0100
0010
1000
0000
0001
0100
0001
1000
,
0010
0000
0000
1000
0000
0000
0001
0000
0100
0000
0010
0000
1000
0000
0000
0000
0000
0000
0001
0000
0010
0000
0100
0000
1000
0000
0000
0000
0000
0000
0001
0000
0100
0000
0010
0000
1000
0000
0001
0000
1000
0000
0010
0000
0100
0000
0010
0000
,
1000
0001
0100
0001
1000
0100
1000
0001
0010
0100
1000
0001
0100
0001
1000
0100
,
1000
0010
0100
0001
1000
0010
0100
0010
1000
0001
1000
0100
0010
0100
1000
0010
,
0100
0001
0010
0100
0010
0001
1000
0001
1000
0100
1000
0001
0100
0010
1000
0100
,
1000
0010
1000
0001
0100
0001
1000
0100
1000
0001
0010
0001
0100
0010
1000
0001
,
1000
0100
0010
0001
0100
0010
1000
0001
1000
0001
0010
0001
1000
0100
0010
0001
,
1000
0010
0100
0001
0010
0100
1000
0001
1000
0001
0100
0010
1000
0001
1000
0100
,
1000
0001
0010
0001
0100
0010
1000
0100
1000
0001
0100
0001
0010
0100
1000
0010
,
1000
0001
0010
0001
0100
0010
1000
0100
1000
0010
0100
0001
1000
0001
1000
0100
,
0010
0001
0100
0001
1000
0010
1000
0001
0100
0010
1000
0001
0010
0001
1000
0010
,
1000
0100
0010
0001
1000
0100
0010
0100
1000
0001
1000
0010
0100
0010
1000
0100
,
0010
0001
0100
0010
0100
0001
1000
0001
1000
0010
1000
0001
0010
0100
1000
0010
,
1000
0100
1000
0001
0010
0001
1000
0010
1000
0001
0100
0001
0010
0100
1000
0001
,
1000
0010
0100
0001
0010
0100
1000
0001
1000
0001
0100
0001
1000
0010
0100
0001
,
1000
0100
0010
0001
0100
0010
1000
0001
1000
0001
0010
0100
1000
0001
1000
0010
,
1000
0001
0100
0001
0010
0100
1000
0010
1000
0001
0010
0001
0100
0010
1000
0100
,
1000
0001
0100
0001
0010
0100
1000
0010
1000
0100
0010
0001
0100
0001
1000
0001
,
0100
0000
0000
0000
;

//---------------dance-single - Zaia - 12(high)----------------
#NOTES:
     dance-single:
     Zaia - 12(high):
     Hard:
     12:
     0.968,1.000,0.239,0.090,0.845,862.000,32.000,12.000,0.000,0.000:
0000
0000
0000
0000
,
0000
0000
0000
0000
,
0000
0000
0000
0000
,
0110
0000
0000
0000
1001
0000
0000
0000
0001
0100
0000
0000
0010
1000
0001
1000
,
0001
0000
0010
0000
0100
0000
1000
0000
0001
0100
0010
1000
0001
1000
0100
0010
,
0001
1000
0001
0100
0010
1000
0100
0010
,
0001
0000
1000
0000
0010
0000
1000
0000
0001
0010
0100
1000
0001
1000
0010
0100
,
0001
1000
0100
1000
0010
0100
0001
1000
,
0001
0000
0010
0000
0100
0000
1000
0000
0010
1000
0001
1000
0100
1000
0001
0010
,
0001
1000
0010
0100
0001
1000
0100
1000
,
0010
0100
0001
1000
0100
1000
0001
0010
0001
1000
0010
0100
0001
1000
0100
1000
,
0010
0100
0001
1000
0001
0010
0100
0010
0001
1000
0010
0100
0001
0010
0100
1000
,
0020
0000
0000
0000
,
0000
0000
0030
0000
,
0100
0001
0010
0100
1000
0001
1000
0010
,
1000
0000
0000
0100
0000
0000
0010
0000
0000
0100
0000
0000
1000
0000
0010
0000
0100
0000
0001
0000
0010
0000
0100
0000
,
1000
0010
0100
0001
1000
0001
0010
0100
,
1000
0001
1000
0010
0100
0001
1000
0100
,
0010
0001
1000
0001
0100
0010
1000
0100
,
1000
0010
0100
0001
0010
0100
0010
0001
,
1000
0001
0100
0010
0100
0001
1000
0100
,
0010
0100
1000
0001
1000
0010
0100
0001
,
0010
0001
0100
0010
1000
0001
1000
0100
,
1000
0000
0000
0010
0000
0000
0100
0000
0000
0010
0000
0000
1000
0000
0100
0000
0010
0000
0001
0000
0100
0000
0010
0000
,
1000
0100
0010
0001
1000
0001
0100
0010
,
1000
0001
1000
0100
0010
0001
1000
0010
,
0100
0001
1000
0001
0010
0100
1000
0010
,
1000
0100
0010
0001
0100
0010
0100
0001
,
1000
0001
0010
0100
0010
0001
1000
0010
,
0100
0010
1000
0001
1000
0100
0010
0001
,
2000
0000
3010
0100
0000
0001
0010
0100
,
2000
0000
3100
0010
0000
0001
0100
0001
,
0020
0000
0230
0000
2300
3002
0000
0203
,
0000
0000
0320
0000
0000
0000
2030
0000
0000
0000
3001
0000
1000
0100
0010
0001
,
1000
0100
1000
0001
1000
0010
0100
0001
,
1000
0100
1000
0010
1000
0001
0010
0100
,
2000
0000
0000
0000
,
0000
0000
0000
3000
,
0001
0100
0110
0010
1000
0100
1100
1000
,
0001
0010
0011
0001
1000
0010
1010
1000
,
0100
0010
0110
0100
1000
0001
1001
1000
,
0010
0100
0101
0001
1000
0100
0110
0010
,
0001
1000
0010
0100
0001
0000
1000
0000
0100
0000
0010
0000
0100
0000
1000
0000
,
0001
0010
0100
1000
0001
0000
0100
0000
0010
0000
0100
0000
0001
0000
0010
0000
,
0100
1000
0001
0100
0010
0000
1000
0000
0100
0000
1000
0000
0001
0000
0100
0000
,
0010
1000
0100
0010
0001
0000
1000
0000
0010
0000
0100
0000
0001
0000
0010
0000
,
0100
1000
0010
1000
0001
0100
0001
1000
0010
0100
0001
1000
0100
1000
0001
0100
,
0001
0010
0100
1000
0001
0010
0100
0010
0001
1000
0001
0100
0010
0100
0001
0010
,
0100
1000
0010
0100
0010
1000
0001
1000
0001
0100
0001
1000
0100
0010
0001
0100
,
0001
0010
0001
1000
0100
1000
0001
0100
0001
1000
0010
1000
0100
0010
0001
1000
,
0001
0100
0010
1000
0010
0100
0001
1000
0001
0000
0010
0000
0100
0000
1000
0000
,
0001
1000
0100
0010
0001
0010
0100
1000
0001
0000
1000
0000
0010
0000
0100
0000
,
0001
0100
0010
1000
0010
0100
0001
0000
1000
0001
0010
0100
1000
0100
0010
0000
,
0001
1000
0010
0100
0001
0100
0010
0000
1000
0100
0010
0001
0010
0100
1000
0001
,
0020
0000
0000
0000
,
0000
0000
0000
0030
0000
0000
0100
0000
0000
0000
0000
0000
1000
0000
0000
0000
0100
0000
0000
0000
0010
0000
0000
0000
,
0001
0000
0000
0000
,
0100
0000
0000
0010
0000
0000
1000
0000
,
0001
0000
0000
0000
,
0010
0000
0000
0100
0000
0000
1000
0000
,
0010
0000
0000
0100
0000
0000
0000
0000
,
0000
0000
0001
0000
0000
0000
0001
0000
0000
0000
0001
0000
1000
0010
1000
0001
,
0100
0010
1010
1000
0001
0010
0011
0001
,
1000
0100
0110
0010
0001
1000
1100
0100
,
0010
0001
1001
1000
0010
0100
0101
0001
,
1000
0100
0110
0010
0001
1000
1001
0001
,
0100
0010
1010
1000
0001
0010
0011
0001
,
1000
0100
1100
1000
0010
0100
0101
0001
,
1000
0010
0110
0100
0001
1000
1001
0001
,
0010
0100
0010
0100
0010
0001
1000
0001
,
1000
0001
0100
0001
1000
0000
0010
0100
0010
1000
0001
0000
0010
0001
0010
0001
,
0100
0010
1000
0001
1000
0000
0010
1000
0001
0010
0100
0000
1000
0100
1000
0100
,
0010
0001
1000
0010
0100
0000
0010
1000
0001
1000
0010
0000
0100
0001
1000
0001
,
0010
0100
0010
0001
1000
0000
0001
0100
0010
0100
0001
0000
1000
0001
1000
0001
,
0010
0100
1000
0100
0010
0000
0001
1000
0100
1000
0010
0000
0100
0001
0100
0001
,
1000
0100
1000
0001
0010
0000
0001
1000
0010
1000
0001
0000
0010
0100
0010
0100
,
1000
0010
0100
0001
1000
0000
0010
1000
0010
0100
0001
0000
1000
0010
1000
0001
,
0100
0001
1000
0010
1000
0000
0001
0010
0001
0000
1000
0010
0100
0001
0100
0010
,
1000
0100
0110
0010
0001
0100
0101
0001
,
1000
0010
1010
1000
0001
0010
0011
0001
,
0100
0010
0110
0100
0001
1000
1001
0001
,
0010
0100
1100
1000
0001
0100
0110
0010
,
1000
0001
0010
0100
1000
0000
0001
0000
0100
0000
0010
0000
0100
0000
0001
0000
,
1000
0010
0100
0001
1000
0000
0100
0000
0010
0000
0100
0000
1000
0000
0010
0000
,
0100
0001
1000
0100
0010
0000
0001
0000
0100
0000
0001
0000
1000
0000
0100
0000
,
0010
0001
0100
0010
1000
0000
0001
0000
0010
0000
0100
0000
1000
0000
0010
0000
,
0100
0001
0010
0001
1000
0100
1000
0001
0010
0100
1000
0001
0100
0001
1000
0100
,
1000
0010
0100
0001
1000
0010
0100
0010
1000
0001
1000
0100
0010
0100
1000
0010
,
0100
0001
0010
0100
0010
0001
1000
0001
1000
0100
1000
0001
0100
0010
1000
0100
,
1000
0010
1000
0001
0100
0001
1000
0100
1000
0001
0010
0001
0100
0010
1000
0001
,
1000
0100
0010
0001
0100
0010
1000
0001
1000
0001
0010
0001
1000
0100
0010
0001
,
1000
0010
0100
0001
0010
0100
1000
0001
1000
0001
0100
0010
1000
0001
1000
0100
,
1000
0001
0010
0001
0100
0010
1000
0100
1000
0001
0100
0001
0010
0100
1000
0010
,
1000
0001
0010
0001
0100
0010
1000
0100
1000
0010
0100
0001
0010
0001
1000
0001
,
0100
0000
0000
0000
;

//---------------dance-single - Zaia - 11(high)----------------
#NOTES:
     dance-single:
     Zaia - 11(high):
     Medium:
     11:
     0.841,1.000,0.239,0.090,0.400,743.000,32.000,12.000,0.000,0.000:
0000
0000
0000
0000
,
0000
0000
0000
0000
,
0000
0000
0000
0000
,
0110
0000
0000
0000
1001
0000
0000
0000
0001
0100
0000
0000
0010
1000
0001
1000
,
0001
0000
0010
0000
0100
0000
1000
0000
0001
0100
0010
1000
0001
1000
0100
0010
,
0001
1000
0001
0100
0010
1000
0100
0010
,
0001
0000
1000
0000
0010
0000
1000
0000
0001
0010
0100
1000
0001
1000
0010
0100
,
0001
1000
0100
1000
0010
0100
0001
1000
,
0001
0000
0010
0000
0100
0000
1000
0000
0010
1000
0001
1000
0100
1000
0001
0010
,
0001
1000
0010
0100
0001
1000
0100
1000
,
0010
0100
0001
1000
0100
1000
0001
0010
0001
1000
0010
0100
0001
0000
1000
0000
,
0010
0100
0001
1000
0001
0010
0100
0010
0001
1000
0010
0100
0001
0010
0100
1000
,
0020
0000
0000
0000
,
0000
0000
0030
0000
,
0100
0001
0010
0100
1000
0001
1000
0010
,
1000
0000
0000
0100
0000
0000
0010
0000
0000
0100
0000
0000
1000
0000
0010
0000
0100
0000
0001
0000
0010
0000
0100
0000
,
1000
0010
0100
0001
1000
0001
0010
0100
,
1000
0001
1000
0010
0100
0001
1000
0100
,
0010
0001
1000
0001
0100
0010
1000
0100
,
1000
0010
0100
0001
0010
0100
0010
0001
,
1000
0001
0100
0010
0100
0001
1000
0100
,
0010
0100
1000
0001
1000
0010
0100
0001
,
0010
0001
0100
0010
1000
0001
1000
0100
,
1000
0000
0000
0010
0000
0000
0100
0000
0000
0010
0000
0000
1000
0000
0100
0000
0010
0000
0001
0000
0100
0000
0010
0000
,
1000
0100
0010
0001
1000
0001
0100
0010
,
1000
0001
1000
0100
0010
0001
1000
0010
,
0100
0001
1000
0001
0010
0100
1000
0010
,
1000
0100
0010
0001
0100
0010
0100
0001
,
1000
0001
0010
0100
0010
0001
1000
0010
,
0100
0010
1000
0001
1000
0100
0010
0001
,
2000
0000
3010
0100
0000
0001
0010
0100
,
2000
0000
3100
0010
0000
0001
0100
0001
,
0020
0000
0230
0000
2300
3002
0000
0203
,
0000
0000
0320
0000
0000
0000
2030
0000
0000
0000
3001
0000
1000
0100
0010
0001
,
1000
0100
1000
0001
1000
0010
0100
0001
,
1000
0100
1000
0010
1000
0001
0010
0100
,
2000
0000
0000
0000
,
0000
0000
0000
3000
,
0001
0100
0110
0010
1000
0100
1100
1000
,
0001
0010
0011
0001
1000
0010
1010
1000
,
0100
0010
0110
0100
1000
0001
1001
1000
,
0010
0100
0101
0001
1000
0100
0110
0010
,
0001
1000
0010
0100
0001
0000
1000
0000
0100
0000
0010
0000
0100
0000
1000
0000
,
0001
0010
0100
1000
0001
0000
0100
0000
0010
0000
0100
0000
0001
0000
0010
0000
,
0100
1000
0001
0100
0010
0000
1000
0000
0100
0000
1000
0000
0001
0000
0100
0000
,
0010
1000
0100
0010
0001
0000
1000
0000
0010
0000
0100
0000
0001
0000
0010
0000
,
0100
1000
0010
0100
0001
1000
0100
0010
,
0001
0100
0001
1000
0001
0010
0100
0010
,
0001
1000
0001
0100
0010
0100
0001
0010
,
0001
1000
0100
1000
0001
0100
0001
1000
,
0010
0100
0001
0010
0100
1000
0010
0100
,
0001
1000
0100
0010
0001
0100
0010
1000
,
0001
0010
0100
1000
0001
1000
0010
0100
,
0001
0010
0100
1000
0010
1000
0100
1000
,
0020
0000
0000
0000
,
0000
0000
0000
0030
0000
0000
0100
0000
0000
0000
0000
0000
0001
0000
0000
0000
0010
0000
0000
0000
0100
0000
0000
0000
,
1000
0000
0000
0000
,
0010
0000
0000
0100
0000
0000
0001
0000
,
1000
0000
0000
0000
,
0100
0000
0000
0010
0000
0000
0001
0000
,
0100
0000
0000
0010
0000
0000
0000
0000
,
0000
0000
1000
0000
0000
0000
1000
0000
0000
0000
1000
0000
0001
0100
0001
1000
,
0010
0100
0101
0001
1000
0100
1100
1000
,
0001
0010
0110
0100
1000
0001
0011
0010
,
0100
1000
1001
0001
0100
0010
1010
1000
,
0001
0010
0110
0100
1000
0001
1001
1000
,
0010
0100
0101
0001
1000
0100
1100
1000
,
0001
0010
0011
0001
0100
0010
1010
1000
,
0001
0100
0110
0010
1000
0001
1001
1000
,
0100
0010
0100
0010
0100
1000
0001
1000
,
0001
1000
0010
1000
0001
0000
0100
0010
0100
0001
1000
0000
0100
1000
0100
1000
,
0010
0100
0001
1000
0001
0000
0100
0001
1000
0100
0010
0000
0001
0010
0001
0010
,
0100
1000
0001
0100
0010
0000
0100
0001
1000
0001
0100
0000
0010
1000
0001
1000
,
0100
0010
0100
1000
0001
0000
1000
0010
0100
0010
1000
0000
0001
1000
0001
1000
,
0100
0010
0001
0010
0100
0000
1000
0001
0010
0001
0100
0000
0010
1000
0010
1000
,
0001
0010
0001
1000
0100
0000
1000
0001
0100
0001
1000
0000
0100
0010
0100
0010
,
0001
0100
0010
1000
0001
0000
0100
0001
0100
0010
1000
0000
0001
0100
0001
1000
,
0010
1000
0001
0100
0001
0000
1000
0100
1000
0000
0001
0100
0010
1000
0010
0100
,
0001
0010
0110
0100
1000
0010
1010
1000
,
0001
0100
0101
0001
1000
0100
1100
1000
,
0010
0100
0110
0010
1000
0001
1001
1000
,
0100
0010
0011
0001
1000
0010
0110
0100
,
0001
1000
0100
0010
0001
0000
1000
0000
0010
0000
0100
0000
0010
0000
1000
0000
,
0001
0100
0010
1000
0001
0000
0010
0000
0100
0000
0010
0000
0001
0000
0100
0000
,
0010
1000
0001
0010
0100
0000
1000
0000
0010
0000
1000
0000
0001
0000
0010
0000
,
0100
1000
0010
0100
0001
0000
1000
0000
0100
0000
0010
0000
0001
0000
0100
0000
,
0010
1000
0100
0010
0001
1000
0010
0100
,
0001
0010
0001
1000
0001
0100
0010
0100
,
0001
1000
0001
0010
0100
0010
0001
0100
,
0001
1000
0010
1000
0001
0010
0001
1000
,
0100
0010
0001
0100
0010
1000
0100
0010
,
0001
1000
0010
0100
0001
0010
0100
1000
,
0001
0100
0010
1000
0001
1000
0100
0010
,
0001
0100
0010
1000
0100
1000
0010
1000
,
0100
0000
0000
0000
;
