#TITLE:Paradise Lost;
#SUBTITLE:;
#ARTIST:Symphony X;
#TITLETRANSLIT:;
#SUBTITLETRANSLIT:;
#ARTISTTRANSLIT:;
#CREDIT:;
#BANNER:PL - Banner.jpg;
#BACKGROUND:PL - background.jpg;
#LYRICSPATH:;
#CDTITLE:;
#MUSIC:05. Paradise Lost.mp3;
#OFFSET:-0.281;
#SAMPLESTART:102.120;
#SAMPLELENGTH:12.000;
#SELECTABLE:YES;
#BPMS:0.000=153.000;
#STOPS:;
#BGCHANGES:;
// cache tags:
#FIRSTBEAT:13.000;
#LASTBEAT:973.000;
#SONGFILENAME:Songs/toune 2011/Paradise Lost/Paradise Lost.sm;
#HASMUSIC:1;
#HASBANNER:1;
#MUSICLENGTH:392.568;
// end cache tags

//---------------dance-single - ----------------
#NOTES:
     dance-single:
     :
     Hard:
     9:
     0.857,1.000,1.000,0.588,0.364,1714.000,410.000,231.000,0.000,175.000:
0000
0000
0000
0000
,
0000
0000
0000
0000
,
0000
0000
0000
0000
,
0000
0000
1001
0100
0010
0001
1000
0001
,
0110
1000
0100
0001
1000
0001
0100
0011
,
0100
1000
0100
0001
1000
0011
1000
0010
,
1000
0100
0010
0001
1100
0001
0100
1000
,
0010
1000
0001
0100
1000
0010
0100
1000
,
0010
1000
0010
0001
1000
0100
0010
1100
,
0001
0100
1000
0001
0010
0001
1000
0011
,
1000
0001
0100
0001
1000
0110
0001
1000
,
0100
0001
1000
0011
1000
0100
0001
0010
,
0100
0010
0001
0100
1000
0001
0100
0010
,
1000
0100
0010
0001
0010
0100
1000
0110
,
0010
0100
0001
1000
0010
0101
0001
0100
,
0010
0100
1000
0001
1100
0100
1000
0010
,
0100
1000
0100
0011
1000
0100
0010
0001
,
0010
0100
1000
0100
0010
1000
0001
0100
,
1001
0010
1000
0001
0100
0010
1010
0100
,
0010
0000
1000
0000
0001
0000
0100
0000
0010
0000
0022
0033
0000
0000
1000
0000
,
0100
0010
0001
0001
0100
1000
0100
0010
,
0001
0011
1000
0001
0100
0010
1000
0001
,
0100
0010
1000
0001
0100
0010
0001
0010
,
0100
1000
0100
0010
0001
1010
0100
0001
,
1000
0100
0010
1001
0100
0001
1000
0100
,
0001
1100
0010
0001
1000
0001
0010
1000
,
0011
1000
0001
0100
0010
1000
0100
0010
,
0001
0010
0100
1000
0011
1000
0100
0010
,
0001
0001
0100
0010
0001
0100
0001
0010
,
1000
0101
0010
1000
0001
0100
0010
1100
,
0010
0100
1000
0001
0010
1100
1000
0100
,
0001
0010
1000
0011
1000
0001
0010
0100
,
1000
0100
0011
0000
0001
1000
1010
0000
,
0011
0011
0000
0001
0011
0000
0011
0000
,
0011
0000
0001
1100
1000
1000
0000
0001
,
0011
0010
0000
0100
0022
0033
0000
0001
,
0011
0000
0011
0011
0000
0010
0110
0000
,
1001
0000
1001
0000
0010
0110
0010
1000
,
0110
0000
1001
0000
0110
1100
0011
0000
,
1000
0100
0010
0001
1000
0100
0010
1000
,
0001
0100
1000
0011
0100
0001
1000
0100
,
0010
0011
1000
0100
0001
1000
0010
0100
,
0011
1000
0001
0100
0010
0001
1000
0100
,
0010
0001
0010
0100
0001
1010
1000
0010
,
0001
0010
0100
0011
0100
1000
0001
0100
,
0010
0001
1000
0011
0000
0010
0001
0010
,
0010
0011
0010
0100
1000
0100
0010
0011
,
0100
0010
1000
0100
0001
1000
0110
0001
,
0100
0010
0100
0001
1000
0011
0100
0010
,
0001
0010
0100
1000
0001
0100
1000
0001
,
0100
1001
0010
0100
1000
0001
0100
0010
,
0010
0000
1000
0000
0100
0000
0010
0000
0100
0010
0001
0100
1000
0000
1100
0000
,
0000
0010
0000
0010
0100
0000
0011
0000
,
0011
1000
1000
0000
2000
3100
0010
0001
,
0100
0010
0001
0100
1000
0100
0001
1000
,
0010
2000
3000
0000
0000
0110
1001
0000
,
0010
0000
0010
0100
0010
0000
0000
2010
,
3100
0100
0001
0010
1000
0100
0001
0010
,
1000
0100
0010
0012
0000
0003
0000
0010
,
0101
0000
0000
0011
0000
0010
0101
1010
,
0000
1002
0103
0010
0001
1000
0100
0010
,
1000
0001
1000
0010
0001
1000
0012
0000
,
0003
0011
0001
0011
0000
0110
0000
0110
,
1000
0101
0000
0012
1003
0100
0001
0010
,
1000
0100
0010
0001
0001
0010
0100
1000
1000
0100
0010
0001
0001
0010
0100
1000
,
0000
0012
0000
1000
0100
1000
0010
2103
,
0000
0010
0001
0100
0001
3120
0000
0000
,
0001
1000
0100
0000
2130
0001
0010
0100
,
0010
0001
3012
0000
1000
0100
0010
0100
,
0123
0000
1000
0100
0001
0100
1000
2130
,
0000
0000
0100
0000
0010
0000
0001
0000
0010
0000
3101
0010
1000
0010
0100
1000
,
0100
0010
0001
0010
0001
0010
2100
0000
0000
0000
0010
0000
0001
0000
0100
0000
,
0010
3012
0000
0100
1000
0100
1000
0100
,
2013
0000
0010
0001
0010
0000
3201
0010
,
0001
1000
0010
0001
0312
0000
0100
1000
,
0100
0000
0000
2103
0000
0010
0001
0100
,
0000
3012
0000
1000
0100
0010
0000
1203
,
0001
0000
0010
0000
1000
0000
0001
0000
0010
0000
0000
0322
0000
0000
0033
0000
,
0000
0000
1100
0000
0011
0001
0100
0010
,
1100
0000
0010
0001
1000
0100
0001
1000
,
0011
1000
0100
0001
0100
1000
0001
0100
,
1001
0001
0100
0010
0001
0010
0110
1000
,
0100
0100
0010
1000
0011
1000
0010
0100
,
1001
0000
1000
0000
0001
0000
1100
0010
0001
0110
0000
0011
0000
1010
0000
0110
,
0000
0010
0000
0000
1100
0000
0010
0000
0001
0000
0010
0000
0011
0000
0000
0000
,
1010
0010
0001
0010
1100
0000
0101
0010
,
0001
0010
1100
0000
1010
0010
0001
0010
,
1000
0001
0100
1000
0101
0010
0001
0010
,
1010
0000
0011
0010
0001
0010
1100
0110
,
0011
0000
0100
1000
0100
0011
0110
0101
,
0010
0100
0010
1000
0010
0100
1001
0010
,
0001
0010
1100
0000
0011
0100
1000
0100
,
0011
1100
0110
0001
0010
0001
0010
1010
,
1100
0101
0010
1000
0001
0100
0010
1000
,
0110
0001
0010
0001
0010
1100
0000
1100
,
0010
0001
0010
1100
0011
1010
0010
0100
,
0010
0000
1100
0000
0011
0000
1010
0000
1000
0000
1000
0000
0001
0000
0100
0010
,
0001
1000
0100
0001
1000
0110
0000
0000
2010
0000
3210
0000
0312
0000
0213
0000
,
0312
0003
2100
3120
0132
2103
3120
0132
,
2103
0000
3012
0000
1203
0000
0321
0000
2030
0100
3002
0010
0203
0000
0312
0000
,
1203
2310
3012
1203
0312
1003
0120
0132
,
1203
0312
1023
0030
2001
3210
1302
2103
,
3210
0000
2301
0000
3120
0000
1230
0000
0312
0000
2103
0000
3002
0010
0203
0000
,
2310
3210
0321
2130
3011
0110
0011
0110
,
2100
0100
0001
0000
0100
0000
0001
0001
,
0001
0000
0001
0000
0010
0001
0001
3012
,
0010
0000
0000
0010
0000
0010
1000
0000
,
0000
0000
0100
0000
0000
0000
0010
0000
0010
0000
0010
1200
0013
0000
0000
0000
,
0000
0000
0001
0000
0000
0000
0000
0001
0000
0001
0000
0000
0000
0000
0000
0000
,
0001
0000
0010
0001
1302
0100
1000
0000
,
0010
0000
0000
0000
0010
0000
0100
0000
0000
0000
0100
0000
1000
0010
0100
1000
,
0000
0010
0100
1000
0000
2100
0003
0000
0000
0000
0000
0000
0000
0000
0001
0000
,
0000
0000
0010
0000
0100
0000
0000
0000
0001
0100
0000
0000
0000
0000
0010
0000
,
0000
0000
3012
0000
0010
0000
0000
0000
0000
0000
0000
1000
0000
0000
0000
0000
,
0010
0010
0000
0010
0000
1000
0100
0010
,
2103
0100
0000
0000
0010
0000
0001
0001
,
0000
0010
0000
0000
0001
0010
0100
3012
,
0010
0000
0100
0010
0000
0010
0100
2103
,
0001
0010
0100
0000
0001
0010
3102
1000
0000
1000
0000
1000
0100
1000
0000
0000
,
2103
0001
0010
0100
0010
0000
3012
0000
,
1000
0100
0010
0000
2103
0100
0001
0010
,
0001
0000
3201
0010
1000
0010
0001
0010
,
1000
0312
0010
0100
0010
1000
0000
2103
,
0100
0010
0100
0001
0000
3021
0100
1000
,
0100
0000
0001
0000
0000
0000
0000
1000
0130
0010
0100
0010
0100
0010
0100
1000
,
0100
0010
0001
1000
0120
0000
1000
0000
0100
0000
0001
0000
1000
0000
0000
0000
,
2130
0100
0001
0100
0010
0000
3012
0010
,
1000
0100
0010
1000
0000
2103
0100
0010
,
0100
0001
0010
3012
0100
0010
0100
1000
,
0000
0000
2103
0000
0000
0000
0001
0000
0100
0000
0010
0000
0100
0000
0000
0011
,
3000
0011
0000
0000
0000
0110
0000
0110
0000
1100
0000
0000
1010
0000
1100
0000
,
0000
0011
0000
0011
0100
0010
0100
0010
2100
0000
0100
0000
0010
0000
0100
0000
,
0001
0000
0010
0000
0000
3012
0000
0000
0100
0000
0010
0000
1000
0000
0000
0000
,
0000
1203
0010
0001
1000
0010
0000
0312
,
1000
0100
1000
0010
0100
2103
0001
0010
,
0001
0000
0100
0000
0000
0000
0000
0012
3000
0000
1000
0000
0100
0000
0010
0000
,
1000
0000
2103
0100
0001
0010
0100
0010
,
3001
0100
0010
0001
1000
0100
0010
0001
0010
0001
0100
1000
0100
0001
0210
0000
,
0010
1000
0001
0010
0000
0312
1000
0100
,
1000
0010
0000
2103
0010
0100
0001
0100
,
0000
0000
0000
3012
0000
0000
0000
0000
0010
0100
1000
0000
0100
0000
0000
1000
0000
0000
1000
0000
0000
1023
0000
0000
,
0000
1000
0100
0001
1000
0000
1032
0010
,
1000
0100
0010
0000
2103
0100
0001
0010
,
0001
0000
0100
0000
0000
0012
3000
0000
0000
0010
0000
0010
1000
0000
1000
0000
,
1000
2103
0000
0100
0010
0000
0010
0001
,
0000
0000
0001
0000
0010
0000
0000
0000
0001
0000
3012
0000
0100
0000
0000
2103
,
0000
0000
0000
0010
0000
0001
0000
0000
0000
0001
0000
0010
0000
0000
0000
0100
,
0000
0010
0000
0000
0000
0000
0010
0000
3201
0000
0010
0000
0312
0000
0000
0000
,
0010
0000
0100
0000
0000
0000
1000
0000
0100
0000
0000
0000
0000
0010
0000
0100
,
0000
0000
0000
1000
0000
0100
0000
0000
0010
0000
2103
0000
0000
0000
3012
0000
,
0000
0000
0000
1203
0000
0010
0000
0001
,
0001
0000
0300
0000
0011
0000
0012
0000
0000
0000
0000
1000
0000
0010
0000
0000
,
0000
0000
0000
0100
0000
0000
0000
0000
0000
0000
0010
0000
0000
0000
0000
0000
,
1203
0010
0312
0000
1000
0010
0100
1000
,
0100
0000
0000
0000
0100
0000
0010
0000
0000
0000
0000
0000
0000
2103
0010
0000
,
0001
3012
0000
0010
0100
1000
0100
0010
,
0100
0000
1000
0000
0010
0000
0100
0000
1000
0000
0100
0000
0010
0000
0100
2013
,
0000
0000
0000
0000
0000
0010
0000
0000
0000
0000
0010
3102
0000
0000
0000
0010
,
0000
0000
0000
0000
0010
0000
1000
0000
0010
0100
0010
0100
0013
1000
0100
0001
,
1020
0000
0000
0000
1000
0000
1000
0000
1000
0000
1000
0000
0000
2130
0001
0000
,
0001
0001
3102
0100
0100
1023
1000
1000
,
1000
1000
1000
2000
0000
0000
0000
3132
,
0000
2013
3102
0000
1000
1000
1000
1000
,
1203
0000
2300
0000
3021
0000
0230
0000
0000
1302
0000
0023
0000
0000
2130
0000
,
0000
3020
1032
0000
1023
1230
0000
0321
,
2031
0000
0000
0000
3120
0000
0000
0000
0000
1032
0000
0000
0000
0000
0000
0000
,
0000
0000
0000
0000
0000
1003
0100
0021
0000
0000
0000
0000
0031
0010
1200
0000
,
0000
0000
0310
1000
0012
0000
0000
0000
1003
0100
0001
0100
0010
1000
0100
0010
,
0001
1000
0001
1000
0100
0010
0001
0010
1000
0100
0001
0010
1000
0001
0010
0100
,
1000
0000
0000
0010
0102
0000
0000
0000
0000
0000
0000
0000
0000
0000
0000
0000
0000
0000
0000
0000
0000
0000
0000
0000
0000
0000
0000
0003
0000
0000
1000
0000
0000
0010
0000
0000
0100
0000
0000
0001
0000
0000
1200
0000
0000
0000
0000
0000
,
0000
0000
0000
0000
0000
0000
0000
0000
0000
0000
0000
0000
0000
0000
0000
0000
0000
0000
1302
0000
0000
0000
0000
0000
1003
0000
0000
0001
0000
0000
0100
0000
0012
0000
0000
0000
0000
0000
0000
0000
0000
0000
0000
0000
0000
0000
0000
0000
,
0000
0000
0000
0000
0000
0000
0003
0000
0010
0000
0100
0000
2100
0000
0000
0010
0000
0000
0000
0000
0000
0010
0000
0000
0000
0000
0000
0000
0000
0000
0000
0000
0000
0000
0000
0000
0010
0000
0000
0001
0000
0000
0010
0000
0000
0100
0000
0000
,
0001
0010
0200
0000
0300
0000
0000
0000
0000
0000
0000
0000
3100
0000
0001
0000
,
1000
0000
0001
0000
1000
0000
0001
0000
0100
0000
0001
0010
1000
0100
0001
1000
,
0010
0100
0001
0010
0100
1000
0100
0010
0001
1000
0100
0010
0100
1000
0001
0010
,
0200
0000
0301
0100
2010
0000
3102
0000
0000
0000
0000
0000
0000
2103
0001
0000
,
0001
0000
0001
0000
0001
0000
0001
0000
0001
0000
0001
0000
0001
0000
0000
3001
,
0010
0001
0100
0001
1000
0100
0001
1000
0100
0010
0100
0010
0001
1000
0001
0100
,
2010
0000
0000
0000
0000
0000
0000
0000
0000
0000
0000
0000
0100
0000
0000
0010
0000
0000
0001
0000
0000
0010
0000
0000
3100
0000
1000
0000
0100
0000
0010
0000
0001
0000
0010
0000
0100
0000
1000
0000
0000
0000
0000
0000
0000
0000
0100
0000
,
1000
0100
0010
0001
0010
0100
1000
0000
0000
0000
0001
0010
0100
0001
0010
0100
1000
0100
0010
0100
1000
0100
0010
0001
,
0010
0000
0100
0000
1000
0000
0100
0000
1000
0000
0200
0000
0000
0000
0000
0000
0000
0000
0301
0000
0010
0000
0100
0000
0010
0000
0001
2000
0000
0000
0000
0000
0000
0000
0000
0000
3010
0000
0002
0000
0000
0000
0000
0000
0000
0000
0000
0000
,
2013
3210
2310
3012
0213
2310
3102
0123
,
0000
0000
0000
0000
0000
0000
0000
0000
0000
1230
0000
0000
0000
0000
0000
0310
0000
0002
1000
0000
0000
1000
0000
0000
,
1000
1000
1000
1000
2203
0000
0000
0000
,
3301
0010
0001
0100
0010
0001
2200
0000
3000
0000
0000
0000
0000
0002
0000
0003
,
0000
0001
1000
0321
0000
0000
1000
0000
,
0100
1000
0100
0000
0001
0000
0100
2130
,
0000
0000
0000
0000
0100
0000
0000
0000
0000
0001
0000
0100
0000
0010
0000
0000
,
0000
0010
0000
0000
0000
0000
0100
0000
3102
0000
0000
0000
0000
0000
0010
0000
,
0000
0000
1000
0000
0100
0000
0010
0000
0000
0000
0000
0010
0000
0000
0000
0010
,
0003
2010
0000
0000
0000
0000
0000
0100
0000
0000
0000
0000
0001
0000
0010
0000
,
3001
0010
0100
0000
1000
0100
0010
0000
0110
0000
0210
0000
0000
0000
0000
0000
,
0001
0000
0000
0000
0000
0010
0000
0001
0000
0010
0000
0000
0000
0010
0000
0000
,
0000
1000
2301
0000
0000
0010
0000
0001
,
0010
0000
0100
0000
0000
0000
0010
0000
0000
0000
0100
0000
0000
3120
0000
0000
,
0000
0000
0001
0000
0000
0000
0000
1000
0000
0100
0000
1000
0000
0000
0000
0000
,
1000
0000
1000
2031
0000
0000
0010
0000
,
0010
0000
0100
0000
0010
0001
0010
0000
0100
0000
0000
3210
0000
2310
0000
3012
,
0000
0000
0000
0000
0000
0010
0000
0000
0000
0010
0000
0100
0000
1000
0000
0000
,
0000
0000
0010
0000
2003
0000
3012
0000
0013
0100
0010
0100
0010
0100
0010
0100
,
0010
0100
0010
0100
0010
0100
0010
0100
0010
0100
0010
0100
0010
0100
0010
0100
,
0010
1100
0000
1010
0000
0011
0000
1100
0000
0000
0000
0000
0000
0000
0110
0000
,
1001
0110
1100
0000
0000
1001
0011
0101
,
1001
0000
0000
0000
0000
0000
0000
1001
0000
0110
0000
1001
0000
0110
0000
0000
,
0000
0000
1001
1100
0110
1001
0000
0000
,
1100
0000
0011
0000
1100
0000
0101
0000
0000
0000
0000
0000
0000
1100
0000
1001
,
0000
1010
0000
1001
0000
0000
0000
0000
0000
1010
0000
0110
0000
1001
0000
0101
,
0000
0000
0000
1001
1010
0101
0110
0000
,
0000
0000
1010
0000
1100
0000
0011
0000
1100
0000
0000
0000
0000
0000
0000
0110
,
0000
1100
0000
0101
0000
1010
0000
0000
0000
0000
0000
0000
1100
0000
0110
0000
,
1100
0011
0000
0000
0011
1010
0011
1100
,
0000
0000
0101
0011
1100
1010
0000
0000
,
0000
1010
1100
0011
1100
0000
0000
1001
,
0110
0101
1000
0100
0010
1002
0100
1000
,
0100
0000
0010
0000
0000
0000
0000
2103
0000
0000
0000
0010
0000
0001
0000
0100
,
0000
0001
0000
0000
3201
0000
0000
0000
0010
0000
0001
0000
1000
0000
0000
0000
,
1302
0010
1000
0100
1000
0010
2103
0000
,
0010
0000
0100
0000
0001
0000
0000
0000
0000
3102
0000
0000
0000
0000
1000
0000
,
0100
0010
0000
2013
0000
0100
0010
0001
,
0000
3012
0010
0100
1000
0100
1000
1023
,
0000
0000
0000
0000
0001
0000
0100
0000
1000
0000
0000
1032
0000
0000
0000
0000
,
0010
1000
0100
0000
0213
0010
0000
0001
,
0000
0000
0001
0000
0000
2010
0310
0000
0001
0000
0010
0000
0100
0000
0001
0000
,
0100
0000
3012
0000
0000
0000
1000
0000
0100
0000
0010
0000
0000
0100
1023
0000
,
0100
0000
0000
0001
0000
0000
0100
0000
0000
1000
0000
0000
0000
0000
0000
1130
0000
0000
1000
0100
0010
0001
0000
0000
,
0011
0000
0000
0100
0000
0000
1000
0000
0000
0011
0000
0000
0010
0000
0000
0100
0000
0000
0010
0000
0000
0011
0000
0000
0001
0000
0010
0000
0100
0000
1000
0000
0000
0100
0000
0000
0011
0000
0000
0000
0000
0000
0011
0000
0000
0000
0000
0000
,
0011
0000
1100
0010
2100
0000
0000
0000
0001
0000
0010
0000
0001
0000
0000
0000
,
3102
0000
0010
1000
0010
0000
2013
0010
,
0000
0000
0000
0010
0000
0000
0000
0000
0001
0012
3000
0000
0010
0000
1000
0000
,
0010
0100
1000
1023
0001
1000
0001
0100
,
0000
0000
2031
0000
0000
0000
0010
0000
0100
0000
0001
0000
0010
0000
3000
0210
,
0000
0001
0000
0000
0000
0001
0000
0000
0000
0000
0010
0300
0012
0000
1000
0000
,
0100
0000
0010
0000
1000
0000
0100
0010
2103
0000
0000
0000
0001
0000
0010
0000
,
0100
0000
0000
0100
3012
0000
0000
0000
1000
0000
0010
0000
0100
0000
0000
0000
,
0000
2103
0100
0000
0100
0000
0010
3012
,
1000
0100
0010
0100
1000
2103
0001
0010
,
0001
0100
0000
3102
0010
1000
0010
0100
,
1000
0000
0000
0000
2103
0000
0100
0010
0001
0100
0010
0001
0010
0100
0001
0010
,
3100
1000
0100
0010
0001
1000
0100
0010
0001
0010
0001
0100
2001
0000
0010
0000
,
0001
0000
0100
0000
0010
0000
0001
0000
0000
3120
1000
0000
0100
0000
0001
0000
,
0100
1000
0100
0132
0100
0000
1000
0000
,
1000
0213
0010
0001
1000
0010
0001
1000
,
2302
0000
0000
3223
,
0000
0330
0000
0000
;
