#TITLE:Blue Army (easy ver.);
#SUBTITLE:Zaghurim steps - RAL edit;
#ARTIST:DJ Sharpnel;
#TITLETRANSLIT:;
#SUBTITLETRANSLIT:;
#ARTISTTRANSLIT:;
#CREDIT:;
#BANNER:bluearmy-bn.png;
#BACKGROUND:bluearmy-bg.png;
#LYRICSPATH:;
#CDTITLE:cdtitle.PNG;
#MUSIC:14 BLUE ARMY.mp3;
#OFFSET:-0.732;
#SAMPLESTART:7.220;
#SAMPLELENGTH:15.000;
#SELECTABLE:YES;
#BPMS:0.000=182.200,132.000=91.100,166.000=182.200,290.000=91.100,368.000=182.200;
#STOPS:;
#BGCHANGES:;
// cache tags:
#FIRSTBEAT:8.000;
#LASTBEAT:1064.500;
#SONGFILENAME:Songs/toune 2/(ral) Blue Army/Blue Army.sm;
#HASMUSIC:1;
#HASBANNER:1;
#MUSICLENGTH:396.225;
// end cache tags

//---------------dance-single - ----------------
#NOTES:
     dance-single:
     :
     Hard:
     10:
     0.752,0.940,0.096,0.093,0.283,2011.000,38.000,37.000,0.000,0.000:
0000
0000
0000
0000
,
0000
0000
0000
0000
,
1000
0010
0001
0010
0000
1000
0000
0001
,
0000
0000
0000
0000
,
0001
0010
1000
0010
0000
0001
0000
1000
,
0000
0000
0000
0000
,
1000
0010
0001
0010
0000
1000
0000
0001
,
0000
0000
0000
0000
,
1000
0010
0001
0010
0000
1000
0000
0001
,
0000
0000
0000
0000
1000
0001
1000
0001
,
1000
0010
0100
0010
0000
0010
0000
0010
,
0000
0000
0000
0000
,
0001
0010
0001
1000
0000
0100
0000
1000
,
0000
0000
0000
0000
,
1000
0100
1000
0010
0000
1000
0000
0100
,
0000
0000
0000
0000
,
1000
0010
0001
0010
0000
1000
0000
0001
,
1001
0000
1001
0000
0100
0001
1000
0001
,
1000
0010
0100
0001
0100
0010
0010
1000
,
0100
1000
0100
0001
0010
0010
0001
1000
,
0010
0100
1000
0001
0100
0001
0010
1000
,
1000
0100
0001
1000
0100
1000
0100
0001
,
0001
0100
0010
1000
1000
0010
0100
0001
,
0010
0010
0001
1000
0100
1000
0100
1000
,
0100
1000
0100
0001
0100
0001
0001
1000
,
0100
0100
1000
0001
0100
1000
1000
0010
,
0100
1000
0100
0001
0010
0001
0010
1000
,
0010
1000
0100
0001
0001
0100
0001
1000
,
0100
1000
0100
0001
0010
0001
0010
1000
,
0010
1000
0100
0001
0010
0001
0001
1000
,
0010
0100
0010
0100
1000
0010
0100
0001
,
1000
0100
0010
0001
0100
0010
1000
0001
,
1000
0001
1000
0001
0010
0001
0100
1000
,
1001
0000
0000
0000
0000
0000
0000
0000
1000
0100
0010
1000
0000
0001
0000
0010
,
0000
0000
0000
0000
0000
0000
0000
0000
0100
0010
0001
0001
0000
1000
0000
0100
,
0000
0000
0000
0000
0000
0000
0000
0000
0100
0100
1000
0100
0000
0010
0000
1000
,
0000
0000
0000
0000
0000
0000
0000
0000
0010
1000
0001
0010
0000
0100
0000
0001
,
0000
0000
0000
0000
0000
0000
0000
0000
0010
0001
1000
0100
0000
0100
0000
0100
,
0000
0000
0000
0000
0000
0000
0000
0000
0100
1000
0001
0100
0000
0010
0000
0001
,
0000
0000
0000
0000
0000
0000
0000
0000
1000
0001
1000
0001
0000
1000
0000
0010
,
0000
0000
0000
0000
0000
0000
0000
0000
0001
1000
0001
1000
0000
0001
0000
0100
,
0000
0000
0000
0000
1000
0100
1000
0001
,
0010
0001
0010
1000
1000
0001
0010
1000
,
0100
1000
0010
1000
0001
0001
1000
0001
,
0100
0001
0010
1000
1000
0001
0100
0001
,
0100
0010
0001
1000
0100
0001
0100
0001
,
0010
0001
0010
0001
1000
1000
0010
0001
,
0010
0001
0010
0100
0001
0010
1000
0100
,
0010
0100
1000
0100
0010
0010
0001
1000
,
1001
1001
1001
1001
1001
0010
0001
1000
,
0100
1000
0100
0001
0001
1000
0100
0001
,
0010
0001
0100
0001
0100
1000
0010
1000
,
0010
1000
0100
0001
0001
1000
0010
1000
,
0010
0100
0100
0001
0010
1000
0100
1000
,
0010
1000
0100
1000
0100
0001
0010
1000
,
0100
1000
0100
0010
1000
0100
0001
0010
,
0100
0000
0010
0000
1000
0000
0010
0000
0001
0000
1000
0001
1000
0000
1000
0001
,
1000
0001
1000
0001
1000
0001
0100
1000
,
0010
0100
1000
0010
1000
0100
0001
1000
,
0010
0100
0010
1000
0001
0001
1000
0001
,
0100
0001
0010
1000
0100
0001
0010
0001
,
0100
0010
0001
1000
0010
0001
0100
0001
,
0010
0001
0010
0001
0100
1000
0010
0001
,
0001
0010
0001
0100
1000
0010
0001
1000
,
0100
0100
0001
0100
1000
0010
0001
0001
,
1000
0100
1000
0100
0001
1000
0010
0001
,
0100
1000
0001
0100
0001
0010
1000
0001
,
0100
0010
0100
0001
0100
1000
0001
1000
,
0010
1000
0100
0001
0010
1000
0100
1000
,
0010
0100
1000
0001
0010
0100
0010
1000
,
0001
0010
0001
1000
0001
0100
1000
0010
,
0010
1000
0010
0100
0001
0100
0001
0010
,
0001
0100
0001
0010
0010
0000
0000
0000
,
1001
0000
0000
0000
,
2002
0000
0000
0000
0000
0000
0000
3003
,
0220
0000
0000
0000
0000
0000
0000
0330
,
2200
0000
0000
0000
0000
0000
0000
3300
,
0022
0000
0000
0000
0000
0000
0000
0033
,
2020
0000
0000
0000
0000
0000
0000
3030
,
0202
0000
0000
0000
0000
0000
0000
0303
,
0220
0000
0000
0000
0000
0000
0000
0330
,
2002
0000
0000
0000
0000
0000
0000
3003
,
1010
0000
0000
0000
1000
0100
0010
0001
1000
0000
0000
0000
0010
0100
0001
1000
,
0010
0000
0010
0100
0010
0000
0010
0000
0001
0000
0000
1000
0001
0100
0010
1000
,
0001
0000
0000
1000
0001
1000
0010
0100
0001
0000
0000
0000
2000
0000
3200
0000
,
2300
0000
3200
0000
0320
0000
0032
0000
0023
0000
0000
0000
1030
0100
0010
0001
,
1000
0000
0000
0000
0001
0010
0100
1000
0001
0000
0000
0000
1000
0001
0100
0010
,
1000
0000
0001
0100
0010
0000
1000
0000
0010
0000
0000
1000
0100
0010
0001
0010
,
0100
0000
0000
0001
0010
0100
1000
0100
0010
0000
0000
0000
0002
0000
0023
0000
,
0230
2300
3200
0320
0032
0023
0230
2300
,
3020
0000
0230
0000
0302
0000
0203
0000
0300
0000
0000
0001
0000
1000
0000
0010
,
0000
0000
0000
0100
0000
0000
0000
0000
0000
0000
0000
0000
0000
0000
0000
0000
,
0010
0000
0000
0001
0000
0000
1000
0000
1001
0000
0000
0010
0000
0000
0001
0000
,
1000
0000
0000
0100
0000
0000
0001
0000
1001
0000
0000
0100
0000
0000
0001
0000
,
0010
0000
0000
1000
0000
0000
0001
0000
1001
0000
0000
0010
0000
0000
0100
0000
,
1000
0000
0000
0010
0000
0000
0001
0000
1001
0000
0000
1000
0000
0000
0001
0000
,
0100
0000
0000
1000
0000
0000
0001
0000
0101
0000
0000
1000
0000
0000
0001
0000
,
0100
0000
0000
0001
0000
0000
0001
0000
0101
0000
0000
0001
0000
0000
0010
0000
,
0010
0000
0000
1000
0000
0000
0010
0000
1010
0000
0000
1000
0000
0000
0100
0000
,
0010
0000
0000
1000
0000
0000
0010
0000
0011
0000
0000
0010
0000
0000
1000
0000
,
0100
0000
0000
1000
0000
0000
0001
0000
0101
0000
0000
1000
0000
0000
0100
0000
,
0001
0000
0000
1000
0000
0000
0001
0000
1001
0000
0000
1000
0000
0000
0001
0000
,
0010
0000
0000
1000
0000
0000
0001
0000
1001
0000
0000
0010
0000
0000
0001
0000
,
1000
0000
0000
1000
0000
0000
0001
0000
1001
0000
0000
1000
0000
0000
0010
0000
,
0001
0000
0000
1000
0000
0000
0001
0000
0101
0000
0000
1000
0000
0000
0010
0000
,
0001
0000
0000
1000
0000
0000
0001
0000
0101
0000
0000
0001
0000
0000
0010
0000
,
0100
0000
0000
1000
0000
0000
0010
0000
1010
0000
0000
1000
0000
0000
0100
0000
,
1000
0000
0000
0100
0000
0000
0010
0000
0011
0000
0000
0100
0000
0000
1000
0000
,
0001
1000
0010
0100
0001
0010
0100
1000
,
0010
0100
0001
0010
0100
1000
0001
0010
,
0100
1000
0100
0010
0001
0010
0001
0100
,
1000
0100
0001
0010
0001
0100
1000
0100
,
0001
0010
0100
1000
0010
1000
0100
0001
,
0100
1000
0010
1000
0100
0001
0100
1000
,
0010
1000
0001
0100
0010
1000
0001
0100
,
0010
0100
0001
0100
0001
1000
0100
1000
,
0001
0100
0001
1000
0100
1000
0001
0100
,
0001
1000
0100
1000
0001
0100
0001
1000
,
0100
1000
0010
0100
0001
0010
0100
1000
,
0010
0100
0001
0010
0100
1000
0010
0100
,
0001
0010
0100
1000
0001
0100
0010
1000
,
0100
0010
0001
1000
0100
0010
0001
1000
,
0010
0001
0100
0010
0001
0100
0010
0001
,
1001
0000
0000
0000
0001
0010
0100
1000
,
0001
0000
0100
0010
0100
0000
0001
0000
0100
0000
0001
0100
0001
0000
1000
0000
,
0010
0000
0001
1000
0001
0000
1000
0000
0001
0000
1000
0100
1000
0000
0001
0000
,
0100
0000
0001
1000
0001
0000
0010
0000
1000
0000
0100
0010
0100
0000
0001
0000
,
0100
0000
0010
0100
0010
0000
1000
0000
0100
0000
0010
0100
0010
0000
0100
0000
,
1000
0000
0001
0100
0001
0000
0010
0000
0100
0000
0001
0010
0001
0000
0100
0000
,
0010
0000
1000
0100
1000
0000
0001
0000
0100
0000
1000
0010
1000
0000
0100
0000
,
0010
0000
0001
0100
0001
0000
0010
0000
0100
0000
0001
1000
0001
0000
0100
0000
,
0010
0000
1000
0001
1000
0000
0100
0000
0001
0000
0010
0000
1000
0000
0010
0000
,
0001
0000
0010
0100
0010
0000
1000
0000
0001
0000
0010
1000
0010
0000
0001
0000
,
1000
0000
0100
0001
0100
0000
0010
0000
1000
0000
0001
0100
0001
0000
0010
0000
,
0100
0000
0010
1000
0010
0000
0001
0000
0100
0000
0001
0010
0001
0000
1000
0000
,
0100
0000
0001
0100
0001
0000
0100
0000
1000
0000
0010
0100
0010
0000
0001
0000
,
0010
0000
0100
0001
0100
0000
0010
0000
0100
0000
0010
1000
0010
0000
1000
0000
,
0001
0000
0010
1000
0010
0000
1000
0000
0100
0000
1000
0001
1000
0000
0010
0000
,
0100
0000
0001
0100
0001
0000
1000
0000
0010
0000
1000
0001
1000
0000
0001
0000
,
1000
0000
0010
1000
0010
0000
0001
0000
1000
0000
0010
0000
0001
0000
0100
0000
,
0010
0000
1000
0001
1000
0000
0001
0000
0100
0000
0001
0010
0001
0000
0010
0000
,
0100
0000
1000
0010
1000
0000
0100
0000
0010
0000
1000
0010
1000
0000
0001
0000
,
1000
0000
0100
0010
0100
0000
0010
0000
0001
0000
0100
0010
0100
0000
0001
0000
,
0100
0000
1000
0010
1000
0000
0001
0000
0100
0000
0001
0100
0001
0000
1000
0000
,
0010
0000
0100
0010
0100
0000
0001
0000
0100
0000
0001
1000
0001
0000
0100
0000
,
0010
0000
1000
0100
1000
0000
0010
0000
0100
0000
0010
0100
0010
0000
0001
0000
,
1000
0000
0001
1000
0001
0000
0010
0000
0001
0000
1000
0001
1000
0000
0100
0000
,
0010
0000
1000
0010
1000
0000
0100
0000
0001
0000
1000
0000
0001
0000
1000
0000
,
0001
0000
0100
0010
0100
0000
0001
0000
0010
0000
1000
0010
1000
0000
0001
0000
,
0100
0000
0001
0100
0001
0000
1000
0000
0010
0000
1000
0010
1000
0000
0001
0000
,
0100
0000
0001
0100
0001
0000
0010
0000
0100
0000
1000
0100
1000
0000
0001
0000
,
0010
0000
1000
0001
1000
0000
0100
0000
1000
0000
0010
0100
0010
0000
1000
0000
,
0001
0000
1000
0001
1000
0000
0100
0000
0010
0000
0100
0010
0100
0000
0001
0000
,
1000
0000
0001
0010
0001
0000
1000
0000
0100
0000
0001
0100
0001
0000
1000
0000
,
0001
0000
1000
0001
1000
0000
0010
0000
0001
0000
1000
0010
1000
0000
0010
0000
,
1000
0000
0001
0100
0001
0000
0100
0000
0001
0000
0010
0100
0010
0000
1000
0000
,
0001
0000
1000
0100
1000
0000
0001
0000
0010
0000
0001
0010
0001
0000
0100
0000
,
1000
0000
1000
0001
1000
0000
0100
0000
0010
0000
0001
1000
0001
0000
0010
0000
,
1001
0000
0000
0000
,
0000
0000
0000
0000
,
0001
0010
0100
1000
0001
0010
0100
1000
,
0001
0010
0100
1000
0001
0010
0100
1000
,
1000
0100
0010
0001
1000
0100
0010
0001
,
1000
0100
0010
0001
1000
0100
0010
0001
,
0010
0100
0010
0100
0010
0100
0010
0100
,
0010
0100
0010
0100
0010
0100
0010
0100
,
0001
1000
0001
1000
0001
1000
0001
1000
,
0001
1000
0001
1000
0001
1000
0001
1000
,
0010
0100
0001
0010
0100
1000
0010
0100
,
0001
0010
0100
1000
0010
0100
0001
0010
,
0100
0001
0100
0010
0100
0001
0100
0010
,
0100
0001
0100
0010
0100
0001
0100
0010
,
1000
0100
1000
0001
1000
0100
1000
0001
,
1000
0100
1000
0001
1000
0100
1000
0001
,
1000
0100
1000
0001
0100
0001
1000
0100
,
1000
0001
0100
0001
1000
0100
1000
0001
,
0010
0100
1000
0001
0010
0100
1000
0001
,
0010
0100
1000
0001
0010
0100
1000
0001
,
0010
0100
0010
0001
0010
0100
0010
0001
,
0010
0100
0010
0001
0010
0100
0010
0001
,
0100
0010
0100
1000
0100
0010
0100
1000
,
0100
0010
0100
1000
0100
0010
0100
1000
,
0100
0001
0100
0001
0100
0001
0100
0001
,
0100
0001
0100
0001
0100
0001
0100
0001
,
1000
0100
0010
0001
1000
0100
0010
0001
,
1000
0100
0010
0001
1000
0100
0010
0001
,
0001
0010
0100
1000
0001
0010
0100
1000
,
0001
0010
0100
1000
0001
0010
0100
1000
,
0001
0100
0001
0100
0001
0100
0001
0100
,
0001
0100
0001
0100
0001
0100
0001
0100
,
1000
0100
0010
0001
0010
0100
1000
0100
,
0010
0001
0010
0100
1000
0100
0010
0001
,
0010
0100
1000
0100
0010
0001
0010
0100
,
1000
0100
0010
0001
0010
0100
1000
0100
,
0010
0000
0000
0000
,
0000
0000
0000
0000
,
1000
0100
0001
0100
1000
0100
0001
0100
,
1000
0100
0001
0100
1000
0100
0001
0100
,
0010
1000
0001
0100
0010
1000
0001
0100
,
0010
1000
0001
0100
0010
1000
0001
0100
,
0010
1000
0100
1000
0010
1000
0100
1000
,
0010
1000
0100
1000
0010
1000
0100
1000
,
0100
1000
0010
0100
1000
0010
0100
1000
,
0010
0100
1000
0010
0100
1000
0010
0100
,
1000
0001
0100
1000
0001
0100
1000
0001
,
0100
1000
0001
0100
1000
0001
0100
1000
,
0001
1000
0100
0001
1000
0100
0001
1000
,
0100
0001
1000
0100
0001
1000
0100
0001
,
1000
0100
1000
0001
0100
0001
1000
0100
,
1000
0001
0100
0001
1000
0100
1000
0001
,
0100
0010
0100
1000
0100
0010
0100
1000
,
0100
0000
0010
0001
0100
0000
0010
1000
0100
0000
0010
0001
0100
0010
1000
0100
,
0010
0001
0100
0010
1000
0100
0010
0001
,
0100
0010
1000
0001
0010
0100
1000
0100
,
0010
0100
1000
0100
0010
0100
1000
0100
,
0010
0100
1000
0100
0010
0100
1000
0100
,
0010
0001
0010
0001
0010
0001
0010
0001
,
0010
0100
0010
0100
0010
0100
0010
0100
,
0010
1000
0010
1000
0010
1000
0010
1000
,
0010
1000
0001
1000
0001
1000
0001
1000
,
0001
0100
0001
0100
0001
0100
0001
0100
,
0001
0010
0001
0010
0001
0010
0001
0010
,
0001
0100
0010
1000
0001
0100
0010
1000
,
0001
0100
0010
1000
0001
0010
0100
1000
,
0001
0010
0100
1000
0001
0010
0100
1000
,
0100
0010
0001
0010
0100
1000
0100
0010
,
0001
0010
0100
1000
0100
0010
0001
0010
,
1001
0000
0000
0000
1000
0100
0010
0001
,
0010
0000
1000
0010
1000
0000
0100
0000
0001
0000
0010
1000
0010
0000
0001
0000
,
0100
0000
0010
0100
0010
0000
1000
0000
0001
0000
1000
0001
1000
0000
0100
0000
,
0010
0000
1000
0001
1000
0000
0100
0000
0001
0000
0010
0100
0010
0000
1000
0000
,
0010
0000
0100
0010
0100
0000
0001
0000
0010
0000
0001
1000
0001
0000
0100
0000
,
0001
0000
1000
0010
1000
0000
0100
0000
0010
0000
1000
0100
1000
0000
0010
0000
,
0100
0000
0001
0010
0001
0000
1000
0000
0100
0000
0010
0100
0010
0000
0001
0000
,
0010
0000
1000
0010
1000
0000
0100
0000
0010
0000
1000
0001
1000
0000
0010
0000
,
1000
0000
0010
0001
0010
0000
1000
0000
0001
0000
0010
0000
1000
0000
0100
0000
,
1000
0000
0100
0010
0100
0000
0001
0000
1000
0000
0100
0001
0100
0000
0010
0000
,
0001
0000
0010
1000
0010
0000
0100
0000
0100
0000
0001
0010
0001
0000
0100
0000
,
0010
0000
0100
0001
0100
0000
1000
0000
0010
0000
1000
0100
1000
0000
0001
0000
,
0100
0000
0001
1000
0001
0000
0100
0000
0010
0000
1000
0010
1000
0000
0001
0000
,
0100
0000
1000
0010
1000
0000
0100
0000
0010
0000
0001
0100
0001
0000
0010
0000
,
1000
0000
0001
1000
0001
0000
0010
0000
0100
0000
1000
0001
1000
0000
0100
0000
,
0010
0000
1000
0010
1000
0000
0001
0000
0010
0000
0001
1000
0001
0000
0100
0000
,
0001
0000
1000
0001
1000
0000
0010
0000
0001
0100
0001
0000
1000
0100
1000
0000
,
0100
0000
0001
0010
0100
0000
1000
0000
0010
0000
1000
0100
1000
0000
0100
0000
,
1000
0000
0001
0100
0001
0000
0010
0000
0100
0000
1000
0100
1000
0000
0100
0000
,
0001
0000
0010
0100
0010
0000
0001
0000
1000
0000
0010
0100
0010
0000
1000
0000
,
0010
0000
0010
0100
0010
0000
0001
0000
0010
0000
0001
0100
0001
0000
1000
0000
,
0100
0000
0010
0100
0010
0000
1000
0000
0010
0000
1000
0001
1000
0000
0100
0000
,
1000
0000
0001
0010
0001
0000
0100
0000
0010
0000
0100
0010
0100
0000
1000
0000
,
0001
0000
1000
0001
1000
0000
0100
0000
1000
0000
0001
1000
0001
0000
0010
0000
,
0100
0000
0001
0100
0001
0000
1000
0000
0001
0000
1000
0000
0001
0000
1000
0000
,
0001
0000
0010
0100
0010
0000
0001
0000
0010
0000
0001
0100
0001
0000
1000
0000
,
0010
0000
1000
0010
1000
0000
0001
0000
0100
0000
0001
0010
0001
0000
0100
0000
,
1000
0000
0010
1000
0010
0000
0100
0000
0010
0000
0001
0010
0001
0000
1000
0000
,
0100
0000
0001
1000
0001
0000
0010
0000
1000
0000
0001
0100
0001
0000
1000
0000
,
0001
0000
1000
0001
1000
0000
0100
0000
0010
0000
1000
0100
1000
0000
0001
0000
,
1000
0000
0010
1000
0010
0000
0001
0000
0010
0000
1000
0010
1000
0000
0001
0000
,
1000
0100
1000
0100
1000
0010
1000
0010
,
0010
0100
0010
0100
0001
1000
0001
1000
,
0001
0010
1000
0100
1000
0010
1000
0100
,
1000
0001
0010
0100
1000
0010
0001
0100
,
1001
0000
0000
0000
,
0000
0000
0000
0000
,
0010
0100
0010
0000
0001
0000
0010
0000
0000
0000
0010
0000
0100
0000
0010
0000
,
0001
0100
0000
0010
1000
0001
0010
0100
,
0010
0100
0000
0000
0000
0000
0000
0000
;
