#TITLE:One More Lovely;
#SUBTITLE:-SigMix-;
#ARTIST:Risk Junk vs Kors K;
#TITLETRANSLIT:;
#SUBTITLETRANSLIT:;
#ARTISTTRANSLIT:;
#CREDIT:;
#BANNER:bn.png;
#BACKGROUND:bg.png;
#LYRICSPATH:;
#CDTITLE:KOMBO.png;
#MUSIC:One More Lovely -Sigmix-.mp3;
#OFFSET:-0.745;
#SAMPLESTART:43.900;
#SAMPLELENGTH:19.120;
#SELECTABLE:YES;
#BPMS:0.000=200.001;
#STOPS:;
#BGCHANGES:;
// cache tags:
#FIRSTBEAT:1.750;
#LASTBEAT:364.000;
#SONGFILENAME:Songs/Definitive Keyboard Megapack/One More Lovely -Sigmix- [KOMBO]/One More Lovely -Sigmix-.sm;
#HASMUSIC:1;
#HASBANNER:1;
#MUSICLENGTH:114.345;
// end cache tags

//---------------dance-single - Edit----------------
#NOTES:
     dance-single:
     Edit:
     Edit:
     19:
     1.000,1.000,1.000,1.000,1.000,1313.000,385.000,131.000,0.000,26.000:

0000
0000
0000
0000
0000
0000
0000
0000
0000
0000
0000
0000
0000
0000
0100
0000
1000
0000
0000
0000
0001
0000
0000
0100
1000
0000
0000
0000
0000
0000
0000
0000
,
1011
1000
1001
0001
1001
1100
0101
1001
,
0110
0100
0110
1100
0110
0101
0110
0011
,
1100
0010
0100
0110
1100
0011
0101
0110
,
1010
0100
0011
0100
1010
0100
0022
0033
,
1101
0001
1001
1000
1001
0001
1001
1000
,
0110
0010
0110
0100
0110
0010
0110
0100
,
0011
0100
1010
0100
0011
0100
1010
0010
,
2202
3303
0000
0000
0010
0000
0000
0000
1100
0000
0000
0000
0010
0000
0000
0000
2202
3303
0000
0000
0010
0000
0000
0000
2200
0000
0000
0000
3300
0000
0000
0000
,
1001
0100
1000
0001
0110
0001
0010
0100
1001
0100
0010
0001
0110
0001
0010
0100
,
0011
0100
1000
0010
1100
0010
1000
0001
0110
1001
0110
0000
1001
0000
1001
0000
,
1001
0010
0100
0010
0101
1000
0001
0100
0011
0100
0001
0100
0011
0100
1001
0000
,
1001
0010
0100
0010
1100
0010
0100
1000
0011
1000
0100
1000
0101
0010
1001
0000
,
1001
0010
0001
0100
1001
0100
1000
0010
1001
0010
1000
0100
1010
0100
1001
0000
,
1001
0000
1001
0100
1010
0001
0010
0100
1001
0100
0010
0100
0011
0100
1001
0000
,
1001
0100
1000
0100
1001
0000
1001
0010
0101
0010
0001
1000
0101
1000
0010
0100
,
1001
1010
0101
0110
1100
1001
0101
1010
,
0101
1100
0011
1100
0110
0011
1100
1001
,
0011
0100
0011
0100
0011
0100
0011
0100
1010
0001
1010
0001
1010
0001
1010
0001
,
1010
0000
0000
0000
0001
0000
0000
0000
0100
0000
0000
0000
0110
1000
0001
0010
,
1001
0100
1000
0010
0101
0010
1100
0001
1100
0010
0001
0010
1001
0100
1000
0100
,
0011
0100
0001
0010
1001
0010
0101
0010
1100
0001
1100
0001
0110
0001
1100
0010
,
0101
0010
0100
1000
0101
0010
1100
0010
1100
0001
0100
0010
0101
0010
1000
0001
,
1010
0100
0010
0100
0011
1000
0001
0010
1100
0010
1000
0100
1010
0001
0110
0001
,
1100
0010
1000
0100
0011
0100
0011
1000
0011
0100
1000
0100
1001
0010
0001
0010
,
1100
0010
1000
0100
1001
0100
0010
0100
0011
1000
0001
1000
0110
1000
0011
0100
,
1010
0100
0010
0001
1010
0100
0011
0100
0011
1000
0010
0100
1010
0100
0001
1000
,
0101
0010
0100
0010
1100
0001
1010
0100
1010
0100
0001
0010
0101
1000
0010
0100
,
0022
0033
0100
0000
0010
0000
0001
0000
1100
0000
0001
0000
0010
0000
0100
0000
1001
0000
0010
0000
0100
0000
0001
0000
2020
3030
0001
0000
0100
0000
0010
0000
,
0202
0303
0010
0000
1000
0000
0010
0000
2200
3300
0010
0000
0001
0000
0100
0000
2020
3030
0100
0000
0001
0000
0100
0000
0022
0033
1000
0000
0001
0000
1000
0000
,
0220
0330
1000
0000
0010
0000
0100
0000
1001
0000
0010
0000
0100
0000
0010
0000
0101
0000
1000
0000
0010
0000
1000
0000
0220
0330
0001
0000
1000
0000
0100
0000
,
0022
0033
0100
0000
1000
0000
0100
0000
0022
0033
0100
0000
0010
0000
0100
0000
2020
3030
0001
0000
0010
0000
1000
0000
0202
0303
0010
0000
0100
0000
0001
0000
,
0220
0330
1000
0000
0010
0000
1000
0000
0101
0000
0010
0000
0100
0000
0010
0000
1001
0000
0100
0000
0001
0000
0100
0000
2020
3030
0001
0000
0100
0000
0010
0000
,
0202
0303
1000
0000
0010
0000
0100
0000
2002
3003
0100
0000
0001
0000
0100
0000
2020
3030
0100
0000
0010
0000
0100
0000
2002
3003
0010
0000
1000
0000
0001
0000
,
0220
0330
1000
0000
0010
0000
1000
0000
0101
0000
0010
0000
0100
0000
0010
0000
1001
0000
0010
0000
0001
0000
1000
0000
0220
0330
0001
0000
0100
0000
0001
0000
,
1010
0000
0100
0000
0011
0000
0100
0000
1000
0000
0010
0000
0101
0000
0010
0000
0100
0000
0010
0000
1100
0000
0000
0000
0010
0100
0010
0100
0010
0100
0010
0100
,
2002
0000
0003
0000
3000
0000
0000
0000
0000
0000
0000
0000
0000
0000
0000
0000
1000
0000
0100
0000
0010
0001
0000
0000
2200
3300
0000
0000
0000
0000
0000
0000
,
2002
3003
0100
0000
1000
0000
0010
0000
1100
0000
0010
0000
1000
0000
0001
0000
1100
0000
0010
0000
0001
0000
0010
0000
1001
0000
0100
0000
1000
0000
0100
0000
,
0022
0033
0100
0000
0001
0000
0010
0000
1100
0000
0010
0000
0100
0000
0010
0000
2200
3300
0001
0000
1000
0000
0001
0000
0110
0000
0001
0000
0100
0000
0010
0000
,
2002
3003
0010
0000
0100
0000
1000
0000
0101
0000
0010
0000
1000
0000
0010
0000
1100
0000
0001
0000
0100
0000
0010
0000
2200
3300
0010
0000
2200
3300
0001
0000
,
2020
3030
0100
0000
0010
0000
0100
0000
0021
0030
1000
0000
0001
0000
0010
0000
0202
0303
0010
0000
1000
0000
0100
0000
2020
3030
0001
0000
0100
0000
0001
0000
,
2200
3300
0010
0000
1000
0000
0100
0000
0011
0000
0100
0000
0001
0000
1000
0000
0022
0033
0100
0000
1000
0000
0100
0000
1001
0000
0010
0000
0001
0000
0010
0000
,
2200
3300
0010
0000
1000
0000
0100
0000
0011
0000
0100
0000
0010
0000
0100
0000
0011
0000
1000
0000
0001
0000
1000
0000
0110
0000
1000
0000
0010
0000
0100
0000
,
2020
3030
0100
0000
0010
0000
0001
0000
1010
0000
0100
0000
0001
0000
0100
0000
0022
0033
1000
0000
0010
0000
0100
0000
1010
0000
0100
0000
0001
0000
1000
0000
,
0202
0303
0010
0000
0100
0000
0010
0000
1100
0000
0001
0000
1000
0000
0100
0000
2020
3030
0100
0000
0001
0000
0010
0000
0101
0000
1000
0000
0010
0000
1000
0000
,
0101
0010
0001
0100
1010
0100
0001
1000
0011
0100
1000
0100
1001
0010
0001
0010
,
1001
0010
1000
0100
0011
0100
0010
0100
0011
1000
0001
1000
0011
1000
0010
0100
,
1010
0100
0010
0001
1010
0100
0001
0100
0011
1000
0010
0100
1010
0100
0001
1000
,
0101
0010
0100
0010
1100
0001
1000
0100
1010
0100
0001
0010
0101
1000
0010
1000
,
0011
0100
0001
0010
0101
0010
1000
0001
1100
0010
0001
0010
1001
0100
1000
0100
,
0011
0100
0001
0010
1100
0010
0100
0010
1100
0001
1000
0001
1100
0001
0100
0010
,
1001
0010
0100
1000
0101
0010
1000
0010
1100
0001
0100
0010
0101
0010
1000
0001
,
1010
0100
0011
0100
0011
1000
0101
0010
1100
0010
1001
0100
1001
0010
0100
0010
,
1001
0100
1000
0010
0001
0010
1000
0100
1000
0010
0001
0010
1000
0100
1000
0010
0001
0010
1000
0100
1000
0010
0001
0010
,
0100
0000
0000
0000
1000
0100
0010
0000
0000
0000
1000
0100
0010
0000
0000
0000
1000
0100
0010
0000
0000
0000
1000
0100
0010
0000
0000
0000
1000
0100
0010
0000
,
0001
1000
0000
0000
0001
1000
0000
0000
0001
1000
0000
0000
0001
1000
0000
0000
0001
1000
0000
0000
0001
1000
0000
0000
0001
1000
0000
0000
0001
1000
0000
0000
,
0000
0000
0000
0000
0001
0010
0100
1000
0000
0000
0001
0010
0100
1000
0000
0000
0001
0010
0100
1000
0000
0000
0001
0010
0100
1000
0000
0000
0001
0010
0100
0000
,
1000
0001
1000
0001
1000
0001
1000
0001
,
1000
0100
0010
0001
0010
0100
1000
0001
0010
0100
1000
0100
0010
0001
1000
0100
0010
0001
0010
0100
1000
0100
0010
0001
,
0010
1000
0001
1000
0001
1000
0001
1000
0001
1000
0001
1000
,
0001
1000
0100
0010
0001
1000
0100
0010
0001
1000
0100
0010
0001
1000
0100
0010
0001
1000
0100
0010
0001
1000
0100
0010
,
1001
0100
0010
0100
0011
1000
0001
1000
0110
1000
0010
1000
0101
0010
0100
0010
,
1001
0100
1000
0010
0101
0010
0100
0001
1100
0001
0110
0001
1110
0001
0110
1000
,
0111
1000
0100
1000
0011
0100
0010
0100
1010
0001
1000
0001
0110
0001
1000
0100
,
1011
0100
0010
0100
1011
0100
0010
0001
1110
0001
1000
0010
0101
0010
1101
0010
,
1101
0010
0101
0010
0100
0010
1100
0001
0100
0010
1101
0010
1000
0100
1011
0100
,
1011
0100
0010
0100
0011
1000
0100
1000
0011
0100
0010
0100
1010
0100
1011
0100
,
1011
0100
1000
0100
0011
0100
1011
0100
1011
0100
0010
0001
1100
0010
1101
0010
,
1101
0010
1101
0010
1101
0010
1101
0000
0101
1010
0101
1010
0101
1010
0101
1010
,
0101
0000
1000
0000
0010
0000
0100
0000
0021
0030
0100
0000
0010
0000
0100
0000
1020
0030
0001
0000
0010
0000
0001
0000
0120
0030
1000
0000
0010
0000
1000
0000
,
0102
0003
0010
0000
0100
0000
0010
0000
2001
3000
0100
0000
0001
0000
0100
0000
1020
0030
0001
0000
0010
0000
0001
0000
2100
3000
0010
0000
0100
0000
1000
0000
,
0012
0003
0100
0000
0001
0000
1000
0000
0120
0030
1000
0000
0010
0000
0100
0000
2001
3000
0010
0000
1000
0000
0010
0000
0102
0003
0010
0000
1000
0000
0001
0000
,
0120
0030
1000
0000
0100
0000
1000
0000
0012
0003
0100
0000
0010
0000
0001
0000
2100
3000
0010
0000
0001
0000
1000
0000
0001
0000
0010
0000
0100
1000
0000
0000
,
0110
0000
1000
0000
0100
0000
1000
0000
0011
0000
0100
0000
0010
0000
0001
0000
2100
3000
0010
0000
0001
0000
0100
0000
1010
0000
0100
0000
0010
0000
0100
0000
,
1002
0003
0010
0000
0100
0000
0001
0000
0210
0300
1000
0000
0100
0000
1000
0000
0021
0030
0100
0000
0010
0000
0100
0000
2001
3000
0010
0000
1000
0000
0010
0000
,
0102
0003
1000
0000
0100
0000
1000
0000
0021
0030
0100
0000
0001
0000
0010
0000
2100
3000
0001
0000
1000
0000
0001
0000
0210
0300
0001
0000
1000
0000
0100
0000
,
0012
0003
1000
0000
0001
0000
1000
0000
0120
0030
1000
0000
0001
0000
0010
0000
1200
0300
0010
0000
0001
0000
1000
0000
0102
0003
0010
0000
1100
0000
0010
0000
,
0101
0010
1000
0001
0110
0001
0010
0100
1001
0100
0010
0001
0110
0001
0010
0100
,
0011
0100
0010
1000
0101
1000
0010
0100
0011
0100
1000
0010
1001
0010
1000
0001
,
0110
1000
0010
0100
1001
0100
0001
1000
0110
1000
0001
0100
0011
0100
0001
1000
,
0101
0010
0001
1000
0101
1000
0100
0010
1001
0010
0100
1000
0101
1000
0100
0010
,
2002
3003
0010
0000
0100
0000
1000
0000
0100
0000
0010
0000
0100
0000
0010
0000
0001
0000
0100
0000
0001
0000
0100
0000
0021
0030
0100
0000
1011
0000
0100
0000
,
1011
0000
0100
0000
1000
0000
0100
0000
0021
0030
0100
0000
0001
0000
0010
0000
2100
3000
0001
0000
0010
0000
0100
0000
1020
0030
0100
0000
0010
0000
0001
0000
,
1200
0300
0010
0000
0001
0000
0010
0000
1000
0000
0100
0000
1000
0000
0100
0000
0010
0000
0001
0000
0010
0000
0100
0000
0021
0030
0100
0000
1010
0000
0110
0000
,
0012
0003
0100
0000
0021
0030
0100
0000
1010
0000
0100
0000
1020
0030
0001
0000
0010
0000
0001
0000
1200
0300
0010
0000
0100
0000
0010
0000
0101
0000
0110
0000
,
2100
3000
0000
0000
1100
0000
0000
0000
1100
0000
0000
0000
1100
0000
0000
0000
0011
0000
0000
0000
0011
0000
0000
0000
0011
0000
0000
0000
0011
0000
0000
0000
,
0101
0000
0010
0000
0101
0000
0010
0000
0101
0000
0010
0000
0101
0000
0010
0000
1000
0100
0010
0001
0010
0100
1000
0100
0010
0001
0010
0100
1000
0000
0100
0010
,
0001
1000
0110
1000
0110
0001
1100
0001
1100
0001
1100
0001
1010
0100
0011
0100
,
1001
0010
1001
0010
0101
1000
0101
1000
0201
0000
0000
0000
0000
0000
0000
0000
,
2322
0030
0000
0000
0000
0000
0000
0000
0000
0000
0000
0000
0000
0000
0000
0000
0000
0000
0000
0000
0000
0000
0000
0000
0000
0000
0000
0000
0000
0000
0000
0000
0000
0000
0000
0000
0000
0000
0000
0000
0000
0000
0000
0000
0000
0000
0000
0000
0000
0000
0000
0000
0000
0000
0000
0000
0000
0000
0000
0000
0000
0000
0000
0000
0000
0000
0000
0000
0000
0000
0000
0000
0000
0000
0000
0000
0000
0000
0000
0000
0000
0000
0000
0000
0000
0000
0000
0000
0000
0000
0000
0000
0000
0000
0000
0000
0000
0000
0000
0000
0000
0000
0000
0000
0000
0000
0000
0000
0000
0000
0000
0000
0000
0000
0000
0000
0000
0000
0000
0000
0000
0000
0000
0000
0000
0000
0000
0000
0000
0000
0000
0000
0000
0000
0000
0000
0000
0000
0000
0000
0000
0000
0000
0000
0000
0000
0000
0000
0000
0000
0000
0000
0000
0000
0000
0000
0000
0000
0000
0000
0000
0000
0000
0000
0000
0000
0000
0000
0000
0000
0000
0000
0000
0000
0000
0000
0000
0000
0000
0000
0000
0000
0000
0000
0000
0000
0000
0000
0000
0000
0000
0000
,
0000
0000
0000
0000
,
3003
0000
0000
0000
;

//---------------dance-single - KOMBO Original----------------
#NOTES:
     dance-single:
     KOMBO Original:
     Hard:
     11:
     1.000,1.000,1.000,0.096,0.800,757.000,229.000,11.000,0.000,3.000:
0000
0000
0000
0000
1000
0001
1000
0000
,
1001
1000
1001
0001
1001
1000
1001
0001
,
0110
0100
0110
0010
0110
0100
0110
0010
,
1100
0010
0101
0010
1100
0010
0101
0100
,
1010
0100
0011
0100
1010
0100
0022
0033
,
1001
0001
1001
1000
1001
0001
1001
1000
,
0110
0010
0110
0100
0110
0010
0110
0100
,
0011
0100
1010
0100
0011
0100
1010
0010
,
0202
0303
0000
0000
0010
0000
0000
0000
1100
0000
0000
0000
0010
0000
0000
0000
0202
0303
0000
0000
0010
0000
0000
0000
2200
0000
0000
0000
3300
0000
0000
0000
,
1000
0100
1000
0001
0010
0001
0010
0100
1000
0100
0010
0001
0010
0001
0010
0100
,
0010
0100
1000
0010
1000
0010
1000
0001
0100
0001
1000
0010
1000
0010
1000
0100
,
0010
0100
0010
1000
0001
1000
0001
0100
0010
0100
0001
0100
0010
1000
0010
1000
,
0001
0010
0001
1000
0100
1000
0100
0010
0001
0010
0100
1000
0100
1000
0100
0010
,
0001
0010
0001
0100
1000
0100
1000
0010
0001
0010
1000
0100
1000
0010
0100
0010
,
1000
0100
1000
0001
0010
0001
0010
0100
1000
0100
0010
0001
1000
0001
0010
0100
,
1000
0100
1000
0001
0010
0001
0010
0100
1000
0100
0010
0001
0010
0001
0010
0100
,
1000
0101
0110
1100
,
0101
0011
0110
1100
,
0010
0100
0010
0100
0010
0100
0010
0100
1000
0001
1000
0001
1000
0001
1000
0001
,
1000
0011
0101
0110
,
0011
0100
1100
0010
0101
0100
1001
0100
,
1010
0010
0101
0010
0110
0100
1001
1000
,
0101
0010
1100
0100
0011
0010
0101
0010
,
1100
0001
0011
0100
1010
0100
1010
0110
,
1010
0010
0011
0100
1010
0010
1001
0010
,
0101
0100
1010
0100
0110
0010
1001
0001
,
1010
0100
0011
0010
1100
0100
1010
0100
,
0011
1000
1100
0010
0101
0010
0101
0000
,
1010
0100
0100
1010
,
0110
0101
0011
1001
,
0110
0010
0010
0011
,
0110
1010
1100
1001
,
0101
0100
0100
0110
,
0101
0110
1010
0011
,
1001
0100
0100
1100
,
1010
0000
0101
0000
0000
0000
0101
0000
0000
0000
1010
0000
0000
0000
0100
0010
,
1001
0000
0000
0000
0000
0000
0000
0000
1000
0100
0010
0000
0001
0000
0000
0000
,
1100
0010
0011
1000
0110
0010
0101
0010
,
1001
1000
0110
1000
1010
0010
0101
0001
,
0110
1000
0011
0010
1100
1000
0110
1000
,
0011
0100
1100
0010
1001
0010
1001
1010
,
0011
0100
1100
0010
0101
0100
1001
0100
,
1010
0010
0101
0010
0110
0100
1001
1000
,
0101
0010
1100
0100
0011
0010
0101
0010
,
1100
0001
0011
0100
1010
0100
1010
0110
,
1000
0100
1000
0001
0010
0001
0010
0100
1000
0100
0010
0001
0010
0001
0010
0100
,
0010
0100
1000
0010
1000
0010
1000
0001
0100
0001
1000
0010
1000
0010
1000
0100
,
0010
0100
0010
1000
0001
1000
0001
0100
0010
0100
0001
0100
0010
1000
0010
1000
,
0001
0010
0001
1000
0100
1000
0100
0010
0001
0010
0100
1000
0100
1000
0100
0010
,
0001
0010
0001
0100
1000
0100
1000
0010
0001
0010
1000
0100
1000
0010
0100
0010
,
1000
0100
1000
0001
0010
0001
0010
0100
1000
0100
0010
0001
1000
0001
0010
0100
,
1000
0100
1000
0001
0010
0001
0010
0100
1000
0100
0010
0001
0010
0001
0010
0100
,
1000
0100
0001
0010
0100
1000
0100
0001
,
1100
0011
1010
0101
,
0110
1100
0011
0101
,
1010
0110
0101
1010
,
1100
0000
0101
0000
0011
0000
0101
1100
,
0110
1001
0110
1100
,
0101
0011
1010
0110
,
1001
1100
1010
0101
,
1100
0011
0110
1001
,
1100
0010
0011
1000
0110
0010
0101
0010
,
1001
1000
0110
1000
1010
0010
0101
0001
,
0110
1000
0011
0010
1100
1000
0110
1000
,
0011
0100
1100
0010
1001
0010
1001
1010
,
0011
1100
0000
0110
0000
0011
0000
0110
,
1100
0000
0010
0000
0100
0000
0010
1000
,
1001
1000
0011
0100
1001
0010
1100
0100
,
0110
0000
0000
0001
0000
0000
1010
0000
0000
1000
0000
0000
0001
0010
0100
1000
0100
0010
0001
0010
0100
1000
0100
0010
,
0001
0000
1100
0100
0101
0000
0011
0000
,
1010
0101
0110
1100
,
0011
0110
1010
1100
,
0110
0000
0000
0000
0101
0000
0000
0000
1010
0000
0000
0000
0001
0000
0010
0100
,
1000
0011
1100
1010
,
1001
1000
0001
0010
,
1000
0000
0011
0000
1100
0000
0110
0010
,
0011
0010
0110
0100
1100
0000
0110
1100
,
1000
0100
1000
0001
0010
0001
0010
0100
1000
0100
0010
0001
0010
0001
0010
0100
,
0010
0100
0010
1000
0001
1000
0010
0100
0010
0100
1000
0010
1000
0010
1000
0001
,
0010
1000
0010
0100
0001
0100
0001
1000
0010
1000
0001
0100
0001
0100
0001
1000
,
0001
0010
0001
1000
0100
1000
0100
0010
0001
0010
0100
1000
0100
1000
0100
0010
,
0001
1001
0000
1001
0000
1001
0000
1101
,
1011
0010
1000
0010
,
0100
1001
0100
0100
,
0100
0010
0000
0010
0000
0100
0000
0001
,
0010
0100
0000
0010
0000
0100
0000
0000
,
0100
0010
0100
0010
0100
0010
0001
0010
0001
0010
0001
0010
0100
1000
0100
1000
,
0100
1000
0100
1000
0100
0001
0100
0001
0100
0001
0100
0001
0010
0100
0010
0100
,
0001
0010
0001
0010
0100
1000
0100
1000
0200
0000
0000
0000
0000
0000
0000
0000
,
2302
0000
0000
0000
,
0000
0000
0000
0000
,
3003
0000
0000
0000
;

//---------------dance-single - Kombo Steps----------------
#NOTES:
     dance-single:
     Kombo Steps:
     Challenge:
     16:
     1.000,1.000,1.000,1.000,1.000,1042.000,310.000,127.000,0.000,48.000:
0000
0000
0000
0000
0000
0000
0000
0000
0000
0000
0000
0000
0000
0000
0100
0000
1000
0000
0000
0000
0001
0000
0000
0100
1000
0000
0000
0000
0000
0000
0000
0000
,
1011
1000
1001
0001
1001
1100
0101
1001
,
0110
0100
0110
1100
0110
0101
0110
0011
,
1100
0010
0100
0110
1100
0011
0101
0110
,
1010
0100
0011
0100
1010
0100
0022
0033
,
1101
0001
1001
1000
1001
0001
1001
1000
,
0110
0010
0110
0100
0110
0010
0110
0100
,
0011
0100
1010
0100
0011
0100
1010
0010
,
2202
3303
0000
0000
0010
0000
0000
0000
1100
0000
0000
0000
0010
0000
0000
0000
2202
3303
0000
0000
0010
0000
0000
0000
2200
0000
0000
0000
3300
0000
0000
0000
,
1000
0100
1000
0001
0010
0001
0010
0100
1000
0100
0010
0001
0010
0001
0010
0100
,
0010
0100
1000
0010
1000
0010
1000
0001
0110
1001
0110
0000
1001
0000
1001
0000
,
1001
0010
0100
0010
0001
1000
0001
0100
0010
0100
0001
0100
0010
0100
1001
0000
,
1001
0010
0100
0010
0100
0010
0100
1000
0001
1000
0100
1000
0100
0010
1001
0000
,
1001
0010
0001
0100
1000
0100
1000
0010
0001
0010
1000
0100
1000
0100
1001
0000
,
1001
0000
1001
0100
0010
0001
0010
0100
1000
0100
0010
0100
0010
0100
1001
0000
,
1001
0100
1000
0100
1001
0000
1001
0010
0001
0010
0001
1000
0100
1000
0010
0100
,
1001
1010
0101
0110
1100
1001
0101
1010
,
0101
1100
0011
1100
0110
0011
1100
1001
,
0011
0100
0011
0100
0011
0100
0011
0100
1010
0001
1010
0001
1010
0001
1010
0001
,
1010
0100
0000
0000
0000
0000
0000
0000
0000
0000
0000
0000
0000
0000
0000
0000
0011
0100
0000
0000
0000
0000
0000
0000
0000
0000
0000
0000
0000
0000
0000
0000
0101
1000
0000
0000
0000
0000
0000
0000
0000
0000
0000
0000
0000
0000
0000
0000
0110
0001
0000
0000
1000
0000
0000
0000
0001
0000
0000
0000
0010
0000
0000
0000
,
1001
0100
1000
0010
0101
0010
1000
0001
1100
0010
0001
0010
1001
0100
1000
0100
,
0011
0100
0001
0010
1001
0010
0100
0010
1100
0001
1000
0001
0110
0001
0100
0010
,
0101
0010
0100
1000
0101
0010
1000
0010
1100
0001
0100
0010
0101
0010
1000
0001
,
1010
0100
0010
0100
0011
1000
0001
0010
1100
0010
1000
0100
1010
0001
0110
0001
,
1100
0010
1000
0100
0011
0100
0001
1000
0011
0100
1000
0100
1001
0010
0001
0010
,
1100
0010
1000
0100
1001
0100
0010
0100
0011
1000
0001
1000
0110
1000
0010
0100
,
1010
0100
0010
0001
1010
0100
0001
0100
0011
1000
0010
0100
1010
0100
0001
1000
,
0101
0010
0100
0010
1100
0001
1010
0100
1010
0100
0001
0010
0101
1000
0010
0100
,
0022
1000
0033
0000
0000
0000
0000
0000
0000
0000
0000
0000
0000
0000
0000
0000
0101
0000
0000
0000
0000
0000
0000
0000
0000
0000
0000
0000
0000
0000
0000
0000
1001
0000
0000
0000
0000
0000
0000
0000
0000
0000
0000
0000
0000
0000
0000
0000
2020
0001
3030
0000
0000
0000
0000
0000
0000
0000
0000
0000
0000
0000
0000
0000
,
0202
0010
0303
0000
0000
0000
0000
0000
0000
0000
0000
0000
0000
0000
0000
0000
2200
0001
3300
0000
0000
0000
0000
0000
0000
0000
0000
0000
0000
0000
0000
0000
2020
0100
3030
0000
0000
0000
0000
0000
0000
0000
0000
0000
0000
0000
0000
0000
0022
1000
0033
0000
0000
0000
0000
0000
0000
0000
0000
0000
0000
0000
0000
0000
,
0220
0001
0330
0000
0000
0000
0000
0000
0000
0000
0000
0000
0000
0000
0000
0000
0101
0000
0000
0000
0000
0000
0000
0000
0000
0000
0000
0000
0000
0000
0000
0000
1001
0000
0000
0000
0000
0000
0000
0000
0000
0000
0000
0000
0000
0000
0000
0000
0220
1000
0330
0000
0000
0000
0000
0000
0000
0000
0000
0000
0000
0000
0000
0000
,
2020
0001
3030
0000
0000
0000
0000
0000
0000
0000
0000
0000
0000
0000
0000
0000
0022
0100
0033
0000
0000
0000
0000
0000
0000
0000
0000
0000
0000
0000
0000
0000
2020
0001
3030
0000
0000
0000
0000
0000
0000
0000
0000
0000
0000
0000
0000
0000
0202
0010
0303
0000
0000
0000
0000
0000
0000
0000
0000
0000
0000
0000
0000
0000
,
0220
1000
0330
0000
0000
0000
0000
0000
0000
0000
0000
0000
0000
0000
0000
0000
0101
0000
0000
0000
0000
0000
0000
0000
0000
0000
0000
0000
0000
0000
0000
0000
1001
0000
0000
0000
0000
0000
0000
0000
0000
0000
0000
0000
0000
0000
0000
0000
2020
0100
3030
0000
0000
0000
0000
0000
0000
0000
0000
0000
0000
0000
0000
0000
,
0202
0010
0303
0000
0000
0000
0000
0000
0000
0000
0000
0000
0000
0000
0000
0000
2002
0100
3003
0000
0000
0000
0000
0000
0000
0000
0000
0000
0000
0000
0000
0000
2020
0001
3030
0000
0000
0000
0000
0000
0000
0000
0000
0000
0000
0000
0000
0000
0202
0010
0303
0000
0000
0000
0000
0000
0000
0000
0000
0000
0000
0000
0000
0000
,
0220
1000
0330
0000
0000
0000
0000
0000
0000
0000
0000
0000
0000
0000
0000
0000
0101
0000
0000
0000
0000
0000
0000
0000
0000
0000
0000
0000
0000
0000
0000
0000
1001
0000
0000
0000
0000
0000
0000
0000
0000
0000
0000
0000
0000
0000
0000
0000
0220
0001
0330
0000
0000
0000
0000
0000
0000
0000
0000
0000
0000
0000
0000
0000
,
1010
0000
0101
0000
0000
0000
0101
0000
0000
0000
1010
0000
0000
0000
0100
0010
,
1001
0000
0000
0000
0000
0000
0000
0000
0000
0000
0000
0000
0000
0000
0000
0000
1000
0000
0100
0000
0010
0000
0000
0010
0001
0000
0000
0000
0000
0000
0000
0000
,
2002
3003
0100
0000
1000
0000
0010
0000
0100
0000
0010
0000
1000
0000
0001
0000
1000
0000
0010
0000
0001
0000
0010
0000
1000
0000
0100
0000
1000
0000
0100
0000
,
0022
0033
0100
0000
0001
0000
0010
0000
1000
0000
0010
0000
0100
0000
0010
0000
2200
3300
0001
0000
1000
0000
0001
0000
0100
0000
0001
0000
0100
0000
0010
0000
,
2002
3003
0010
0000
0100
0000
1000
0000
0100
0000
0010
0000
1000
0000
0010
0000
0100
0000
0001
0000
0100
0000
0010
0000
2200
3300
0010
0000
2200
3300
0001
0000
,
2020
3030
0100
0000
0010
0000
0100
0000
0021
0030
1000
0000
0001
0000
0010
0000
0202
0303
0010
0000
1000
0000
0100
0000
2020
3030
0001
0000
0100
0000
0001
0000
,
2200
3300
0010
0000
1000
0000
0100
0000
0010
0000
0100
0000
0001
0000
1000
0000
0022
0033
0100
0000
1000
0000
0100
0000
0001
0000
0010
0000
0001
0000
0010
0000
,
2200
3300
0010
0000
1000
0000
0100
0000
0001
0000
0100
0000
0010
0000
0100
0000
0010
0000
1000
0000
0001
0000
1000
0000
0010
0000
1000
0000
0010
0000
0100
0000
,
2020
3030
0100
0000
0010
0000
0001
0000
0010
0000
0100
0000
0001
0000
0100
0000
0022
0033
1000
0000
0010
0000
0100
0000
0010
0000
0100
0000
0001
0000
1000
0000
,
0202
0303
0010
0000
0100
0000
0010
0000
1000
0000
0001
0000
1000
0000
0100
0000
2020
3030
0100
0000
0001
0000
0010
0000
0001
0000
1000
0000
0010
0000
1000
0000
,
0101
0010
0001
0100
0010
0100
0001
1000
0001
0100
1000
0100
1001
0010
0001
0010
,
1001
0010
1000
0100
0011
0100
0010
0100
0011
1000
0001
1000
0011
1000
0010
0100
,
1010
0100
0010
0001
0010
0100
0001
0100
0010
1000
0010
0100
1010
0100
0001
1000
,
0101
0010
0100
0010
1100
0001
1000
0100
1010
0100
0001
0010
0101
1000
0010
1000
,
0011
0100
0001
0010
0100
0010
1000
0001
1000
0010
0001
0010
1001
0100
1000
0100
,
0011
0100
0001
0010
1100
0010
0100
0010
1100
0001
1000
0001
1100
0001
0100
0010
,
1001
0010
0100
1000
0100
0010
1000
0010
0100
0001
0100
0010
0101
0010
1000
0001
,
1010
0100
0011
0100
0001
1000
0101
0010
0100
0010
1001
0100
1000
0010
0100
0010
,
0001
0010
0100
1000
0001
0010
0100
1000
0001
0010
0100
1000
0001
0010
0100
1000
,
0000
0000
0000
0000
0001
0010
0100
0000
0000
0000
0001
0010
0100
0000
0000
0000
0001
0010
0100
0000
0000
0000
0001
0010
0100
0000
0000
0000
0001
0010
0100
0000
,
0001
1000
0000
0000
0001
1000
0000
0000
0001
1000
0000
0000
0001
1000
0000
0000
0001
1000
0000
0000
0001
1000
0000
0000
0001
1000
0000
0000
0001
1000
0000
0000
,
0000
0000
0000
0000
0001
0010
0100
0000
0000
0000
0001
0010
0100
0000
0000
0000
0001
0010
0100
0000
0000
0000
0001
0010
0100
0000
0000
0000
0001
0010
0100
0000
,
1000
0001
1000
0001
1000
0001
1000
0001
,
1000
0100
0010
0001
0010
0100
1000
0001
0010
0100
1000
0100
0010
0001
1000
0100
0010
0001
0010
0100
1000
0100
0010
0001
,
0010
1000
0001
1000
0001
1000
0001
1000
0001
1000
0001
1000
,
0001
1000
0100
0010
0001
1000
0100
0010
0001
1000
0100
0010
0001
1000
0100
0010
0001
1000
0100
0010
0001
1000
0100
0010
,
1101
0010
0011
1000
0110
0010
0101
0010
,
1001
1000
0110
1000
1110
0010
0111
1110
,
0101
1000
0011
0010
1100
1000
0110
1000
,
0111
0010
1110
0100
1101
0000
0101
1011
,
1101
0110
0000
1100
0000
1011
0000
0111
,
1110
0000
0010
0000
0100
0000
0010
1110
,
1011
1000
0011
1011
1101
0010
1100
0111
,
1110
0000
0000
1101
0000
0000
0111
0000
0000
1110
0000
0000
0001
1000
0001
1000
0001
1000
0001
1000
0001
1000
0001
1000
,
0001
0000
0000
0000
0000
0000
0000
0000
0021
0030
0000
0000
0010
0000
0000
0000
1200
0300
0000
0000
0000
0000
0000
0000
0120
0030
0000
0000
0000
0000
0000
0000
,
0102
0003
0000
0000
0000
0000
0000
0000
0021
0030
0000
0000
0000
0000
0000
0000
1020
0030
0000
0000
0000
0000
0000
0000
2100
3000
0000
0000
0000
0000
0000
0000
,
0012
0003
0000
0000
0000
0000
0000
0000
0120
0030
0000
0000
0000
0000
0000
0000
2001
3000
0000
0000
0000
0000
0000
0000
0102
0003
0000
0000
0000
0000
0000
0000
,
0120
0030
0000
0000
0000
0000
0000
0000
0012
0003
0000
0000
0000
0000
0000
0000
2100
3000
0000
0000
0000
0000
0000
0000
0010
0000
0000
0000
0001
0000
0010
0100
,
1000
0000
0000
0000
0000
0000
0000
0000
0011
0000
0000
0000
0000
0000
0000
0000
2100
3000
0000
0000
0000
0000
0000
0000
1010
0000
0000
0000
0000
0000
0000
0000
,
1002
0003
0000
0000
0000
0000
0000
0000
0210
0300
0000
0000
0000
0000
0000
0000
0021
0030
0000
0000
0000
0000
0000
0000
2001
3000
0000
0000
0000
0000
0000
0000
,
0102
0003
0000
0000
0000
0000
0000
0000
0021
0030
0000
0000
0000
0000
0000
0000
2100
3000
0000
0000
0000
0000
0000
0000
0210
0300
0000
0000
0000
0000
0000
0000
,
0012
0003
0000
0000
0000
0000
0000
0000
0120
0030
0000
0000
0000
0000
0000
0000
1200
0300
0000
0000
0000
0000
0000
0000
0120
0030
0000
0000
0000
0000
0000
0000
,
1010
0100
1000
0001
0110
0001
0010
0100
1001
0100
0010
0001
0110
0001
0010
0100
,
0011
0100
0010
1000
0101
1000
0010
0100
0011
0100
1000
0010
1001
0010
1000
0001
,
0110
1000
0010
0100
1001
0100
0001
1000
0110
1000
0001
0100
0011
0100
0001
1000
,
0101
0010
0001
1000
0101
1000
0100
0010
1001
0010
0100
1000
0101
1000
0100
0010
,
2002
0000
3003
0000
0000
0000
0000
0000
1001
0000
0000
0000
0000
0000
0000
0000
0000
0000
0000
0000
0000
0000
0000
0000
1001
0000
0000
0000
0000
0000
0000
0000
0000
0000
0000
0000
0000
0000
0000
0000
1001
0000
0000
0000
0000
0000
0000
0000
0020
0100
0030
0000
0000
0000
0000
0000
1101
0000
0000
0000
0000
0000
0000
0000
,
1011
0000
0000
0000
0000
0000
0000
0000
0000
0000
0000
0000
0000
0000
0000
0000
0020
0100
0030
0000
0000
0000
0000
0000
0000
0000
0000
0000
0000
0000
0000
0000
2000
0100
3000
0000
0000
0000
0000
0000
0000
0000
0000
0000
0000
0000
0000
0000
0020
0001
0030
0000
0000
0000
0000
0000
0000
0000
0000
0000
0000
0000
0000
0000
,
0200
1000
0300
0000
0000
0000
0000
0000
0000
0000
0000
0000
0000
0000
0000
0000
0110
0000
0000
0000
0000
0000
0000
0000
0000
0000
0000
0000
0000
0000
0000
0000
1010
0000
0000
0000
0000
0000
0000
0000
0000
0000
0000
0000
0000
0000
0000
0000
0020
0001
0030
0000
0000
0000
0000
0000
0110
0000
0000
0000
0110
0000
0000
0000
,
0210
1000
0300
0000
0000
0000
0000
0000
0020
0001
0030
0000
0000
0000
0000
0000
0000
0000
0000
0000
0000
0000
0000
0000
0020
0100
0030
0000
0000
0000
0000
0000
0000
0000
0000
0000
0000
0000
0000
0000
0200
0010
0300
0000
0000
0000
0000
0000
0000
0000
0000
0000
0000
0000
0000
0000
0011
0000
0000
0000
0011
0000
0000
0000
,
0021
0100
0030
0000
0000
0000
0000
0000
1100
0000
0000
0000
0000
0000
0000
0000
0110
0000
0000
0000
0000
0000
0000
0000
1010
0000
0000
0000
0000
0000
0000
0000
0101
0000
0000
0000
0000
0000
0000
0000
0110
0000
0000
0000
0000
0000
0000
0000
1001
0000
0000
0000
0000
0000
0000
0000
0011
0000
0000
0000
0000
0000
0000
0000
,
0101
0000
0010
0000
0101
0000
0010
0000
0101
0000
0010
0000
0101
0000
0010
0000
1000
0100
0010
0001
0010
0100
1000
0100
0010
0001
0010
0100
1000
0000
0100
0010
,
0001
1000
0110
1000
0110
0001
1100
0001
1100
0001
1100
0001
1010
0100
0011
0100
,
1001
0010
1001
0010
0101
1000
0101
1000
0201
0000
0000
0000
0000
0000
0000
0000
,
2322
0030
0000
0000
0000
0000
0000
0000
0000
0000
0000
0000
0000
0000
0000
0000
0000
0000
0000
0000
0000
0000
0000
0000
0000
0000
0000
0000
0000
0000
0000
0000
0000
0000
0000
0000
0000
0000
0000
0000
0000
0000
0000
0000
0000
0000
0000
0000
0000
0000
0000
0000
0000
0000
0000
0000
0000
0000
0000
0000
0000
0000
0000
0000
0000
0000
0000
0000
0000
0000
0000
0000
0000
0000
0000
0000
0000
0000
0000
0000
0000
0000
0000
0000
0000
0000
0000
0000
0000
0000
0000
0000
0000
0000
0000
0000
0000
0000
0000
0000
0000
0000
0000
0000
0000
0000
0000
0000
0000
0000
0000
0000
0000
0000
0000
0000
0000
0000
0000
0000
0000
0000
0000
0000
0000
0000
0000
0000
0000
0000
0000
0000
0000
0000
0000
0000
0000
0000
0000
0000
0000
0000
0000
0000
0000
0000
0000
0000
0000
0000
0000
0000
0000
0000
0000
0000
0000
0000
0000
0000
0000
0000
0000
0000
0000
0000
0000
0000
0000
0000
0000
0000
0000
0000
0000
0000
0000
0000
0000
0000
0000
0000
0000
0000
0000
0000
0000
0000
0000
0000
0000
0000
,
0000
0000
0000
0000
,
3003
0000
0000
0000
;
