#TITLE:Chop Hand Knife;
#SUBTITLE:;
#ARTIST:m1dy;
#TITLETRANSLIT:;
#SUBTITLETRANSLIT:;
#ARTISTTRANSLIT:;
#CREDIT:;
#BANNER:Chop Hand Knife-BN.png;
#BACKGROUND:Chop Hand Knife.png;
#LYRICSPATH:;
#CDTITLE:!CJMasterTitle.png;
#MUSIC:16 - c-type - chophandknife.mp3;
#OFFSET:-1.607;
#SAMPLESTART:94.340;
#SAMPLELENGTH:11.980;
#SELECTABLE:YES;
#BPMS:0.000=117.050,30.000=234.100;
#STOPS:;
#BGCHANGES:;
// cache tags:
#FIRSTBEAT:0.000;
#LASTBEAT:480.000;
#SONGFILENAME:Songs/new again/(CJMaster)chop hand knife/Chop Hand Knife.sm;
#HASMUSIC:1;
#HASBANNER:1;
#MUSICLENGTH:135.790;
// end cache tags

//---------------dance-single - Blank----------------
#NOTES:
     dance-single:
     Blank:
     Hard:
     11:
     1.000,1.000,1.000,0.317,0.276,829.000,227.000,43.000,0.000,0.000:

1000
0011
1000
0011
0000
0011
1010
0000
0011
1100
0000
0001
0110
0000
1001
0000
,
0011
1000
0110
0001
1100
1000
0110
0001
1100
0000
0110
0000
0000
0000
0000
0000
,
1000
0011
1000
0011
0000
0001
1000
0000
0011
0000
1100
0000
0110
0000
1000
0000
,
1000
1000
0010
0010
0100
0100
0001
1000
1001
0000
0110
0000
1100
0000
0001
0000
,
1000
0010
0001
1000
0100
0001
1000
0110
0001
1000
0000
0001
1000
0000
0011
0000
,
0101
1100
0101
1010
1100
0011
0001
0010
1001
0000
0110
0000
0011
0000
1000
0000
,
0001
0001
0100
0100
1000
1000
0010
1000
0010
1001
0000
0100
0001
0000
1010
0000
,
0110
0000
0110
0000
1001
0000
1001
0000
0110
0000
0110
0000
1000
0100
0010
0001
1001
0000
0000
0000
0000
0000
0000
0000
1100
0000
0000
0000
0000
0000
0000
0000
,
0011
0000
0001
1000
1001
1001
0101
0010
,
1000
0001
0100
0010
1000
0001
0000
1000
,
0001
0000
0000
0001
1000
0010
0100
1000
,
0001
0100
0010
0010
1001
0000
0011
0000
,
1001
0000
0000
0001
1100
0010
0001
1100
,
0010
0010
0001
1000
0100
0001
0100
0010
,
1000
0000
0100
0000
0010
0000
1000
0000
0001
0000
0000
0000
0000
0001
0100
0010
,
1000
0000
0000
0001
0010
0100
1000
0001
0010
0000
0000
0000
0110
0000
0000
0000
,
0011
0000
0000
0001
1000
1000
0100
0100
,
1000
0010
1000
0100
0001
1001
0000
0001
,
1000
0000
0000
0001
1100
0011
0011
1001
,
1001
0110
0110
1100
0011
0000
1100
0000
,
0011
0000
0000
0001
1000
0001
1000
1000
,
0010
0100
0001
0001
0100
0100
0010
0010
,
0100
0000
0100
0000
0010
0000
0010
0000
1000
0000
0000
0000
0000
1000
0001
0100
,
0010
0000
0000
0000
1000
0100
0010
0001
1000
0000
0001
0000
1000
0000
0001
0000
,
1000
0001
1000
0001
0100
0010
0100
0010
,
0100
0010
0100
0010
1000
0100
1000
0100
,
1000
0100
1000
0100
1000
0010
1000
0010
,
1000
0010
1000
0010
1000
0100
1000
0100
,
1000
0100
1000
0100
0010
0100
0010
0100
,
0010
0100
0010
0100
0010
0001
0010
0001
,
0010
0001
0010
0001
0100
0010
1000
0010
,
1000
0000
0010
0000
0001
0010
0100
1000
0001
0000
1000
0000
0001
0000
1000
0000
,
0001
1000
0001
1000
0100
0010
0100
0010
,
0100
0010
0100
0010
0001
0100
0001
0100
,
0001
0100
0001
0100
0001
0010
1000
0010
,
1000
0010
1000
0010
1000
0010
0001
0010
,
0001
0010
0001
0010
0100
1000
0100
1000
,
0100
1000
0100
1000
0100
0010
0100
0010
,
0100
0010
0100
0010
0001
1000
0001
1000
,
0001
0000
1000
0000
0001
0010
0100
1000
0001
0000
0000
0000
0110
0000
0000
0000
,
0011
0000
0101
0000
0110
0001
1100
0010
,
1100
0001
1001
0010
0101
0010
0000
1000
,
1010
0000
0011
0000
1001
1000
0101
0010
,
1010
0100
0011
1000
0110
0000
0011
0000
,
0110
0000
0101
0010
1001
0001
0011
1000
,
0110
1000
0110
1000
0011
0001
1100
1000
,
0011
0000
0001
0000
0110
0000
1000
0000
0101
0000
0000
0000
0000
0001
1000
0100
,
0010
0000
0000
0010
0001
1000
0100
0010
1001
0000
0000
0000
1001
0000
0000
0000
,
0110
0000
1010
0001
1001
0010
0101
1000
,
1010
0100
0011
0100
1010
0101
0000
0110
,
0011
0000
0110
0000
1100
0001
1100
0001
,
1100
0010
0101
0010
0101
0000
0101
0000
,
1010
0000
0010
0001
1100
1100
1100
1100
,
0011
1100
0001
0010
0001
1000
0001
1000
,
0100
0000
0100
0000
0010
0000
0001
0000
1000
0000
0000
0100
0010
0001
1000
0100
,
0000
0000
0000
0100
0010
0100
0010
0001
0200
0000
0000
0000
1000
0000
0001
0000
,
0000
1000
0001
0000
0001
1000
0001
0001
,
1000
0000
0000
0000
0010
0000
0000
0300
1002
0000
0000
0000
0010
0000
0100
0000
,
0000
0010
1000
0000
1000
0010
0100
1000
,
0010
0000
0000
0000
0010
0000
0000
0003
2000
0000
0000
0000
0001
0000
0010
0000
,
0000
0001
0100
0000
0001
0010
0001
0010
,
0010
0000
0001
3000
2000
0000
0100
0001
,
0000
0001
0100
0000
0001
0100
0010
0001
,
0100
0000
0000
0000
0001
3000
0000
0000
0002
0000
0000
0000
1000
0000
0010
0000
,
0000
0010
1000
0000
1000
0100
1000
0100
,
1000
0000
0000
0000
1000
0000
0000
0003
2000
0000
0000
0000
0010
0000
0001
0000
,
0000
0001
0100
0000
0001
0100
0010
0001
,
0010
0000
0000
0000
0001
3000
0000
0000
0002
0000
0000
0000
1000
0000
0100
0000
,
0000
0010
1000
0000
0010
0100
0100
0010
,
1000
0000
0000
0000
1000
0003
0000
0000
0200
0000
0000
0000
0001
0000
0010
0000
,
0000
0010
0001
0000
0001
0010
0001
0010
,
0010
0000
0000
0000
1000
0000
0000
0300
1001
0000
0000
0000
0110
0000
0000
0000
,
0011
0001
0100
0011
1100
0000
0110
0011
,
1000
0011
1100
0000
0110
0000
0011
0000
,
0001
0000
1000
0000
0000
0000
0001
0000
2000
0000
0000
3000
0010
0000
1000
0000
,
0001
0000
0000
0000
0110
0000
0000
0000
1002
0000
0000
0003
2001
0000
0000
3000
,
0001
0000
1000
0000
0000
0000
0001
0000
2000
0000
0000
3000
0001
0000
0100
0000
,
0000
0000
0100
0000
0010
0000
0010
0000
0201
0000
0000
0300
0001
0000
1000
0000
,
0000
1000
0001
0100
2002
3003
0010
0100
,
0010
0000
0000
0000
1100
0000
0000
0000
0022
0033
0000
0000
0022
0033
0000
0000
,
1000
0000
0011
0000
0000
0000
0001
0000
2200
3300
0000
0000
1000
0000
0010
0000
,
0000
0001
1000
0100
2002
3003
0022
0033
,
1000
0100
0000
0001
2000
3200
0320
0032
,
0203
0000
0000
0300
0010
0000
0000
0000
0220
0330
0000
0000
0220
0330
0000
0000
,
1000
0000
0100
0000
0000
0000
0010
0000
0202
0303
0000
0000
1000
0000
0100
0000
,
0000
0001
1000
0100
0020
0030
2000
3010
,
0000
0000
0000
0001
0000
0000
1000
0000
0000
0100
0000
0000
0010
0000
0000
0000
0000
0000
1000
0000
0010
0000
0100
0000
,
0001
0000
1000
0100
0000
0000
0010
0000
1001
0000
0000
0000
0110
0000
0000
0000
,
0011
0000
0001
0010
1000
1010
0001
0110
,
1000
0101
1010
0100
1001
0110
0000
0011
,
1100
0000
1000
0001
1100
0001
0110
0010
,
1100
0010
1001
0100
0110
0000
0110
0000
,
0011
0000
0001
1000
0010
1001
0010
1010
,
0010
1000
0001
0100
0001
1000
0100
0001
,
0100
0000
0010
0000
1000
0000
0100
0000
0020
0000
0000
0000
0030
1000
0001
1000
,
0100
0000
0000
1000
0100
0010
0001
1000
0110
0000
0000
0000
0011
0000
0000
0000
,
1100
0000
0001
0100
0101
0010
1100
0010
,
0101
0010
1001
0010
0101
1010
0000
0011
,
1100
0000
1000
0001
1100
0001
1100
0010
,
0101
0010
0101
0010
1001
0000
1001
0000
,
0011
0000
0100
0001
1000
0100
1000
0100
,
1000
0020
1030
0010
0001
1000
0101
0100
,
1000
0000
0001
0000
0100
0000
0010
0000
1001
0000
0000
0000
0000
0001
0100
0010
,
0100
0000
0000
0010
1000
0001
1000
0100
0010
0000
0000
0000
0011
0000
0000
0000
,
1000
1000
1000
1000
,
1000
0000
1000
0000
0001
1010
0000
0100
,
1010
0000
1000
0000
1000
0001
1100
0010
,
0001
1000
0100
0010
0001
0000
2001
0000
,
3001
0001
0001
0001
,
0001
0000
0001
0000
0001
1000
0000
0001
,
0100
0000
1001
0000
1100
1100
1100
0011
,
0011
0011
0011
1001
0110
0000
1002
0000
,
1003
1000
1000
1000
,
1000
0000
1000
0000
1100
0001
0000
0001
,
1100
0000
1001
0000
0110
0101
0110
0101
,
0011
1100
0110
0011
1100
0000
2001
0000
,
3001
0001
0001
0001
,
0001
0000
0001
0000
0001
0100
0000
0001
,
1000
0000
1001
0000
1001
0110
1001
0110
,
1001
0110
0110
0110
0011
0000
1100
0000
,
0011
0000
0000
0000
;
