#TITLE:Koi no Mahou;
#SUBTITLE:- Maburaho Opening;
#ARTIST:Ichiko;
#TITLETRANSLIT:;
#SUBTITLETRANSLIT:;
#ARTISTTRANSLIT:;
#CREDIT:Jubo;
#BANNER:Maburaho OP Banner.png;
#BACKGROUND:Maburaho-BG1.jpg;
#LYRICSPATH:Maburaho-OP-Lyrics.lrc;
#CDTITLE:Jubo.png;
#MUSIC:Koi no mahou-TV edit.mp3;
#OFFSET:1.380;
#SAMPLESTART:56.464;
#SAMPLELENGTH:30.000;
#SELECTABLE:YES;
#BPMS:0.000=152.000;
#STOPS:;
#BGCHANGES:3.000=Maburaho OP Video (320x240).avi=1.000=1=0=0,
228.000=Maburaho-BG2.jpg=1.000=1=0=0,
99999=-nosongbg-=1.000=0=0=0 // don't automatically add -songbackground-
;
// cache tags:
#FIRSTBEAT:4.000;
#LASTBEAT:229.542;
#SONGFILENAME:Songs/Otaku's Dream 1st Anime Mix/Jubo - Maburaho OP/Maburaho OP.sm;
#HASMUSIC:1;
#HASBANNER:1;
#MUSICLENGTH:93.317;
// end cache tags

//---------------dance-single - ----------------
#NOTES:
     dance-single:
     :
     Medium:
     6:
     0.465,0.523,0.257,0.922,0.000,194.000,24.000,86.000,0.000,0.000:
0000
0000
0000
0000
,
1000
0010
0001
0100
,
0001
0000
0100
0000
0010
0000
2000
3002
,
0000
0000
0000
0000
0003
2000
0000
3020
,
0000
0030
0002
0000
0000
1003
0010
0200
,
0000
0000
0000
0000
0300
0001
0010
1000
,
0000
0000
0010
0100
0010
0000
0001
2000
,
0000
0000
0000
0000
3000
0001
0010
0202
,
0000
0000
0000
0000
0303
0001
0010
0202
,
0000
0000
0000
0000
0303
0010
1000
0010
,
0100
0001
0010
0001
1000
0010
0100
2002
,
0000
0000
0000
0000
,
0003
3000
0000
0000
0000
0000
0000
0000
0000
0000
0000
0000
0000
0000
0000
0000
0000
0000
0000
0000
0000
0000
0000
0000
0100
0000
0000
0000
0000
0000
0000
0000
0000
0000
0000
0000
0000
0000
0000
0000
0000
0000
0000
0000
0000
0000
0000
0000
0001
0000
0000
0000
0000
0000
0000
0000
0000
0000
0000
0000
0000
0000
0000
0000
0000
0000
0000
0000
0000
0000
0000
0000
0010
0000
0000
0000
0000
0000
0000
0000
0000
0000
0000
0000
0000
0000
0000
0000
0000
0000
0000
0000
0000
0000
0000
0000
0001
0000
0000
0000
0000
0000
0000
0000
0000
0000
0000
0000
0000
0000
0000
0000
0000
0000
0000
0000
0000
0000
0000
0000
1000
0000
0000
0000
0000
0000
0000
0000
0000
0000
0000
0000
0000
0000
0000
0000
0000
0000
0000
0000
0000
0000
0000
0000
0010
0000
0000
0000
0000
0000
0000
0000
0000
0000
0000
0000
0000
0000
0000
0000
0000
0000
0000
0000
0000
0000
0000
0000
0100
0000
0000
0000
0000
0000
0000
0000
0000
0000
0000
0000
0000
0000
0000
0000
0000
0000
0000
0000
0000
0000
0000
0000
,
0002
1000
0000
1000
,
0020
0000
0000
0033
1000
0000
0010
0000
,
0200
0302
2003
3020
,
0230
0302
2003
3020
,
0230
0302
2003
3020
,
0230
0302
2003
3010
,
1100
1100
1001
1001
,
1010
1010
2200
3300
,
0010
0100
0010
0001
,
1000
0010
0100
0001
,
0011
0011
1001
1001
,
0101
0000
0101
0000
0022
0000
0000
0033
,
1000
0100
1000
0010
,
0100
0001
1000
0010
,
0220
0000
0000
0000
0000
0330
2000
0000
,
3200
0302
0023
0230
,
2300
0000
0000
0000
0000
3000
0000
0000
,
0020
0032
2003
3020
,
0230
0000
0000
0000
0000
0300
0002
0000
,
2003
3020
0230
0302
,
2003
0000
3010
0001
0000
1000
0100
0000
,
0001
0100
0010
1000
,
2020
0000
0000
0000
3030
0002
2003
3002
,
2003
0000
0000
3000
0000
2000
3002
0000
,
0000
0000
0000
0003
2000
0000
3020
0000
,
0030
0002
0000
0000
1003
0010
0200
0000
,
0000
0000
0000
0300
0001
0010
1000
0000
,
0000
0010
0100
0010
0000
0001
2000
0000
,
0000
0000
0000
3000
0000
0002
0000
0020
,
0000
0000
0000
0033
0000
2000
0000
0200
,
0000
0000
0000
3300
0000
0001
0010
0000
,
0000
1000
0100
0000
0010
0100
0001
2002
,
0000
0000
0000
0000
0000
3003
0000
0020
,
0000
0030
2000
0000
3000
0000
0010
0200
,
0000
0000
0000
0000
0300
0002
0000
2003
,
0000
3000
0010
0100
0010
0001
1000
2000
,
0000
0000
0000
0000
3000
0001
0010
0202
,
0000
0000
0000
0000
0303
0001
0010
0202
,
0000
0000
0000
0000
0303
0010
1000
0010
,
0100
0001
0010
0001
1000
0010
0100
2002
,
0000
0000
0000
0000
,
0003
3000
0000
0000
0000
0000
0000
0000
0000
0000
0000
0000
0000
0000
0000
0000
0000
0000
0000
0000
0000
0000
0000
0000
0001
0000
0000
0000
0000
0000
0000
0000
0000
0000
0000
0000
0000
0000
0000
0000
0000
0000
0000
0000
0000
0000
0000
0000
0010
0000
0000
0000
0000
0000
0000
0000
0000
0000
0000
0000
0000
0000
0000
0000
0000
0000
0000
0000
0000
0000
0000
0000
0001
0000
0000
0000
0000
0000
0000
0000
0000
0000
0000
0000
0000
0000
0000
0000
0000
0000
0000
0000
0000
0000
0000
0000
1000
0000
0000
0000
0000
0000
0000
0000
0000
0000
0000
0000
0000
0000
0000
0000
0000
0000
0000
0000
0000
0000
0000
0000
0010
0000
0000
0000
0000
0000
0000
0000
0000
0000
0000
0000
0000
0000
0000
0000
0000
0000
0000
0000
0000
0000
0000
0000
0100
0000
0000
0000
0000
0000
0000
0000
0000
0000
0000
0000
0000
0000
0000
0000
0000
0000
0000
0000
0000
0000
0000
0000
2002
0000
0000
0000
0000
0000
0000
0000
0000
0000
0000
0000
0000
0000
0000
0000
0000
0000
0000
0000
0000
0000
0000
0000
,
0000
0000
0000
0000
,
0000
0000
0000
0000
,
0000
0000
0000
3003
0000
0000
0000
0000
;

//---------------dance-single - ----------------
#NOTES:
     dance-single:
     :
     Easy:
     4:
     0.305,0.430,0.204,0.075,0.000,173.000,19.000,7.000,0.000,0.000:
0000
0000
0000
0000
,
1000
0010
0001
0100
,
0001
0100
0010
0000
,
0000
1000
1000
1000
,
0001
0001
0001
0001
,
1000
1000
1000
0010
,
0010
0010
0100
0100
,
1001
0000
0000
1000
,
1000
1000
1000
0000
,
0010
0010
0010
0000
,
1000
0010
0100
0001
,
1000
0010
0100
0001
,
1000
0010
0100
0001
,
1001
0000
0000
1001
0000
0000
1001
0000
,
2002
0000
0000
0000
,
3003
0000
0000
0000
,
1000
0000
1000
0000
,
0010
0100
0000
0010
,
0100
0000
1000
0001
,
1000
0001
0000
0010
,
0100
0010
0100
0010
,
0000
1000
0001
1000
,
0001
1000
0000
0010
,
0000
1000
1000
1000
,
1000
0000
0000
0001
0000
0000
0000
0000
,
1000
1000
1000
0010
,
0010
0010
0100
0100
,
0200
0000
0000
0000
0000
0300
0000
0000
,
0001
0001
0001
0001
,
1000
1000
1000
1000
,
0010
0100
0010
0100
,
2002
0000
0000
3003
,
0010
0010
0010
0100
,
0100
0100
1000
1000
,
0010
0010
0100
0100
,
0001
0001
0001
1000
,
1001
1001
0000
0000
,
1000
1000
0000
1000
,
1000
1000
0000
0001
,
0001
0001
0001
0010
,
0100
0010
1000
0010
,
0100
0000
0000
0001
,
0100
0010
0000
0010
,
0100
1000
0000
0100
,
0010
0001
1000
0001
,
1001
0000
0000
0010
,
0100
0010
0000
1000
,
0100
1000
0010
0000
,
0100
0001
0010
0100
,
1001
0000
1000
0100
,
1000
0010
0100
0000
,
1000
0010
0100
1000
,
0001
0010
0100
0010
,
1100
1100
1010
1010
,
0101
0101
1001
1001
,
2002
0000
0000
0000
,
0000
0000
0000
0000
,
0000
0000
0000
0000
0000
0000
0000
0000
0000
0000
0000
0000
0000
0000
0000
0000
0000
0000
0000
0000
0000
0000
0000
0000
0000
0000
0000
0000
0000
0000
0000
0000
0000
0000
0000
0000
0000
0000
0000
0000
0000
0000
0000
0000
0000
0000
0000
0000
0000
0000
0000
0000
0000
0000
0000
0000
0000
0000
0000
0000
0000
0000
0000
0000
0000
0000
0000
0000
0000
0000
0000
0000
0000
3003
0000
0000
0000
0000
0000
0000
0000
0000
0000
0000
0000
0000
0000
0000
0000
0000
0000
0000
0000
0000
0000
0000
0000
0000
0000
0000
0000
0000
0000
0000
0000
0000
0000
0000
0000
0000
0000
0000
0000
0000
0000
0000
0000
0000
0000
0000
0000
0000
0000
0000
0000
0000
0000
0000
0000
0000
0000
0000
0000
0000
0000
0000
0000
0000
0000
0000
0000
0000
0000
0000
0000
0000
0000
0000
0000
0000
0000
0000
0000
0000
0000
0000
0000
0000
0000
0000
0000
0000
0000
0000
0000
0000
0000
0000
0000
0000
0000
0000
0000
0000
0000
0000
0000
0000
0000
0000
0000
0000
0000
0000
0000
0000
0000
0000
0000
0000
0000
0000
;

//---------------dance-single - ----------------
#NOTES:
     dance-single:
     :
     Beginner:
     2:
     0.171,0.307,0.064,0.107,0.000,96.000,6.000,10.000,0.000,0.000:
0000
0000
0000
0000
,
0000
0000
0000
0000
,
1000
0000
0000
0000
,
1000
0000
0000
0000
,
0010
0000
0000
0000
,
0100
0000
0000
0000
,
0001
0000
0000
0000
,
2002
0000
3003
0000
,
0010
0000
0000
0000
,
1000
0000
0000
0000
,
0001
0000
0000
0000
,
0220
0000
0330
0000
,
1000
0000
1000
0000
,
1000
0000
0000
0000
,
1001
0000
0000
0000
,
0001
0001
0001
0000
,
0000
1000
1000
1000
,
0000
0000
0001
0001
,
0001
0000
1000
1000
,
1000
0000
0000
0000
,
0010
0000
0000
0000
,
0100
0000
0000
0000
,
1000
0000
0000
0000
,
0100
0100
0100
0100
,
0000
0000
0000
0000
,
0001
0000
0000
0000
,
0010
0000
0000
0000
,
0001
0001
0001
0001
,
0000
0000
0000
0000
,
1000
1000
1000
1000
,
0000
0000
0000
0000
,
0220
0000
0330
0000
,
1000
1000
1000
1000
,
0001
0001
0001
0001
,
1000
1000
1000
1000
,
0001
0001
0001
0001
,
2002
0000
0000
0000
,
3003
0000
0000
0000
,
0010
0010
0000
0000
,
0100
0100
0000
0000
,
1000
1000
0000
0000
,
0001
0001
0000
0000
,
0010
0010
0000
0000
,
0100
0100
0000
0000
,
1000
1000
0000
0000
,
0010
0010
0000
0000
,
1000
1000
0000
0000
,
0010
0010
0000
0000
,
1000
1000
0000
0000
,
0001
0001
0000
0000
,
1000
1000
0000
0000
,
1000
1000
0000
0000
,
0010
0010
0000
0000
,
0100
0100
0000
0000
,
0001
0001
0000
0000
,
2002
0000
0000
0000
,
0000
0000
0000
0000
,
0000
0000
0000
0000
0000
0000
0000
0000
0000
0000
0000
0000
0000
0000
0000
0000
0000
0000
0000
0000
0000
0000
0000
0000
0000
0000
0000
0000
0000
0000
0000
0000
0000
0000
0000
0000
0000
0000
0000
0000
0000
0000
0000
0000
0000
0000
0000
0000
0000
0000
0000
0000
0000
0000
0000
0000
0000
0000
0000
0000
0000
0000
0000
0000
0000
0000
0000
0000
0000
0000
0000
0000
0000
0000
3003
0000
0000
0000
0000
0000
0000
0000
0000
0000
0000
0000
0000
0000
0000
0000
0000
0000
0000
0000
0000
0000
0000
0000
0000
0000
0000
0000
0000
0000
0000
0000
0000
0000
0000
0000
0000
0000
0000
0000
0000
0000
0000
0000
0000
0000
0000
0000
0000
0000
0000
0000
0000
0000
0000
0000
0000
0000
0000
0000
0000
0000
0000
0000
0000
0000
0000
0000
0000
0000
0000
0000
0000
0000
0000
0000
0000
0000
0000
0000
0000
0000
0000
0000
0000
0000
0000
0000
0000
0000
0000
0000
0000
0000
0000
0000
0000
0000
0000
0000
0000
0000
0000
0000
0000
0000
0000
0000
0000
0000
0000
0000
0000
0000
0000
0000
0000
0000
;

//---------------dance-single - ----------------
#NOTES:
     dance-single:
     :
     Hard:
     8:
     0.680,0.646,0.547,0.343,0.000,361.000,51.000,32.000,0.000,0.000:
0000
0000
0000
0000
,
1000
0001
0010
1000
0001
0100
1000
0010
,
0001
0100
1000
0010
0100
0001
0010
0001
,
1000
0100
0001
0010
0100
1000
0100
0010
,
0001
0100
0010
0001
0100
1000
0010
0100
,
1000
0001
0010
1000
0001
0100
1000
0100
,
0010
0001
0010
1000
0100
0001
0010
0020
,
1000
0000
1000
0000
1030
0020
0130
2000
,
0001
0010
0100
0010
3001
0020
0130
2000
,
0001
0010
0100
0010
3001
0010
1000
0100
,
0010
0001
1000
0100
0001
0100
1000
0100
,
2001
0000
0010
0000
0100
0000
0010
3000
,
1010
0010
1000
0010
0001
0100
1000
0010
,
0001
0010
1010
0100
0101
0001
1001
0000
,
0220
0000
0000
0330
1000
1000
1002
0000
,
0013
1000
0001
1000
0010
0100
0010
0001
,
1000
0100
0010
0100
1000
0010
0100
0010
,
0001
0100
0010
0001
1000
0010
0100
0001
,
0010
0100
1000
0001
0100
0010
1000
0100
,
1100
1010
1001
0101
,
0102
0000
0103
2010
0000
0010
3010
0000
,
0010
0001
0100
1000
0100
0001
0100
0010
,
1000
0001
2002
0000
3003
1000
0010
0100
,
0011
0101
1001
1010
,
2010
0000
3010
0102
0000
0100
0103
0000
,
1000
0010
0001
0100
0010
1000
0100
0001
,
0010
1000
0100
0001
1000
0010
0100
0001
,
0011
0101
1001
1010
,
0001
1000
0100
0001
0010
1000
0001
0000
,
0011
1010
1001
1001
,
0010
0100
0010
0001
1000
0100
0010
0001
,
1001
0110
1100
1010
,
0001
0010
0100
0010
0001
0100
1000
0000
,
1100
0110
0011
0110
,
1010
1100
1001
0101
,
0022
0000
0000
0000
0033
0200
2300
3200
,
0001
0010
0010
0301
0000
0001
0010
0001
,
1000
0100
0001
0010
0100
1000
0100
0010
,
0001
0100
0010
0001
0100
1000
0010
0100
,
1000
0001
0010
1000
0001
0100
1000
0100
,
0010
0001
0010
1000
0100
0001
0010
1020
,
1000
0000
1030
0000
1010
0000
0001
0010
,
0100
0001
1000
0010
1010
0000
1000
0100
,
0010
0100
0010
0001
0101
0000
0010
0100
,
0010
0001
1000
0100
0010
0001
1000
0001
,
0201
0000
0010
0000
0010
0300
0101
0001
,
0010
0001
0200
0000
0000
0301
0010
2000
,
0010
0000
3010
0000
1010
0010
0001
1000
,
0010
0100
0010
0001
1000
0100
0010
0002
,
0100
0000
0100
0000
0103
0020
0130
2000
,
0001
0010
0100
0010
3001
0020
0130
2000
,
0001
0010
0100
0010
3001
0010
1000
0100
,
0010
0001
1000
0100
0001
0100
1000
0100
,
2001
0000
0010
0000
0100
0000
0010
3000
,
1010
0010
1000
0010
0001
0100
1000
0100
,
0220
0000
0000
0000
,
0000
0300
0000
0000
0000
0000
0000
0000
0000
0000
0000
0000
0000
0000
0000
0000
,
0000
0000
0000
0030
0000
0000
0000
0000
;
