#TITLE:Advent Children Battle;
#SUBTITLE:(Piano Theme);
#ARTIST:植松伸夫;
#TITLETRANSLIT:;
#SUBTITLETRANSLIT:;
#ARTISTTRANSLIT:Nobuo Uematsu;
#CREDIT:;
#BANNER:ac-bn.png;
#BACKGROUND:ac-bg.png;
#LYRICSPATH:;
#CDTITLE:cdtitle.png;
#MUSIC:-Nobuo Uematsu- Advent Children Battle (Piano Theme).mp3;
#OFFSET:0.360;
#SAMPLESTART:34.941;
#SAMPLELENGTH:12.000;
#SELECTABLE:YES;
#BPMS:0.000=171.720,5.000=171.820,6.000=172.000,6.500=172.320,7.000=175.320,7.500=176.580,8.000=180.240,8.500=182.660,9.000=182.920,9.500=180.720,14.000=170.720,14.500=167.560,15.000=164.340,15.500=162.900,16.000=156.500,16.500=153.440,18.000=171.720,29.000=170.020,29.500=168.380,30.000=169.460,31.000=168.040,31.500=168.780,32.000=168.200,35.500=169.160,36.000=167.940,36.500=165.320,36.750=162.060,37.000=161.020,43.500=164.060,44.000=169.660,44.500=170.300,45.000=170.920,49.000=168.300,49.500=165.680,50.000=163.620,50.500=162.800,59.000=166.420,59.500=170.840,60.000=173.660,60.500=174.080,64.000=170.240,64.500=166.840,64.750=166.900,75.500=171.180,76.000=172.400,76.500=170.780,77.000=166.900,86.750=164.040,87.000=160.400,87.250=159.180,87.500=156.800,87.750=154.780,88.000=163.320,88.250=152.560,88.500=151.340,88.750=164.320,89.000=163.220,123.000=166.660,123.500=168.480,124.000=169.300,124.500=171.720,127.500=169.480,128.000=167.400,128.500=166.040,129.000=163.980,129.500=160.500,130.000=163.220,144.000=154.921,144.500=148.141,145.000=147.621,145.500=145.641,146.000=163.221,148.000=161.601,148.500=160.781,149.000=160.721,149.500=159.901,150.000=162.981,150.500=162.161,151.000=161.541,154.500=161.741,155.000=161.961,155.500=163.181,156.000=159.601,156.500=158.381,157.000=157.161,157.500=155.541,158.000=149.521,158.500=148.101,162.000=158.541,162.500=163.581,163.000=166.901,166.000=164.861,166.500=161.381,167.000=158.761,167.500=156.141,168.000=149.881,168.500=145.861,169.000=143.021,169.500=139.201,170.000=139.321,170.500=139.781,171.000=141.001,172.000=146.221,172.500=151.441,173.000=161.821,173.500=163.901,177.000=163.881,177.500=162.901,178.000=162.661,178.500=164.921,179.000=164.901,185.500=164.001,193.000=162.381,193.500=137.901,195.500=138.341,196.000=140.781,196.500=144.401,197.000=147.081,197.250=148.301,197.500=150.061,198.000=152.281,200.500=152.181,201.000=151.561,201.500=143.701,203.000=144.521,203.500=144.941,204.500=146.561,205.000=157.821,205.500=169.261,209.750=165.001,210.000=163.781,210.500=161.761,211.000=158.941,214.000=158.521,214.500=158.941,216.000=157.121,216.250=155.081,216.500=154.061,216.750=150.621,217.000=149.041,217.250=143.821,217.500=134.661,217.750=130.721,219.000=132.541,219.500=143.361,220.000=153.381,220.500=155.821,224.000=142.361,224.500=124.721,225.000=116.821,225.500=101.941,225.750=96.341,226.000=93.501,226.750=100.061,227.000=124.101,227.250=141.741,227.500=153.361,230.000=156.401,231.000=157.621,232.000=158.641,233.000=159.661,233.250=160.301,233.500=161.341,233.750=162.521,234.000=164.981,235.500=162.921,236.000=161.101,236.500=159.681,237.000=158.661,237.500=157.641,238.000=156.621,240.500=148.201,241.000=147.341,241.250=141.761,241.500=112.881,241.750=99.901,242.000=126.181,242.500=131.161,243.000=136.821,243.500=150.461,244.000=153.221,249.500=161.481,250.000=163.701,256.500=159.281,257.000=144.041,257.250=140.261,257.500=137.221,257.750=116.341,258.000=107.921,258.500=133.001,259.000=143.641,259.500=153.601,260.000=157.221,260.500=158.241,265.000=173.481,265.500=183.501,266.000=160.381,273.500=130.321,273.750=88.261,274.000=117.101,276.000=169.101,291.500=169.361,292.000=169.141,292.500=168.321,293.000=167.701,295.000=169.241,295.250=170.261,295.500=171.901,295.750=173.521,296.000=174.221,296.250=176.461,296.500=179.241,296.750=181.261,298.000=179.241,298.500=174.401,299.000=170.781,299.500=168.761,300.000=166.741,300.500=163.121,301.000=159.501,301.500=160.721,302.000=167.761,302.500=168.781,303.000=164.141,303.500=161.121,304.000=161.741,304.500=162.541,305.000=160.321,305.500=162.341,306.000=160.941,325.500=161.761,326.000=162.581,326.500=163.201,327.500=163.181,336.500=162.361,337.000=161.141,337.500=160.121,338.000=162.961,341.000=161.741,341.500=160.721,342.000=160.941,342.500=160.961,343.500=160.541,344.000=160.141,344.500=159.941,345.000=159.241,345.500=157.481,351.500=156.261,352.000=155.241,352.500=152.001,353.000=150.581,353.500=149.781,358.000=162.061,359.500=163.281,366.000=162.261,367.500=160.241,368.500=156.621,369.000=155.001,369.500=153.181,370.000=151.161,372.000=149.341,375.500=152.381,376.000=162.401,376.500=167.661,377.000=163.221,382.000=163.441,382.500=167.861,383.000=172.281,383.500=172.441,383.750=177.881,384.000=179.141,384.250=185.601,384.500=186.421,384.750=194.461,385.000=192.701,385.250=193.921,385.500=195.341,385.750=196.361,386.000=163.221,393.000=160.781,393.500=159.761,394.000=158.341,397.000=153.501,397.500=144.261,397.750=138.221,398.000=148.661,409.000=149.681,409.500=155.921,410.000=159.541,410.500=163.961,412.500=162.941,413.500=157.901,413.750=150.901,414.000=153.481,414.500=152.061,415.000=150.441,415.500=147.821,416.000=146.801,416.500=153.621,417.000=154.601,417.500=155.461,423.000=157.481,423.500=161.901,424.000=165.521,424.500=169.141,425.000=169.181,426.500=168.361,427.000=167.541,427.500=166.521,428.000=165.901,429.500=163.221,437.000=163.241,437.500=164.701,438.000=163.221,452.250=153.561,452.500=151.741,452.750=146.261,453.000=144.641,453.250=142.501,453.500=136.541,453.750=132.981,454.000=163.221,461.000=162.801,462.250=162.741,465.000=161.921,465.500=154.261,465.750=150.641,466.000=150.841,466.250=151.661,466.500=152.081,467.000=152.501,467.500=153.121,468.000=153.541,468.500=153.761,469.500=154.781,470.000=156.001,470.500=160.421,471.000=161.241,475.000=160.421,476.000=159.601,476.500=150.541,477.000=147.701,477.500=151.901,478.000=150.481,483.000=151.701,483.500=160.121,484.000=161.341,495.000=159.901,502.000=157.881,502.500=156.261,503.000=156.861,503.500=150.041,504.000=150.181,504.500=150.781,505.000=146.741,505.500=147.821,506.000=150.281,506.500=151.201,507.000=152.201,507.500=152.141,508.000=151.901,509.500=144.221,509.750=143.401,512.000=144.421,512.500=148.241,513.000=147.441,513.500=148.261,514.000=151.321,514.500=160.141,519.500=165.361,520.000=167.981,520.500=168.401,521.000=169.241,521.500=169.261,522.000=169.681,526.500=171.921,527.000=173.121,527.500=175.341,528.000=176.401,528.500=177.821,529.000=178.381,529.500=179.461,530.000=179.901,537.500=179.001,538.000=171.101,545.000=169.281,545.250=163.041,545.500=155.821,545.750=147.201,546.000=150.001,548.750=152.621,549.000=159.981,549.250=170.401,549.500=181.081,549.750=199.181,550.000=170.241,560.000=169.021,560.500=167.401,561.000=165.781,561.500=164.501,562.000=163.221,564.000=164.441,564.500=165.061,565.000=165.881,565.500=167.301,566.000=168.521,570.000=168.461,570.500=168.401,571.000=168.341,571.500=168.281,572.000=168.161,574.000=168.221,574.500=168.281,575.000=168.381,575.500=168.481,576.000=168.681,576.500=168.881,577.000=169.101,577.500=173.361,578.000=172.841,581.500=169.801,581.750=150.961,582.000=168.041,587.000=165.041,587.333=168.881,587.667=174.501,588.000=171.161,588.250=170.541,588.500=169.921,588.750=170.141,589.000=170.561,589.250=170.581,589.500=170.601,589.750=170.821,590.000=171.241,590.250=171.661,590.500=172.281,590.750=171.861,591.000=171.841,591.250=171.421,591.500=171.361,591.750=171.221,592.000=180.801,592.500=181.621,592.750=183.441,593.000=185.481,593.250=187.101,593.500=188.481,593.750=189.701,594.000=190.981,594.250=192.201,594.500=189.761,594.750=190.981,595.000=190.541,595.250=191.761,595.500=196.621,595.750=197.441,596.000=199.061,596.500=200.901,597.000=201.321,597.500=201.541,598.000=201.761,598.500=201.981,607.000=200.161,607.500=196.141,615.000=195.721,615.500=195.301,616.000=195.081;
#STOPS:33.000=0.320
,290.000=0.960
,618.000=0.920
;
#BGCHANGES:;
// cache tags:
#FIRSTBEAT:2.000;
#LASTBEAT:621.000;
#SONGFILENAME:Songs/mike songs/Advent Children Battle (Piano Theme)/Advent Children.sm;
#HASMUSIC:1;
#HASBANNER:1;
#MUSICLENGTH:239.862;
// end cache tags

//---------------dance-single - ----------------
#NOTES:
     dance-single:
     :
     Hard:
     11:
     0.914,1.000,1.000,0.042,0.377,1271.000,254.000,10.000,0.000,1.000:

0000
0000
0000
0000
0101
0010
0100
1010
,
0100
0010
1001
0100
1000
0110
0011
0110
,
1100
0011
0101
1100
0110
1001
0011
1001
,
0101
1100
0110
1001
0011
0110
2000
0000
,
3020
0000
0230
0000
1301
0010
0100
0011
,
1000
0100
1010
0001
0100
1100
0011
0110
,
0101
1100
0011
0110
1100
0011
1001
1100
,
0110
0000
0000
1001
0000
0000
0101
0000
0000
1010
0000
0000
0001
0000
0100
0000
0000
0000
0000
0000
0000
1000
0000
0000
,
0100
0000
0000
0001
0000
0000
0000
0000
0000
0000
0000
0000
1001
0000
0100
0000
0010
0000
1001
0000
0010
0000
0100
0000
,
1001
0000
0100
0000
0010
0000
1001
0000
0000
0100
0000
0000
0010
0000
0000
0001
0000
0000
0100
0000
0000
0010
0000
0000
,
0100
1000
0000
0100
0010
1000
0001
0100
,
1000
0010
0000
0010
0100
1000
0010
0100
,
0001
1000
0000
0100
0010
1000
0001
0100
,
1000
0000
0000
0010
0000
0000
0100
0000
0000
0010
0000
0000
0100
0000
0000
0001
0000
0000
1000
0000
0100
0000
0010
0000
,
1000
0000
0001
0000
0010
0000
0100
0000
0000
0010
0000
0000
1000
0000
0000
0001
0000
0000
0100
0000
0000
1000
0000
0000
,
0010
0100
1000
0100
0001
1000
0010
0100
,
1000
0001
0100
0010
1000
0001
1000
0100
,
0001
0100
0010
1000
0010
0100
1000
0001
,
0100
0010
1100
0001
0001
0110
1000
1000
,
0101
0001
0010
0100
1000
0010
0100
0001
,
0100
0000
1000
0000
0010
0000
0100
0000
1000
0100
0010
0001
0100
1000
0001
0010
,
0100
0001
1000
0100
0010
0001
1000
0001
0100
0000
0000
0001
0000
0000
1000
0100
,
0010
0001
1000
0100
0011
0000
0100
0000
0100
0000
1010
0000
0001
0000
0001
0000
,
0110
1000
1000
0100
0010
1000
0001
0100
,
1000
0000
0001
0000
0010
0000
1000
0001
1000
0001
0100
1000
0010
1000
0001
0100
,
1000
0001
0100
0001
0010
1000
0001
1000
0100
0000
0000
0010
0000
0000
0000
0000
,
1000
0100
0010
0000
0001
0000
0000
0000
1010
0000
0100
0000
0010
0000
0100
0000
,
0001
0010
0100
1000
0101
0010
0100
1000
,
0101
0000
0010
0000
1000
0000
0100
0000
0010
0000
0001
0000
1000
0000
0000
0100
0000
0000
0001
0000
0000
0100
0000
0000
,
1000
0010
0100
0010
1100
0101
0010
0100
,
0011
1000
0110
0001
1010
0100
0100
0011
,
1000
1000
0101
1010
0011
0110
1100
0011
,
0101
0000
0000
1100
0000
0000
0001
0010
0100
1000
0001
0010
1100
0000
0000
0001
0000
0000
0010
0000
0000
0101
0000
0000
,
1000
0010
1100
0010
0001
1100
0110
1001
,
0011
0110
1100
0011
0101
1100
0011
0110
,
1001
0000
1100
0000
0011
0000
0110
0000
0101
0000
1100
0000
0000
0000
0000
0110
,
0000
0000
0001
1000
0001
1000
0100
0010
1001
0000
0100
0000
1000
0000
0110
0000
,
0001
1000
0011
0100
0100
1010
0011
0110
,
1100
0011
0110
0101
1100
0011
0110
0101
,
0011
1100
0011
0110
1100
0001
0100
1000
,
0110
0001
1000
0100
0010
0100
1000
0010
,
0100
0001
0100
1000
0010
0000
1000
0010
,
0000
0001
0100
0000
1000
0001
1000
0001
,
0100
1000
0010
1000
0100
0001
0100
0010
,
1000
0100
0001
1000
0010
0001
0100
0010
1000
0000
0101
0000
0011
0000
1100
0000
,
0010
0100
1000
0010
0100
0001
1000
0100
,
1000
0010
0100
0010
1001
0100
0010
1000
,
0100
1000
0001
0010
0100
0001
1000
0001
,
0100
1000
0010
0100
0001
0010
0001
0000
0000
0000
0000
0000
,
1000
0100
0010
0001
1000
0010
0001
0000
0000
0000
0000
0000
,
0000
0000
0010
0001
0010
0000
0000
0000
,
0001
0010
0100
1000
0100
0001
1000
0000
0000
0000
0000
0000
,
1000
0100
0010
0001
0100
1010
0011
0110
,
1001
1100
0110
0011
1001
0000
0100
0010
,
0000
1000
0010
0000
0101
0010
1000
0100
,
0010
0001
0100
1000
0010
0100
0001
0100
,
1000
0010
1000
0100
1000
0010
0100
0001
,
1000
0010
0100
1000
0001
0100
0010
1000
,
0001
0000
0100
0000
1000
0000
0010
0000
0100
0000
1000
0000
0001
0000
0000
0100
0000
0000
1000
0000
0000
0001
0000
0000
,
0100
1000
0010
0100
0001
1000
0100
0010
,
1000
0000
0100
0000
0010
0000
0001
0000
1000
0000
0010
0000
1000
0000
0000
1000
0000
0000
0001
0000
0000
0010
0000
0000
,
0100
0001
1000
0001
0100
1000
0010
1000
,
0100
1000
0010
0100
0001
0010
1000
0001
,
0100
0010
1000
0100
1000
0001
0010
0001
,
0001
0000
0010
0000
1000
0000
0001
0000
0010
0000
1000
0000
0110
0000
0000
1000
0000
0000
0100
0000
0000
0001
0000
0000
,
1000
0001
0010
0001
1000
0100
1000
0001
,
0010
0000
0100
0000
1000
0000
0001
0000
0100
0000
0010
0000
1000
0000
0000
0010
0000
0000
0100
0000
0000
0001
0000
0000
,
1000
0010
0100
0001
1000
0100
1000
0010
,
0001
0010
0100
1000
0010
0100
0001
0000
0000
0000
0000
0000
,
0001
1000
0010
1000
0100
0001
1000
0010
0100
0001
1000
0001
,
1000
0100
1000
0010
0100
0001
1000
0010
1000
0100
0001
0010
,
1000
0001
0100
0001
1000
0010
1000
0100
0001
1000
0010
1000
,
0100
0000
0010
0000
1000
0000
0001
0000
0010
0000
0100
0000
1000
0000
0000
0000
0000
0000
0011
0000
0000
0110
0000
0000
,
1100
0011
0110
0101
1100
0011
0110
1100
,
0101
0110
1001
0100
1000
0010
0100
0001
,
0100
1000
0110
0100
1000
0010
0100
0001
,
1000
0100
0011
0100
1000
0010
0100
0001
,
0100
0010
1001
0100
1000
0010
0100
0001
,
0010
0100
1001
0010
0100
0001
1000
0100
,
1000
0010
0100
0001
1000
0010
1000
0100
,
0010
1000
1001
0100
1000
0010
0100
0001
,
1000
0100
0010
1000
0001
0100
0010
0100
,
0001
0100
1010
0001
0010
0100
1000
0001
,
0100
0001
1000
0010
1000
0100
0010
1000
,
0001
0100
0011
0100
0010
1000
0001
0100
,
1000
0010
0001
0100
0010
1000
0001
0100
,
0010
0001
1100
0010
0100
1000
0010
0100
,
0001
0100
1000
0010
0100
0001
1000
0010
,
1000
0001
0110
0000
0000
1100
0000
0000
,
0011
0000
0101
0000
0000
1100
0000
0000
,
0110
0000
1001
0000
0000
0011
0000
0000
,
0101
0000
1100
0000
0000
0110
0000
0000
,
1001
0000
1001
1000
1000
0110
0010
0010
,
0101
1000
0011
0001
0001
0110
0010
0010
,
1100
1000
0101
0010
0100
1001
0100
0010
,
1100
0000
0010
0000
0101
0000
1000
0000
0010
0100
1000
0001
0010
0100
1000
0001
,
0010
0100
1000
0001
0010
0000
0100
0000
1000
0000
0010
0000
0100
0000
0001
0000
,
1000
0010
1000
0100
0001
0100
0010
0100
,
0010
1000
0001
0010
0100
0001
1000
0100
,
1000
0010
0100
0010
0001
0100
0010
1000
,
0001
0100
1000
0001
1000
0010
0100
0001
,
1000
0100
0010
1000
0001
0010
0100
1000
,
0001
0100
0001
1000
0010
1000
0100
0001
,
1000
0010
0100
0001
0010
0100
1000
0100
,
1000
0100
0001
0100
0010
0100
1000
0010
,
0100
0001
0100
0010
1000
0100
0010
1000
,
0100
0001
0100
0010
0100
0010
1000
0001
,
0010
0000
0100
0000
1000
0000
0001
0000
0100
0000
0010
0000
1000
0000
0000
0010
0000
0000
0100
0000
0000
0001
0000
0000
,
0100
1000
0010
1000
0100
1000
0001
0010
,
1100
0000
0000
0000
0000
0000
0001
0000
0000
0010
0000
0000
0100
0000
0000
1000
0000
0000
0001
0000
0010
0000
0100
0000
1001
0000
0000
0000
0000
0000
0010
0000
0000
0000
0000
0000
0100
0000
0000
0000
0000
0000
0011
0000
0000
0000
0000
0000
,
0100
0010
1001
0100
0010
1100
0110
0011
,
0110
0101
1100
0011
0110
1001
0011
1010
,
0101
0000
1010
0000
1100
0000
0011
0000
0110
0000
0101
0000
1010
0000
0000
0101
,
0000
0000
0010
1000
0010
1000
0100
0010
1001
0000
0010
0000
0100
0000
0101
0000
,
0001
0010
1100
0010
0001
1100
0011
0101
,
0011
0110
1100
0011
0110
0101
1100
0011
,
0110
0011
1010
0101
0010
1000
0100
0010
,
1000
0100
0010
1000
0001
0100
0010
0100
,
1000
0001
0100
0010
1000
0000
0100
0010
,
0000
0100
0001
0000
0100
1000
0010
0100
,
0001
0100
0010
1000
0100
1000
0001
0100
,
0010
0000
0100
0000
1000
0000
0100
0000
0010
0000
1000
0000
0001
0000
0000
1000
0000
0000
0010
0000
0000
1000
0000
0000
,
0100
0001
0010
0001
0100
1000
0001
0100
,
1000
0010
0100
0001
1000
0100
1000
0010
,
0100
0001
1000
0010
1000
0100
0010
0100
,
0001
0100
0010
1000
0011
0000
0100
1010
,
0000
0101
0010
0000
1100
0010
0000
0101
,
1000
0000
0000
0011
0000
0000
1001
0010
0100
1000
0100
0010
,
1000
0000
0100
0000
0001
0000
0010
0000
1000
0000
0100
0000
0001
0000
0000
0010
0000
0000
1000
0000
0000
0100
0000
0000
,
0001
1000
0100
1000
0010
0100
1000
0001
,
0010
0000
0100
0000
0001
0000
1000
0000
0010
0000
1000
0000
0100
0000
0000
0001
0000
0000
0100
0000
0000
0010
0000
0000
,
1000
0010
0100
1000
0010
1000
0100
0001
,
1000
0100
1000
0010
0101
1000
0010
0101
,
1000
0010
0110
0001
0100
1010
0001
0100
,
0011
0000
0100
0001
1010
0000
0000
0000
1100
0000
0010
0000
0100
0000
0011
0000
,
0100
1000
0011
0100
0010
1001
0100
0010
,
1000
0000
0001
0000
0100
0000
0110
0000
0000
1000
0000
0000
1001
0000
0010
0000
0100
0000
1000
0000
0001
0000
0010
0000
,
0100
0000
1000
0000
0100
0000
0010
0000
0000
1000
0000
0000
0010
0000
0000
1000
0000
0000
0100
0000
0000
0001
0000
0000
,
0100
0010
1000
0010
1000
0001
0100
1000
,
0001
0100
0000
1000
0001
0100
0001
1000
,
0010
0000
1000
0000
0100
0001
0100
0001
1100
0000
0001
0000
0100
0000
1000
0000
,
0010
0000
0100
0000
0001
1000
0001
1000
0011
0000
1000
0000
0001
0000
0100
0000
,
0010
1000
0100
0001
0220
0330
1100
0011
,
0110
0000
0000
0000
0000
0000
0000
0000
0000
0000
0000
0000
0000
0000
0000
0200
0000
0000
0000
0000
0000
0300
0000
0000
1000
0000
0000
0000
0010
0000
0000
0000
0001
0000
0000
0000
1000
0000
0000
0000
0100
0000
0000
0000
0001
0000
0000
0000
,
0010
0000
1000
0000
0001
0000
0100
0000
1000
0000
0001
0000
0220
0000
0000
0330
0000
0000
0011
0000
0000
1100
0000
0000
,
0110
0000
0000
0000
0000
0000
0000
0000
0000
0000
0000
0000
0000
0000
0000
0002
0000
0000
0000
0000
0000
0003
0000
0000
1000
0000
0000
0000
0010
0000
0000
0000
0100
0000
0000
0000
0001
0000
0000
0000
1000
0000
0000
0000
0010
0000
0000
0000
,
0100
0001
1000
0010
0100
0001
1000
0010
0100
1000
0100
0020
,
0031
0001
0001
0001
0001
0001
0001
0011
,
1001
0100
0100
1010
0001
0001
0110
1000
,
0100
0010
0001
0010
0100
0001
0010
1100
,
1001
0010
0010
0101
1000
1000
0110
0010
,
0101
0010
1100
0001
0110
1000
1100
0011
,
1001
0100
1000
0110
0001
0100
0011
0100
,
1000
0110
0001
1000
0110
0001
1100
0010
,
1001
0010
0100
1000
0011
0000
0000
0000
,
0010
0001
0100
1000
0000
0000
0000
0000
0000
0000
0000
0000
;
