#TITLE:Chaoz Fantasy;
#SUBTITLE:;
#ARTIST:ParagonX9;
#TITLETRANSLIT:;
#SUBTITLETRANSLIT:;
#ARTISTTRANSLIT:;
#CREDIT:;
#BANNER:Chaoz Fantasy -bn.png;
#BACKGROUND:Chaoz Fantasy -bg.png;
#LYRICSPATH:;
#CDTITLE:!StepmaniaFreak Title.png;
#MUSIC:Chaoz Fantasy.mp3;
#OFFSET:-8.822;
#SAMPLESTART:34.900;
#SAMPLELENGTH:13.500;
#SELECTABLE:YES;
#BPMS:0.000=82.500,18.000=41.250,19.000=165.000,83.000=82.500,98.500=165.000,131.000=82.500,134.500=165.000,159.000=41.250,167.000=82.500,181.000=41.250,182.000=165.000,246.250=123.750,246.500=82.500,246.750=41.250;
#STOPS:98.500=0.200
,134.500=0.172
;
#BGCHANGES:;
// cache tags:
#FIRSTBEAT:4.000;
#LASTBEAT:247.000;
#SONGFILENAME:Songs/StepmaniaFreak's Favorites/Chaoz Fantasy/Chaoz Fantasy.sm;
#HASMUSIC:1;
#HASBANNER:1;
#MUSICLENGTH:129.941;
// end cache tags

//---------------dance-single - ----------------
#NOTES:
     dance-single:
     :
     Challenge:
     12:
     1.000,1.000,0.654,0.131,1.000,845.000,85.000,17.000,0.000,0.000:
0000
0000
0000
0000
,
1000
0000
0010
0000
0100
0000
0010
0100
1000
0000
0100
0000
0010
1000
0100
0000
1000
0000
0010
1000
0100
0000
0010
0000
0100
1000
0010
0000
1100
0000
0011
0000
,
0100
0000
0010
0000
0001
0000
0010
0100
0010
0000
0100
0000
0010
0100
0001
0000
0100
0000
0010
0100
0001
0000
0010
0000
0100
1000
0001
0000
1010
0000
0101
0000
,
1000
0000
0010
0000
0100
0000
0001
1000
0100
0000
0010
0000
0100
1000
0001
0000
1000
0000
0100
0010
0100
0000
1000
0000
0001
1000
0100
0000
1010
0000
0011
0000
,
1000
0000
0000
0000
0010
0000
0000
0000
0100
0000
0000
0000
0010
0000
1000
0000
0100
0000
0000
0000
1000
0000
0000
0000
0001
0000
0100
0000
0010
0000
0000
0000
1100
0000
0000
0011
0000
0000
1010
0000
0000
0101
0000
0000
1000
0010
0100
0000
0001
0000
0000
0000
0100
0000
0000
0000
0010
0000
0000
0000
1000
0000
0000
0000
,
0100
1000
0001
1000
0001
1000
0100
1000
0001
1000
0001
0100
0010
1000
0100
1000
,
0100
1000
0010
1000
0100
1000
0100
1000
0011
0000
1001
0000
0001
1000
0010
0100
,
0001
0100
0010
0100
0010
0100
0001
0100
0010
0100
0010
1000
0001
0010
0100
0010
,
0100
0010
0001
0010
0100
0010
0100
0010
0101
0000
1100
0000
0010
0100
0010
1000
,
0001
1000
0100
1000
0100
1000
0001
1000
0100
1000
0100
0010
0001
0100
0010
0100
,
0010
0100
0001
0100
0010
0100
0010
0100
1001
0000
1100
0000
0010
0100
0010
1000
,
0100
1000
0001
1000
0001
1000
0100
1000
0001
1000
0001
0010
0100
1000
0010
1000
,
0010
1000
0100
1000
0010
1000
0010
1000
0101
0000
1010
0000
0001
1000
0100
0010
,
0001
0010
0100
0010
0100
0010
0001
0010
0100
0010
0100
1000
0010
0100
0001
0100
,
0001
0100
0010
0100
0001
0100
0001
0100
0011
1000
0101
1000
0001
1000
0010
0100
,
0001
0100
0010
0100
0010
0100
0001
0100
0010
0100
0010
1000
0001
0010
0100
0010
,
0100
0010
0001
0010
0100
0010
0100
1000
0101
0010
0101
1000
0010
0100
0010
1000
,
0001
1000
0100
1000
0100
1000
0001
1000
0100
1000
0100
0010
0001
0100
0010
0100
,
0010
0100
0001
0100
0010
0100
0010
0100
0011
1000
0101
0010
0001
1000
0100
0010
,
0001
0010
0100
0010
0100
0010
0001
0010
0100
0010
0100
0010
0001
0010
0100
1000
,
0010
0100
0001
0010
0100
1000
0001
0010
0100
1000
0010
0100
0002
0000
1000
0000
,
0000
0000
0010
0000
0100
0003
1000
0010
0200
0000
0000
0000
0001
0300
0020
0000
0000
0000
0100
0030
2000
0000
0010
3000
0200
0000
0000
0000
0001
0000
0000
0000
,
0000
0000
1000
0000
0001
0300
1000
0100
2000
0000
0000
0000
0001
3000
0020
0000
0000
0030
0020
0030
0200
0000
0000
0300
0002
0000
0000
0000
0010
0003
2000
0000
,
0000
0000
0100
3000
0020
0000
0000
0000
0001
0000
0000
0000
1000
0000
0000
0000
0000
0000
0001
0030
2000
3000
2000
3000
0200
0000
0000
0000
0010
0000
0000
0000
,
0000
0000
1000
0000
0010
0000
0000
0000
0001
0000
0000
1000
0000
0000
0010
0000
0000
0000
1000
0300
0001
0000
0000
0000
1000
0000
0100
0000
0010
0000
0001
0000
,
1000
0100
0010
0001
1000
0010
0100
0001
0010
0001
0100
0001
0010
0001
0100
0010
,
1000
0001
0010
0100
1000
0001
0010
0100
1000
0001
0100
0010
1000
0100
0010
0100
,
1000
0010
0100
1000
0100
0010
1000
0100
0010
0001
0010
0100
1000
0010
0100
0001
,
0010
0001
0100
0001
0010
0100
1000
0010
0100
0001
0010
0001
0100
0010
1000
0100
,
0010
0001
1000
0100
0010
0001
0010
0100
1000
0001
0100
0010
1000
0100
0010
0001
,
0100
0010
1000
0001
0010
0100
1000
0001
0010
0001
0100
0010
1000
0100
1000
0010
,
0100
0001
0010
0001
0100
0010
1000
0100
0010
0100
1000
0001
1010
0000
0000
0101
,
0000
0000
0110
0000
0000
1010
0000
0000
1001
0000
0011
0000
1000
0100
0010
0001
,
1000
0100
0010
0101
1000
0011
0100
0001
0010
0001
1100
1000
0001
0100
0010
1000
,
0100
1000
0010
0100
0001
0010
0001
1000
0100
0010
0001
1000
0010
0100
0001
0010
,
0001
0100
0010
1000
0100
1000
0001
0010
0100
1000
0010
0100
0001
0010
0100
1000
,
0010
0100
0001
0010
0001
0100
0010
1000
0100
1000
0100
0010
0001
1000
0100
0010
,
0100
1000
0010
0100
1000
0100
0010
1000
0010
0100
0001
0010
0001
0000
1000
0000
,
0010
0000
0100
0001
0100
0000
0001
0000
0010
0100
1000
0000
0011
0000
0000
1000
,
0100
0000
0000
0000
1100
0000
0000
0000
0000
0000
0001
0000
0010
0000
0000
0000
0101
0000
0000
0000
1000
0000
0000
0000
0011
0000
1000
0011
0000
0000
0000
1000
,
0011
0000
0000
0000
0010
0000
0101
0000
0000
0000
1000
0000
0011
0000
1000
0000
0101
0000
0000
0000
0000
0000
0000
0000
0000
0000
0000
0000
0000
0000
0100
0010
0100
0000
0001
0000
1000
0000
0100
0000
0000
0000
1000
0000
0000
0000
0010
0000
1100
0000
0000
0000
0100
0000
0011
0000
0000
0000
1000
0000
0101
0000
0000
0000
,
0000
0000
0000
0000
0000
0000
0001
0000
0010
0000
0100
0000
0000
0000
1000
0010
0100
0000
0000
0000
0000
0000
0000
0000
0000
0000
0000
0000
0000
0000
0000
0000
0100
0010
1000
0010
0100
0001
0010
0100
1000
0100
0010
0001
1000
0010
0100
0010
1000
0000
0000
0000
0000
0000
0001
0000
0000
0000
0000
0000
0110
0000
0000
0000
,
0000
1000
0000
0000
0100
0000
0100
0000
1001
0000
0000
0010
0000
0000
1100
0000
0000
0001
0000
0000
0010
0000
0100
0000
0101
0000
0000
1000
0000
0000
0011
0000
,
0000
0100
0000
0000
1000
0000
1000
0000
0011
0000
0000
1000
0000
0000
0110
0000
0000
0010
0000
0000
0100
0000
0100
0000
0011
0000
0000
1000
0000
0000
0101
0000
,
0000
0100
0000
0000
1010
0000
0100
0000
0100
0000
0000
0001
0000
0000
1100
0000
0000
0010
0000
0000
0100
0000
0100
0010
1001
0000
0000
0001
0000
0000
0101
0000
,
0000
0000
1000
0000
0000
0000
0000
0000
1001
0000
0000
0000
1000
0000
0000
0000
0100
0000
0000
0100
1000
0000
0100
0000
0000
0100
0010
0000
0101
0000
1010
0000
0100
0000
0000
0000
0000
0000
0000
0000
1000
0000
0000
0000
0010
0000
0000
0000
0100
0000
0000
0000
0000
0000
0000
0000
0010
0000
0000
0000
0000
0000
0000
0000
,
0100
0001
0010
0000
0100
0000
1000
0010
0100
0000
0010
1000
0100
0000
0010
0000
,
0100
1000
0100
0000
1100
0000
0101
0000
0010
0000
0001
0100
0010
0000
0100
0000
,
0010
1000
0100
0000
0010
0000
0001
0100
0010
0000
0100
0001
0010
0000
0100
0000
,
0010
0001
0010
0000
0101
0000
1100
0000
0001
0000
0100
0010
1000
0000
0010
0000
,
0100
0010
1000
0000
0001
0000
0100
0010
1000
0000
0010
0100
0001
0000
1000
0000
,
0001
0100
0001
0000
1100
0000
0110
0000
0001
0000
0100
0001
1000
0000
0001
0000
,
0100
0010
1000
0000
0001
0000
0100
0010
1000
0000
0001
0100
0010
0000
1000
0000
,
0001
0100
0001
0000
1100
0000
1010
0000
0100
0000
0010
1000
0011
0000
1000
0000
,
0100
0000
0010
0000
0001
0000
0100
0000
0010
0000
1000
0001
1100
0000
0001
0000
,
0010
0000
0100
0000
1010
0000
0101
0000
1000
0000
0010
1000
0101
0000
1000
0000
,
0001
0000
0100
0000
0010
0000
1000
0000
0010
0000
0100
0001
1100
0000
0010
0000
,
0100
0000
0001
0000
1010
0000
0101
0000
0100
0000
0010
1000
0101
0000
1000
0000
,
0100
0000
0010
0000
0001
0000
0100
0000
0010
0000
1000
0100
1010
0000
0100
0000
,
0010
0000
0001
0000
1100
0000
0101
0000
1100
0000
0001
0010
0101
0000
0010
0000
,
0001
1000
0001
0000
1010
0000
0001
0000
0010
0100
1000
0010
0100
0001
0100
0010
,
0100
0001
1000
0010
0100
0010
1000
0010
2200
0000
0000
0000
3300
0000
0000
0000
;

//---------------dance-single - ----------------
#NOTES:
     dance-single:
     :
     Hard:
     10:
     0.865,1.000,0.154,0.115,1.000,752.000,20.000,15.000,0.000,0.000:
0000
0000
0000
0000
,
0010
1000
0100
0010
0001
1000
0100
0010
0001
0100
0010
1000
0001
0100
0010
0100
,
0001
0100
0010
1000
0010
0100
0010
1000
0100
0010
0001
1000
0100
0010
0001
0010
,
0001
1000
0100
1000
0010
0100
0010
1000
0100
0010
0100
1000
0010
0100
0010
1000
,
0010
0000
0000
0000
0100
0000
0000
0000
0001
0000
0000
0000
0010
0000
0000
0000
0001
0000
0000
0000
0100
0000
0000
0000
0010
0000
0000
0000
0100
0000
0000
0000
0001
0000
0000
0010
0000
0000
0100
0000
0000
1000
0000
0000
0001
0100
0010
0000
1000
0000
0000
0000
0010
0000
0000
0000
0100
0000
0000
0000
0001
0000
0000
0000
,
1000
0000
0010
0100
0010
1000
0010
0000
0100
0001
1000
0010
0100
0000
0001
0010
,
0100
1000
0100
0000
0010
0001
0010
0100
1000
0000
1001
0000
0001
0100
0010
1000
,
0100
0000
1000
0100
0010
0001
0100
0000
0010
1000
0001
0100
0010
0000
1000
0001
,
1000
0010
0100
0000
0010
0100
0010
1000
0001
0000
0110
0000
0100
1000
0100
0010
,
0001
0000
0010
0001
0010
0100
0010
0000
0001
0010
0100
0010
0001
0000
1000
0010
,
0100
0001
1000
0000
0010
1000
0001
0100
0010
0000
1010
0000
1000
0100
0010
0001
,
1000
0000
0001
0010
0100
1000
0001
0000
1000
0010
0100
0001
1000
0000
0100
0010
,
0000
0010
0100
0000
0100
1000
0000
1000
0010
0000
0101
0000
0001
1000
0010
0100
,
0001
0000
1000
0100
0010
0001
1000
0000
0001
1000
0001
0100
0001
0000
0010
0001
,
0010
0100
1000
0000
0010
0100
0001
0010
0100
0000
1100
0000
1000
0010
0100
0001
,
1000
0000
0010
0100
0001
1000
0100
0000
0010
0001
0100
0001
0010
0000
0100
1000
,
0010
0100
0001
0000
1000
0100
0010
0001
1000
0000
0101
0000
0001
0010
0100
1000
,
0010
0000
0100
0001
1000
0010
0100
0000
0001
0100
0010
1000
0100
0000
0100
0010
,
0001
0100
0010
0000
0010
1000
0010
0100
0001
0000
1001
0000
0001
0100
0010
1000
,
0100
0000
0010
0001
0010
0100
0010
0000
0010
0001
0100
0010
1000
0000
1000
0001
,
0000
0001
0010
0000
0010
0100
0000
0100
1000
0000
0001
0000
0020
0000
0001
0000
,
0000
0000
1000
0000
0031
0000
0100
0010
0200
0000
0000
0000
0001
0300
2000
0000
0000
0000
0001
3000
0020
0000
0000
0030
0200
0000
0000
0000
1000
0000
0000
0000
,
0000
0000
0010
0000
1300
0000
0010
0001
0020
0000
0000
0000
0001
0030
2000
0000
0000
0000
3100
0000
0020
0000
0000
0030
0002
0000
0000
0000
1000
0003
0200
0000
,
0300
0000
1000
0000
0020
0000
0000
0000
0100
0000
0000
0000
1000
0000
0000
0000
0000
0000
0100
0030
0002
0000
0000
0003
0200
0000
0000
0000
1000
0000
0000
0000
,
0000
0000
0001
0000
1000
0000
0000
0000
0010
0000
0000
0001
0000
0000
0010
0000
0000
0000
0010
0300
0011
0000
0000
0000
1000
0000
0010
0000
1000
0000
0100
0000
,
1000
0010
1000
0100
1000
0010
1000
0100
1000
0010
1000
0100
0010
0001
0100
0001
,
0010
0001
0100
0010
0100
0001
0100
0010
0100
0001
1000
0001
1000
0010
1000
0001
,
1000
0010
1000
0001
1000
0010
1000
0001
1000
0010
1000
0100
0010
0001
0010
0100
,
0010
0001
1000
0001
1000
0001
1000
0001
0100
0010
1000
0010
1000
0001
0100
0001
,
1000
0001
0100
0010
0100
0010
0100
0010
0100
0001
1000
0010
0100
0001
1000
0010
,
0100
0001
1000
0010
0100
0001
1000
0010
0100
0010
0100
0010
0100
0001
0010
0100
,
1000
0001
0010
0100
1000
0001
0010
0100
1000
0001
0010
0100
1000
0000
1000
0001
,
0000
0001
0010
0000
0010
0100
0000
0100
1000
0000
0101
0000
1000
0100
0010
0001
,
1000
0100
0010
0001
1000
0001
1000
0001
0010
0100
1000
1000
0010
0100
0001
1000
,
0001
0000
0001
0100
0010
1000
0100
1000
0100
0000
0100
1000
0010
0100
0010
1000
,
0100
0000
0100
1000
0100
0010
0100
1000
0010
0000
0010
0100
0001
0010
0100
1000
,
0010
0000
0010
0100
0010
1000
0001
0100
0010
0000
0010
1000
0100
0010
0001
1000
,
0001
0000
0001
1000
0010
0100
0010
1000
0001
0000
0001
0010
0100
1000
0010
1000
,
0100
0000
0100
0010
0001
0010
0100
1000
0001
0000
0001
0010
0100
0000
0100
1000
,
0000
0000
1000
0000
0100
0000
0000
0000
0100
0000
0010
0000
0000
0000
0010
0000
0001
0000
1000
0000
0001
0000
1000
0000
0001
0000
0000
0101
0000
0000
0000
1000
,
0001
0000
0000
0000
0000
0000
0010
0000
0000
0000
0000
0000
0100
0000
0000
0000
0011
0000
0000
0000
0000
0000
0000
0000
0000
0000
0000
0000
0000
0000
0001
0010
0100
0000
1000
0000
0001
0000
0100
0000
0000
0000
0010
0000
0000
0000
1000
0000
0001
0000
0000
0000
0001
0000
0010
0000
0000
0000
0010
0000
0100
0000
0000
0000
,
0000
0000
0000
0000
0000
0000
0100
0000
1000
0000
0100
0000
0000
0000
0010
0001
0010
0000
0000
0000
0000
0000
0000
0000
0000
0000
0000
0000
0000
0000
0000
0000
1000
0100
0010
0001
1000
0100
0010
0001
1000
0100
0010
0001
1000
0100
0010
0001
1000
0000
0000
0000
0000
0000
0000
0000
0000
0000
0000
0000
1100
0000
0000
0000
,
0000
0000
0000
0010
0101
0000
0000
1100
0000
0000
0110
0000
0101
0000
0000
0000
,
0000
0000
0000
0000
0000
0000
0010
1000
0100
0000
0010
0000
0001
0000
1000
0000
0000
0000
0001
0000
0000
0000
0010
0000
1100
0000
0000
0000
0100
0000
1010
0000
,
0000
0000
0010
0000
0101
0000
0000
0000
0000
0000
0000
0000
0000
0000
1000
0000
0001
0000
1000
0000
0000
0000
0001
0010
0100
0000
0000
1000
0000
0000
0100
0000
,
0000
0000
1000
0000
0000
0000
0000
0000
0100
0000
0000
0000
1000
0000
0000
0000
0100
0000
0000
0010
0001
0000
0010
0000
0000
0100
1000
0000
0100
0000
0010
0000
0100
0000
0000
0000
0000
0000
0000
0000
0010
0000
0000
0000
0001
0000
0000
0000
0010
0000
0000
0000
0000
0000
0000
0000
0100
0000
0000
0000
0000
0000
0000
0000
,
1000
0000
0100
0000
0010
0000
0001
0000
0010
0000
0001
0010
0100
0000
1000
0000
,
0010
0000
0100
0000
0001
0000
0001
0000
0010
0000
0100
1000
0100
0000
0010
0000
,
0001
0000
0100
0000
0010
0000
1000
0000
0100
0000
0010
0001
0010
0000
0001
0000
,
1000
0000
0010
0000
0100
0000
0100
0000
0001
0000
0010
0001
0010
0000
0100
0000
,
1000
0000
0010
0000
0100
0000
0001
0000
0010
0000
0001
0100
0001
0000
1000
0000
,
0010
0000
0100
0000
0010
0000
0010
0000
1000
0000
0100
1000
0100
0000
0010
0000
,
0100
0000
0010
0000
0001
0000
0010
0000
0100
0000
0000
1000
0100
0000
0010
0000
,
0000
0001
0010
0000
0100
0000
1000
0000
0010
0000
0100
0010
0100
0000
0001
0000
,
1000
0000
0001
0000
0100
0000
0010
0000
1000
0000
0001
0010
0001
0000
1000
0000
,
0100
0000
0010
0000
0001
0000
0001
0000
0010
0000
0100
1000
0100
0000
0010
0000
,
0001
0000
1000
0000
0010
0000
0100
0000
0001
0000
1000
0100
1000
0000
0001
0000
,
1000
0000
0010
0000
0100
0000
0100
0000
0001
0000
0010
0001
0010
0000
0100
0000
,
1000
0000
0010
0000
0100
0000
0001
0000
0010
0000
0001
0100
0001
0000
1000
0000
,
0001
0000
0010
0000
0100
0000
1000
0000
0010
0000
0100
0010
0100
0000
0001
0000
,
1000
0100
1000
0000
0010
0000
0100
0000
0010
0000
0000
1000
0001
0000
0001
0000
,
0000
1000
0010
0000
0100
0000
0010
0000
2002
0000
0000
0000
3003
0000
0000
0000
;

//---------------dance-single - ----------------
#NOTES:
     dance-single:
     :
     Medium:
     7:
     0.568,0.713,0.031,0.131,0.289,496.000,4.000,17.000,0.000,0.000:
0000
0000
0000
0000
,
0001
1000
0010
0000
0100
0001
0000
0010
0100
0000
1000
0100
0000
0010
0001
0010
,
0001
1000
0010
0000
0100
0010
0000
1000
0001
0000
0100
0001
0000
1000
0100
0010
,
0100
0010
0001
0000
0010
0001
0000
0010
0100
0000
1000
0010
0000
1000
0100
0010
,
0001
0000
0000
0000
0100
0000
0000
0000
0010
0000
0000
0000
0000
0000
0000
0000
1000
0000
0000
0000
0010
0000
0000
0000
0000
0000
0000
0000
0100
0000
0000
0000
0002
0000
0000
1000
0000
0000
0010
0000
0000
0100
0000
0000
1000
0000
0100
0000
1003
0000
0000
0000
0000
0000
0000
0000
0100
0000
0000
0000
0000
0000
0000
0000
,
0010
0001
0100
0010
1000
0100
1000
0001
,
0010
0100
0010
0100
0010
0010
0001
1000
,
0010
0100
0001
1000
0100
0010
0001
0100
,
0010
1000
0100
1000
0100
0100
0010
0001
,
0100
0010
1000
0100
0010
0001
0100
0010
,
1000
0100
0010
0100
1000
1000
0001
0100
,
0010
1000
0100
0010
0100
1000
0001
0000
,
1000
0010
0000
0100
0001
0010
0100
1000
,
0001
0100
0010
0001
0010
1000
0100
0010
,
0001
0100
0010
1000
0100
0100
0010
0001
,
0100
0010
1000
0100
1000
0001
0010
1000
,
0010
0100
1000
0001
0010
0010
0001
0100
,
0010
1000
0100
0010
0100
1000
0001
0100
,
0010
1000
0001
0010
0100
0100
1000
0100
,
0010
0001
0100
0010
1000
0010
0100
0000
,
0100
0001
0000
0001
0010
0100
2000
0000
,
0000
0000
3000
0010
0200
0000
0300
2000
0000
0000
3002
0000
0203
0000
0000
0000
,
0000
0000
0300
1000
0200
0000
0000
0320
0000
0000
0032
0000
2003
0000
0000
3020
,
0000
0230
0000
0000
0000
0320
2030
0000
,
0000
0000
0000
0000
0000
0000
0000
0000
0000
0000
0000
0000
0010
0000
0000
0000
0000
0000
0000
0000
0000
0100
0000
0000
0000
0000
0000
0000
3000
0000
0001
0000
0000
0000
0000
0000
1000
0000
0000
0000
0000
0000
0100
0000
0000
0000
0000
0000
,
0010
0001
0100
0010
1000
0100
0010
0001
,
0010
0100
1000
0100
1000
0010
0001
0010
,
1000
0100
0010
0001
0100
0010
1000
0100
,
0010
0100
0001
0100
1000
0001
0100
0010
,
1000
0001
0010
1000
0001
0010
0100
0010
,
1000
0100
0010
0001
0100
0010
1000
0100
,
0010
0001
0010
0100
0010
0001
1000
0000
,
0001
0000
0010
0000
0000
0000
0001
0000
0100
0000
0010
0000
1000
0100
0010
0001
,
0100
0010
1000
0100
1000
0100
1000
0001
0010
0001
0100
0000
1000
0000
0001
0000
,
0100
0010
1000
0100
0010
0100
0001
0100
,
1000
0001
0100
0010
1000
0100
0001
0100
,
1000
0001
0010
0100
1000
0001
0010
0100
,
1000
0010
0001
0010
1000
0100
0010
0001
,
0100
0010
0001
0010
1000
0100
0010
0000
,
0100
0000
0000
0000
1000
0000
0000
0000
0000
0000
0000
0000
0001
0000
0000
0000
0100
0000
0000
0000
0010
0000
0000
0000
1000
0000
0000
1000
0000
0000
0000
0100
,
1000
0000
0000
0010
0000
0000
0100
0000
0010
0000
0000
0000
0000
0000
0000
1000
0010
0001
0100
0010
0000
1000
0000
0001
1000
0000
0000
0010
0000
0000
0100
0000
,
0000
0000
0000
0100
0001
0100
0000
0010
1000
0000
0000
0000
0000
0000
0000
0000
1000
0010
0100
0001
1000
0100
0010
0001
0010
0000
0000
0000
0100
0000
1000
0000
,
0000
0000
0000
1000
0100
0000
0100
1000
0000
1000
0100
0100
0010
0000
0000
0000
,
0000
0000
0000
0001
0010
0100
1000
0001
0000
0010
0000
0100
0101
0000
0000
1001
,
0000
0000
1010
0000
0000
0000
0000
0100
0001
0100
0000
0010
1000
0000
0000
0000
,
0000
0000
0000
1000
0200
0000
0000
0000
1300
0000
0100
0000
0010
0000
0100
0000
,
1000
0010
0100
1000
0100
0010
1000
0100
,
0010
0001
0010
0010
0100
0010
0001
0010
,
0001
1000
0010
0100
0001
0100
0001
0010
,
0100
1000
0001
0001
0010
0100
1000
0010
,
0100
0001
0010
0001
0100
0010
1000
0001
,
0100
0001
0100
0100
0010
1000
0010
0100
,
0010
0100
0001
0100
0001
0000
0010
0100
,
0000
1000
0001
0100
0010
0100
0010
1000
,
0001
0100
0010
1000
0010
0100
0001
1000
,
0010
0100
0001
0001
0010
0001
0100
0010
,
0001
0010
1000
0100
0010
0100
1000
0010
,
0100
1000
0100
0100
0001
0100
0010
0001
,
0100
0010
0001
1000
0010
0100
1000
0001
,
0100
0010
1000
1000
0010
0001
0010
0100
,
1000
0100
0010
0001
0100
0000
0010
0001
,
0000
0100
0010
0100
2002
0000
3003
0000
;

//---------------dance-single - ----------------
#NOTES:
     dance-single:
     :
     Easy:
     5:
     0.299,0.356,0.023,0.123,0.089,253.000,3.000,16.000,0.000,0.000:
0000
0000
0000
0000
,
1000
0000
0100
0000
0000
0010
0000
0000
0001
0000
0000
1000
0000
0000
0001
0100
,
0001
0000
1000
0000
0000
0010
0000
0000
0100
0000
0000
0001
0000
0000
1000
0001
,
1000
0000
0010
0000
0000
0100
0000
0000
0001
0000
0000
1000
0000
0000
0010
0100
,
0010
0000
1000
0000
0000
0001
0000
0000
0020
0000
0000
0000
0031
0000
0000
0000
,
1000
0000
0000
1000
0000
0000
0010
0000
,
0000
0010
0000
0000
0100
0010
0100
0000
,
0001
0000
0000
0010
0000
0000
0100
0000
,
0000
1000
0000
0000
0001
0010
0001
0000
,
1000
0000
0000
0010
0000
0000
0100
0000
,
0000
0001
0000
0000
1000
0001
1000
0000
,
0001
0000
0000
0100
0000
0000
0010
0000
,
0000
0100
0000
0000
0010
1000
0010
0000
,
0100
0000
0000
0001
0000
0000
1000
0000
,
0000
0001
0000
0000
0100
0010
0100
0000
,
0010
0000
0000
1000
0000
0000
0001
0000
,
0000
0100
0000
0000
0010
1000
0010
0000
,
1000
0000
0000
0001
0000
0000
0100
0000
,
0000
0010
0000
0000
1000
0100
1000
0000
,
0010
0000
0000
0100
0000
0000
0001
0000
,
0000
1000
0000
0000
0010
0000
0200
0000
,
0000
0000
0000
0300
0002
0000
0003
2000
0000
3000
0200
0300
0020
0000
0000
0000
,
0000
0000
0000
0030
0200
0000
0300
2000
0000
3000
0200
0300
2000
0000
3000
0020
,
0000
0030
0200
0000
0000
0000
0000
0000
0000
0300
0002
0003
2000
0000
0000
0000
,
0000
0000
0000
0000
0000
0000
0000
0000
0000
3000
0001
0000
1000
0000
0000
0000
,
0010
0100
0001
1000
,
0001
0010
0100
1000
,
0001
0100
0010
1000
,
0001
0010
0100
1000
,
0001
0100
0010
1000
,
0100
0010
0001
0010
,
0100
1000
0001
0100
,
0000
0010
0000
0000
1000
0001
1000
0010
,
0000
0100
0000
0000
0001
0000
0000
0010
0000
0000
0100
0000
1000
0000
0000
0000
,
0001
0000
0000
0100
0010
0000
1000
0000
,
0001
0000
0000
0010
0100
0000
1000
0000
,
0001
0000
0000
0100
0010
0000
1000
0000
,
0100
0000
0000
0010
0100
0000
1000
0000
,
0001
0100
0010
0100
,
0000
0000
0000
0000
0010
0000
0000
0000
0000
0000
0000
0000
0000
0000
0000
0000
1000
0000
0000
0000
0100
0000
0000
0000
1000
0000
0000
0010
0000
0000
0000
0000
,
0100
0000
0000
0001
0000
0000
1000
0000
0010
0000
0000
0000
0000
0000
0000
0000
0000
0000
0000
0000
0000
0000
0000
0000
1000
0000
0000
0001
0000
0000
0010
0000
,
0000
0000
0000
0000
0001
0000
0000
0000
1000
0000
0100
0000
1000
0000
0000
0010
,
0000
0000
0000
0000
0100
0000
0000
0001
0000
0000
1000
0000
0100
0000
0000
0000
,
0000
0000
0000
0000
0000
0000
0000
0000
0000
0000
0000
0000
1001
0000
0000
0110
,
0000
1001
0000
0000
0010
0000
0100
0000
,
0000
2000
3001
1000
,
0000
0001
0000
0000
0100
0000
0000
0010
,
0000
0000
1000
0001
1000
0000
0010
0000
,
0000
0100
0000
0000
0001
0000
0000
1000
,
0000
0000
0010
1000
0010
0000
0100
0000
,
0000
0001
0000
0000
1000
0000
0000
0010
,
0000
0000
0100
0010
0100
0000
0001
0000
,
0000
1000
0000
0000
0010
0000
0000
0100
,
0000
0000
0001
1000
0001
0000
0100
0000
,
0010
1000
0000
0001
0100
0000
0001
1000
,
0000
0001
0010
0001
0000
1000
0001
0000
,
0010
0100
0000
1000
0001
0000
0100
0010
,
0000
1000
0001
1000
0000
0100
0010
0000
,
0001
1000
0000
0010
0100
0000
0001
1000
,
0000
1000
0010
1000
0000
0001
0100
0000
,
0010
1000
0000
0001
0100
0000
0010
0100
,
0000
0010
0100
0010
2000
0000
3000
0000
;
