#TITLE:Dirty Pop;
#SUBTITLE:Sexuality Violation;
#ARTIST:'N Sync;
#TITLETRANSLIT:;
#SUBTITLETRANSLIT:;
#ARTISTTRANSLIT:;
#CREDIT:;
#BANNER:Dirty Pop-bn.png;
#BACKGROUND:Dirty Pop-bg.png;
#LYRICSPATH:;
#CDTITLE:GazeboCD.png;
#MUSIC:Dirty Pop.ogg;
#OFFSET:-1.204;
#SAMPLESTART:37.461;
#SAMPLELENGTH:24.500;
#SELECTABLE:YES;
#BPMS:0.000=240.085;
#STOPS:;
#BGCHANGES:;
// cache tags:
#FIRSTBEAT:4.000;
#LASTBEAT:731.000;
#SONGFILENAME:Songs/Sexuality Violation 2/Dirty Pop - [Gazebo]/Dirty Pop.sm;
#HASMUSIC:1;
#HASBANNER:1;
#MUSICLENGTH:185.155;
// end cache tags

//---------------dance-single - Gazebo----------------
#NOTES:
     dance-single:
     Gazebo:
     Challenge:
     14:
     0.964,1.000,0.718,0.151,0.618,1049.000,133.000,28.000,66.000,31.000:
0000
0000
0000
0000
,
2000
3000
0000
0000
0000
0000
2000
3000
,
0000
0000
0000
0000
0010
0000
0000
0100
,
0001
0010
0100
1000
0010
0100
0001
0000
0000
1000
0000
0000
,
0100
0010
0001
0000
0001
0000
0000
0000
,
1000
0100
1100
1000
,
0001
0000
0100
0010
0000
0000
0010
0000
,
1000
0000
0001
1000
0000
0000
0100
0000
,
1100
0000
0000
0000
,
1000
0000
0001
1000
0000
1000
0010
0000
,
0100
0000
0000
0001
0000
0000
0001
0000
,
1000
0001
1000
0100
0000
1000
0010
0000
,
1010
0000
0000
0000
,
1000
0001
0101
0100
,
0010
0000
0010
1000
0000
0000
0001
1000
,
0001
0100
0001
1000
0000
0000
0100
0000
,
1200
0000
0000
0300
,
1000
0100
0000
1000
0001
0000
0001
0000
,
0100
0000
0010
1000
0000
0010
1000
0100
,
0010
0000
0001
0010
0001
0000
1000
0000
,
1001
0000
0001
0100
0010
0000
1000
0000
,
0001
0010
0001
0010
0001
0010
0001
0010
0001
0000
0000
0000
1000
0000
0001
0000
,
1000
0000
0001
0200
0000
0000
0310
1000
,
0010
0000
1000
0002
0000
0000
0013
0000
,
0110
0000
0100
1000
,
0001
0100
0001
0100
0001
0100
0001
0100
0001
0000
1000
0000
0001
0000
0100
0000
,
0001
0000
1000
0200
0000
0000
1300
0001
,
0100
0000
0001
0200
0000
0000
0310
0000
,
0110
0100
0001
1000
,
0001
0010
0001
0010
0001
0010
0001
0010
0001
0000
0000
0000
1000
0000
0001
0000
,
1000
0000
1000
0020
0000
0000
0130
0000
,
0001
0000
1000
0002
0000
0000
0013
0000
,
0110
0000
0100
1000
,
0001
0100
0001
0100
0001
0100
0001
0100
0001
0000
0000
0000
1000
0000
0001
0000
,
1000
0000
1000
0000
0011
0000
0001
1000
,
0001
0100
0010
1000
0001
0000
1000
0200
,
0000
0000
1300
0010
0110
0000
1001
0000
,
1000
0100
1000
0001
0010
0001
1000
0010
0100
0001
1000
0001
0010
0100
1000
0001
,
1000
0000
0001
0100
0101
0000
1010
0000
,
0001
0100
0001
1000
0010
1000
0001
0010
0100
1000
0001
1000
0010
0100
0001
1000
,
0001
0000
1000
0100
1100
0000
0011
0000
,
0001
0010
0100
0010
0001
1000
0001
0100
0010
1000
0001
0100
0001
0010
0100
1000
,
0001
0000
1000
0010
1010
0000
0110
0000
,
M111
0000
111M
0000
,
M111
0000
111M
0000
,
0001
0100
0001
1000
0010
1000
0001
0010
0100
1000
0001
1000
0010
0100
0001
1000
,
0001
0000
1000
0100
1100
0000
0011
0000
,
1000
0100
1000
0001
0010
0001
1000
0010
0100
0001
1000
0001
0010
0100
1000
0001
,
1000
0000
0001
0100
0101
0000
1010
0000
,
1000
0010
0100
0010
1000
0001
1000
0100
0010
0001
1000
0100
1000
0010
0100
0001
,
1000
0000
0001
0010
0011
0000
0110
0000
,
111M
0000
0000
M111
0000
0000
1111
0000
,
0000
0000
MMM1
0000
,
1001
0000
1000
0010
1000
0010
0100
0000
,
0001
0000
0000
0000
0001
0000
1000
0000
0000
0000
0000
0000
0100
1000
0100
1000
,
0001
0010
0000
0001
0010
0001
1000
0000
,
1010
0000
0000
0100
0001
0000
0000
0000
,
1000
0100
1000
0001
1000
0000
0010
0000
,
0100
0000
0100
0001
0000
1000
0000
0000
,
1100
0000
0000
1100
0000
0000
1100
0000
,
0004
0000
1003
0000
,
0001
0100
0001
1000
0001
0000
0000
0100
,
0001
0000
1000
0002
0000
0000
0000
1003
,
0100
0000
1000
0002
0000
0000
0013
0000
,
0110
0000
0100
0000
1000
0000
0000
0001
,
1000
0010
1000
0001
,
1000
0000
1000
0200
0000
0000
0310
0001
,
0010
0000
0001
1000
0000
0000
0001
0000
,
1010
0000
0010
0000
1000
0100
0010
0001
,
1000
0000
1000
0002
0000
0000
0103
0000
,
0010
0000
0010
2000
0000
0000
3001
0000
,
0010
0000
0010
0200
0000
0000
1300
0000
,
1001
0000
0001
0010
0001
0000
0100
0010
,
1000
0001
1000
0000
0010
0000
1000
0001
,
0000
0100
0001
0000
0020
0000
0000
0031
,
1000
0000
0100
2000
0000
0000
3001
0000
,
1100
0001
0010
0100
,
1000
0010
1000
0010
1000
0010
1000
0010
1000
0000
0000
0000
0001
0000
1000
0000
,
0001
0000
1000
0200
0000
0000
0310
0001
,
0010
0000
0001
2000
0000
0000
3010
0000
,
0110
0000
0100
0001
,
1000
0100
1000
0100
1000
0100
1000
0100
1000
0000
0001
0000
1000
0000
0100
0000
,
1000
0000
0001
0200
0000
0000
0301
1000
,
0100
0000
1000
0200
0000
0000
0310
0000
,
0410
0000
1300
0001
,
1000
0010
1000
0010
1000
0010
1000
0010
1000
0000
0000
0000
0001
0000
1000
0000
,
0001
0001
0010
0100
,
1000
0000
0001
2000
0000
0000
3010
0000
,
0110
0000
0100
0001
,
1000
0100
1000
0100
1000
0100
1000
0100
1000
0000
0000
0000
0001
0000
1000
0000
,
0001
0000
0001
0000
1010
0000
1000
0001
,
1000
0100
0010
0001
1000
0000
0001
0200
,
0000
0000
0301
0010
0110
0000
1001
0000
,
0001
0100
0001
1000
0010
1000
0001
0010
0100
1000
0001
1000
0010
0100
0001
1000
,
0001
0000
1000
0100
1100
0000
0011
0000
,
1000
0100
1000
0001
0010
0001
1000
0010
0100
0001
1000
0001
0010
0100
1000
0001
,
1000
0000
0001
0100
0101
0000
1010
0000
,
1000
0010
0100
0010
1000
0001
1000
0100
0010
0001
1000
0100
1000
0010
0100
0001
,
1000
0000
0001
0010
0011
0000
0110
0000
,
111M
0000
M111
0000
,
111M
0000
M111
0000
,
1000
0100
1000
0001
0010
0001
1000
0010
0100
0001
1000
0001
0010
0100
1000
0001
,
1000
0000
0001
0100
0101
0000
1010
0000
,
0001
0100
0001
1000
0010
1000
0001
0010
0100
1000
0001
1000
0010
0100
0001
1000
,
0001
0000
1000
0100
1100
0000
0011
0000
,
0001
0010
0100
0010
0001
1000
0001
0100
0010
1000
0001
0100
0001
0010
0100
1000
,
0001
0000
1000
0010
1010
0000
0110
0000
,
M111
0000
0000
111M
0000
0000
1111
0000
,
0000
0000
1MMM
0000
,
000M
0000
0M00
0000
,
00M0
0000
0000
0000
0000
0000
0000
0000
0000
0000
0M00
0000
0000
000M
0000
0000
,
M000
0M00
00M0
000M
0000
0000
0M00
0000
,
0000
000M
0000
M000
,
0000
00M0
0000
0M00
,
0000
0000
0000
0001
0100
0010
1000
0100
0010
0001
0000
0000
,
1MM1
0000
1000
0000
0011
0000
1000
0100
,
0000
1000
0001
0000
0011
0000
0000
0000
,
1001
0000
0001
1000
0010
0100
0000
0010
,
1000
0100
1000
0001
0010
0100
1MM1
0000
,
1MM1
0000
0001
0100
0010
1000
0000
0001
,
0000
0001
0000
0001
0010
0000
0000
0000
,
1100
0000
0000
0000
1000
0000
1001
0000
0000
0000
0001
0000
0101
0000
0100
0010
,
1000
0001
1000
0001
0010
0100
0010
0100
,
1MM1
0000
1000
0000
0001
0100
0000
4010
,
0000
3010
1000
0000
0001
0010
0000
0001
,
1001
0000
1001
0000
1000
0010
0000
0110
,
0000
0100
0001
0000
1000
0100
0010
0001
,
1001
0000
0001
1000
0010
1000
0001
0100
,
0001
0010
0100
1000
0100
0010
0001
1000
,
1010
1010
1010
1010
,
1010
0000
0001
0000
1000
0100
1000
0000
0001
0000
0010
0000
0100
0000
1000
0000
,
1MM1
0000
0001
0100
0001
0010
0000
4100
,
0000
3100
1000
0000
0001
0100
0001
1000
,
0010
0000
0010
0100
0010
1000
0001
0010
,
0100
0000
0000
0000
0000
0000
0100
0000
0000
1000
0000
0000
0001
0000
0000
0000
0100
0000
0000
0000
0001
0000
0000
0000
,
1001
0000
4000
0000
3010
1000
0000
0101
,
0000
0001
0000
1000
0100
0010
0001
1000
,
0001
0000
0100
0002
0000
0003
0100
0004
,
0000
0003
0100
0002
0000
0003
0100
0001
,
2MM1
3000
0000
0000
0000
0000
2000
3000
,
0000
0000
0000
0000
0000
0000
0010
1000
0001
1000
0000
0000
,
0001
0010
0001
0010
0000
1100
0000
1000
,
0001
0100
0010
1000
0000
0000
1000
0000
0000
0000
0000
0000
,
0001
0100
0010
0100
0010
0100
0010
0100
,
0001
0010
0100
1000
0100
1000
0100
1000
,
0001
0000
0400
0000
0000
0000
0000
0300
,
1M1M
0001
1M1M
0001
,
1M1M
0000
111M
0000
,
1111
0000
0000
0000
,
1111
0000
0000
0000
,
0000
0000
0000
0000
,
1001
0000
0000
0000
,
0000
0000
0000
0000
,
1001
1000
0001
1000
,
0001
1000
0001
1000
,
111M
0000
M111
0000
,
111M
0000
M111
0000
,
1000
0010
1000
0001
0100
0001
1000
0100
0010
0001
1000
0001
0100
0010
1000
0001
,
1000
0000
0001
0010
0011
0000
1100
0000
,
0001
0010
0001
1000
0100
1000
0001
0100
0010
1000
0001
1000
0100
0010
0001
1000
,
0001
0000
1000
0010
1010
0000
0101
0000
,
0001
0100
0010
0100
0001
1000
0001
0010
0100
1000
0001
0010
0001
0100
0010
1000
,
0001
0000
1000
0100
1100
0000
0110
0000
,
M111
0000
0000
111M
0000
0000
1111
0000
,
0000
0000
1000
0001
,
1000
0100
1000
0001
0010
0001
1000
0010
0100
0001
1000
0001
0010
0100
1000
0001
,
1000
0000
0001
0100
0101
0000
1010
0000
,
0001
0100
0001
1000
0010
1000
0001
0010
0100
1000
0001
1000
0010
0100
0001
1000
,
0001
0000
1000
0100
1100
0000
0011
0000
,
0001
0010
0100
0010
0001
1000
0001
0100
0010
1000
0001
0100
0001
0010
0100
1000
,
0001
0000
1000
0010
1010
0000
0110
0000
,
M111
0000
111M
0000
,
M111
0000
111M
0000
,
0001
0100
0001
1000
0010
1000
0001
0010
0100
1000
0001
1000
0010
0100
0001
1000
,
0001
0000
1000
0100
1100
0000
0011
0000
,
1000
0100
1000
0001
0010
0001
1000
0010
0100
0001
1000
0001
0010
0100
1000
0001
,
1000
0000
0000
0000
,
1001
0000
0100
1001
0000
0000
1001
0000
,
0001
0000
0110
0000
,
111M
0000
0000
M111
0000
0000
1111
0000
,
0000
0000
MMM1
0000
,
0000
0000
0000
0000
0000
0000
0000
0000
0000
0000
0000
0000
0000
0000
0000
0000
0000
0000
0000
0000
0000
0000
0000
0000
0000
0000
0001
0000
0000
0000
0000
0000
0000
0000
0000
0000
0000
0000
0100
0000
0000
0000
0000
0000
0000
0000
0000
0000
0000
0000
0000
0000
0000
0010
0000
0000
0000
0000
0000
0000
0000
0000
0000
0000
0000
0000
0000
0000
0000
0000
1000
0000
0000
0000
0000
0000
0000
0000
0000
0000
0000
0000
0000
0000
0000
0000
0000
0000
0000
0001
0000
0000
0000
0000
0000
0000
0000
0000
0000
0000
0000
0000
0000
0000
0000
0000
0000
0000
0000
0000
0000
0000
0000
1000
0000
0000
0000
0000
0000
0000
0000
0000
0000
0000
0000
0000
0000
0000
0000
0000
0100
0000
0000
0000
0000
0000
0000
0000
0000
0000
0000
0000
0000
0000
0000
0000
0000
0000
0000
0010
0000
0000
0000
0000
0000
0000
0000
0000
0000
0000
0000
0000
0000
0000
0000
0000
0001
0000
0000
0000
0000
0000
0000
0000
0000
0000
0000
0000
0100
0000
0000
0000
0000
0000
0000
0000
0000
0000
0000
0000
0010
0000
,
0000
0000
0000
0000
0000
0000
4000
0000
0000
0000
0000
0000
0000
0000
0000
0000
0000
0000
0000
0000
0000
0000
0000
0000
0000
0000
0000
0000
0000
0000
0000
0000
0000
0000
0000
0000
0000
0000
0000
0000
0000
0000
0000
0000
0000
0000
0000
0000
0000
0000
0000
0000
0000
0000
0000
0000
0000
0000
0000
0000
0000
0000
0000
0000
0000
0000
0000
0000
0000
0000
0000
0000
0000
0000
0000
0000
0000
0000
0000
0001
3000
0000
0000
0000
0000
0000
0000
0010
0000
0000
0000
0000
0000
0000
0000
0000
0000
0000
0001
0000
0000
0000
0000
0000
0000
0000
0000
0000
0000
1000
0000
0000
0000
0000
0000
0000
0000
0000
0000
0000
0000
0000
0000
0000
0001
0000
0000
0000
0000
0000
0000
0000
0000
0000
0000
0000
0000
0000
0000
0000
0100
0000
0000
0000
0000
0000
0000
0000
0000
0000
0000
0000
0000
0000
0000
0000
0000
0000
0000
0000
0000
0000
0000
0000
0000
0000
0000
0000
0000
0000
0000
0000
0000
0000
0000
0000
0000
0000
0000
0000
0000
0000
0000
0000
0000
0000
0000
0000
0000
0000
0000
0000
;

//---------------dance-single - Gazebo----------------
#NOTES:
     dance-single:
     Gazebo:
     Hard:
     11:
     0.845,0.987,0.729,0.151,0.559,930.000,135.000,28.000,118.000,0.000:

0000
0000
0000
0000
,
2000
3000
0000
0000
0000
0000
2000
3000
,
0000
0000
0000
0000
0010
0000
0000
0100
,
0001
0010
0100
1000
0010
0100
0001
0000
0000
1000
0000
0000
,
0100
0010
0001
0000
0001
0000
0000
0000
,
1000
0100
1100
1000
,
0001
0000
0100
0010
0000
0000
0010
0000
,
1000
0000
0001
1000
0000
0000
0100
0000
,
1100
0000
0000
0000
,
1000
0000
0001
1000
0000
1000
0010
0000
,
0100
0000
0000
0001
0000
0000
0001
0000
,
1000
0001
1000
0100
0000
1000
0010
0000
,
1010
0000
0000
0000
,
1000
0001
0101
0100
,
0010
0000
0010
1000
0000
0000
0001
1000
,
0001
0100
0001
1000
0000
0000
0100
0000
,
1200
0000
0000
0300
,
1000
0100
0000
1000
0001
0000
0001
0000
,
0100
0000
0010
1000
0000
0010
1000
0100
,
0010
0000
0001
0010
0001
0000
1000
0000
,
1001
0000
0001
0100
0010
0000
1000
0000
,
0001
0000
0010
0000
0001
0000
0010
0000
0001
0000
0010
0000
0001
0000
0000
0000
0000
0000
1000
0000
0000
0001
0000
0000
,
1000
0000
0001
0200
0000
0000
0310
1000
,
0010
0000
1000
0002
0000
0000
0013
0000
,
0110
0000
0100
1000
,
0001
0000
0100
0000
0001
0000
0100
0000
0001
0000
0100
0000
0001
0000
0000
1000
0000
0000
0001
0000
0000
0100
0000
0000
,
0001
0000
1000
0200
0000
0000
1300
0001
,
0100
0000
0001
0200
0000
0000
0310
0000
,
0110
0100
0001
1000
,
0001
0000
0010
0000
0001
0000
0010
0000
0001
0000
0010
0000
0001
0000
0000
0000
0000
0000
1000
0000
0000
0001
0000
0000
,
1000
0000
1000
0020
0000
0000
0130
0000
,
0001
0000
1000
0002
0000
0000
0013
0000
,
0110
0000
0100
1000
,
0001
0000
0100
0000
0001
0000
0100
0000
0001
0000
0100
0000
0001
0000
0000
0000
0000
0000
1000
0000
0000
0001
0000
0000
,
1000
0000
1000
0000
0011
0000
0001
1000
,
0001
0100
0010
1000
0001
0000
1000
0200
,
0000
0000
1300
0010
0110
0000
1001
0000
,
1000
0100
1000
0001
0010
0001
1000
0001
0100
0010
0100
0001
,
1000
0000
0001
0100
0101
0000
1010
0000
,
0001
0100
0001
1000
0010
1000
0001
1000
0100
0010
0100
1000
,
0001
0000
1000
0100
1100
0000
0011
0000
,
0001
0010
0001
1000
0100
1000
0001
0100
0001
0100
0010
1000
,
0001
0000
1000
0010
1010
0000
0110
0000
,
M1M1
0000
11MM
0000
,
MM11
0000
1MM1
0000
,
0001
0100
0001
1000
0010
1000
0001
1000
0100
0010
0100
1000
,
0001
0000
1000
0100
1100
0000
0011
0000
,
1000
0100
1000
0001
0010
0001
1000
0001
0100
0010
0100
0001
,
1000
0000
0001
0100
0101
0000
1010
0000
,
1000
0010
1000
0001
0100
0001
1000
0100
1000
0100
0010
0001
,
1000
0000
0001
0010
0011
0000
0110
0000
,
11MM
0000
0000
M1M1
0000
0000
1MM1
0000
,
0000
0000
MMM1
0000
,
1001
0000
1000
0010
1000
0010
0100
0000
,
0001
0000
0001
1000
0000
0000
0004
0000
,
0000
1003
0000
0001
0010
0001
1000
0000
,
1010
0000
0000
0100
0001
0000
0000
0000
,
1000
0100
1000
0001
1000
0000
0010
0000
,
0100
0000
0100
0001
0000
1000
0000
0000
,
1100
0000
0000
1100
0000
0000
1100
0000
,
0004
0000
1003
0000
,
0001
0100
0001
1000
0001
0000
0000
0100
,
0001
0000
1000
0002
0000
0000
0000
1003
,
0100
0000
1000
0002
0000
0000
0013
0000
,
0110
0000
0100
0000
1000
0000
0000
0001
,
1000
0010
1000
0001
,
1000
0000
1000
0200
0000
0000
0310
0001
,
0010
0000
0001
1000
0000
0000
0001
0000
,
1010
0000
0010
0000
1000
0100
0010
0001
,
1000
0000
1000
0002
0000
0000
0103
0000
,
0010
0000
0010
2000
0000
0000
3001
0000
,
0010
0000
0010
0200
0000
0000
1300
0000
,
1001
0000
0001
0010
0001
0000
0100
0010
,
1000
0001
1000
0000
0010
0000
1000
0001
,
0000
0100
0001
0000
0020
0000
0000
0031
,
1000
0000
0100
2000
0000
0000
3001
0000
,
1100
0001
0010
0100
,
1000
0000
0010
0000
1000
0000
0010
0000
1000
0000
0010
0000
1000
0000
0000
0000
0000
0000
0001
0000
0000
1000
0000
0000
,
0001
0000
1000
0200
0000
0000
0310
0001
,
0010
0000
0001
2000
0000
0000
3010
0000
,
0110
0000
0100
0001
,
1000
0000
0100
0000
1000
0000
0100
0000
1000
0000
0100
0000
1000
0000
0000
0001
0000
0000
1000
0000
0000
0100
0000
0000
,
1000
0000
0001
0200
0000
0000
0301
1000
,
0100
0000
1000
0200
0000
0000
0310
0000
,
0410
0000
1300
0001
,
1000
0000
0010
0000
1000
0000
0010
0000
1000
0000
0010
0000
1000
0000
0000
0000
0000
0000
0001
0000
0000
1000
0000
0000
,
0001
0001
0010
0100
,
1000
0000
0001
2000
0000
0000
3010
0000
,
0110
0000
0100
0001
,
1000
0000
0100
0000
1000
0000
0100
0000
1000
0000
0100
0000
1000
0000
0000
0000
0000
0000
0001
0000
0000
1000
0000
0000
,
0001
0000
0001
0000
1010
0000
1000
0001
,
1000
0100
0010
0001
1000
0000
0001
0200
,
0000
0000
0301
0010
0110
0000
1001
0000
,
0001
0100
0001
1000
0010
1000
0001
1000
0100
0010
0100
1000
,
0001
0000
1000
0100
1100
0000
0011
0000
,
1000
0100
1000
0001
0010
0001
1000
0010
0100
0010
1000
0001
,
1000
0000
0001
0100
0101
0000
1010
0000
,
1000
0010
1000
0001
0100
0001
1000
0100
1000
0100
0010
0001
,
1000
0000
0001
0010
0011
0000
0110
0000
,
11MM
0000
M1M1
0000
,
1M1M
0000
1MM1
0000
,
1000
0100
1000
0001
0010
0001
1000
0001
0100
0010
0100
0001
,
1000
0000
0001
0100
0101
0000
1010
0000
,
0001
0100
0001
1000
0010
1000
0001
1000
0100
0010
0100
1000
,
0001
0000
1000
0100
1100
0000
0011
0000
,
0001
0010
0001
1000
0100
1000
0001
0100
0001
0100
0010
1000
,
0001
0000
1000
0010
1010
0000
0110
0000
,
M1M1
0000
0000
11MM
0000
0000
1MM1
0000
,
0000
0000
1MMM
0000
,
000M
0000
0M00
0000
,
00M0
0000
0000
0000
0000
0000
0000
0000
0000
0000
0M00
0000
0000
000M
0000
0000
,
M000
0M00
00M0
000M
0000
0000
0M00
0000
,
0000
000M
0000
M000
,
0000
00M0
0000
0M00
,
0000
0000
0000
0001
0100
0010
1000
0100
0010
0001
0000
0000
,
1MM1
0000
1000
0000
0011
0000
1000
0100
,
0000
1000
0001
0000
0011
0000
0000
0000
,
1001
0000
0001
1000
0010
0100
0000
0010
,
1000
0100
1000
0001
0010
0100
1MM1
0000
,
1MM1
0000
0001
0100
0010
1000
0000
0001
,
0000
0001
0000
0001
0010
0000
0000
0000
,
1100
0000
1000
1001
0000
0100
0101
0001
,
1000
0001
1000
0001
0010
0100
0010
0100
,
1MM1
0000
1000
0000
0001
0100
0000
4010
,
0000
3010
1000
0000
0001
0010
0000
0001
,
1001
0000
1001
0000
1000
0010
0000
0110
,
0000
0100
0001
0000
1000
0100
0010
0001
,
1001
0000
0001
1000
0010
1000
0001
0100
,
0001
0010
0100
1000
0100
0010
0001
1000
,
1010
1010
1010
1010
,
1010
1000
0100
1000
0001
0010
0100
1000
,
1MM1
0000
0001
0100
0001
0010
0000
4100
,
0000
3100
1000
0000
0001
0100
0001
1000
,
0010
0000
0010
0100
0010
1000
0001
0010
,
0100
0000
0000
0000
0000
0000
0100
0000
0000
1000
0000
0000
0001
0000
0000
0000
0100
0000
0000
0000
0001
0000
0000
0000
,
1001
0000
4000
0000
3010
1000
0000
0101
,
0000
0001
0000
1000
0100
0010
0001
1000
,
0001
0000
0100
0002
0000
0003
0100
0004
,
0000
0003
0100
0002
0000
0003
0100
0001
,
2MM1
3000
0000
0000
0000
0000
2000
3000
,
0000
0000
0000
0000
0000
0000
0010
1000
0001
1000
0000
0000
,
0001
0010
0001
0010
0000
1100
0000
1000
,
0001
0100
0010
1000
0000
0000
1000
0000
0000
0000
0000
0000
,
0001
0100
0010
0100
0010
0100
0010
0100
,
0001
0010
0100
1000
0100
1000
0100
1000
,
0001
0000
0400
0000
0000
0000
0000
0300
,
1M1M
0001
1M1M
0001
,
1M1M
0000
M11M
0000
,
1MM1
0000
0000
0000
,
1MM1
0000
0000
0000
,
0000
0000
0000
0000
,
1001
0000
0000
0000
,
0000
0000
0000
0000
,
1001
1000
0001
1000
,
0001
1000
0001
1000
,
1M1M
0000
MM11
0000
,
11MM
0000
1MM1
0000
,
1000
0010
1000
0001
0100
0001
1000
0001
0010
0100
0010
0001
,
1000
0000
0001
0010
0011
0000
1100
0000
,
0001
0010
0001
1000
0100
1000
0001
1000
0010
0100
0010
1000
,
0001
0000
1000
0010
1010
0000
0101
0000
,
0001
0100
0001
1000
0010
1000
0001
0010
0001
0010
0100
1000
,
0001
0000
1000
0100
1100
0000
0110
0000
,
MM11
0000
0000
1M1M
0000
0000
1MM1
0000
,
0000
0000
1000
0001
,
1000
0100
1000
0001
0010
0001
1000
0001
0100
0010
0100
0001
,
1000
0000
0001
0100
0101
0000
1010
0000
,
0001
0100
0001
1000
0010
1000
0001
1000
0100
0010
0100
1000
,
0001
0000
1000
0100
1100
0000
0011
0000
,
0001
0010
0001
1000
0100
1000
0001
0100
0001
0100
0010
1000
,
0001
0000
1000
0010
1010
0000
0110
0000
,
M1M1
0000
11MM
0000
,
MM11
0000
1MM1
0000
,
0001
0100
0001
1000
0010
1000
0001
1000
0100
0010
0100
1000
,
0001
0000
1000
0100
1100
0000
0011
0000
,
1000
0100
1000
0001
0010
0001
1000
0001
0100
0010
0100
0001
,
1000
0000
0000
0000
,
1001
0000
0100
1001
0000
0000
1001
0000
,
0001
0000
0110
0000
,
1M1M
0000
0000
MM11
0000
0000
1MM1
0000
,
0000
0000
MMM1
0000
,
0000
000M
0M00
00M0
M000
000M
00M0
M000
,
0M00
000M
M000
00M0
00M0
00M0
1MM1
0000
;
