#TITLE:Every Time I Die;
#SUBTITLE:By Nicholas Mihaila;
#ARTIST:Children of Bodom;
#TITLETRANSLIT:;
#SUBTITLETRANSLIT:;
#ARTISTTRANSLIT:;
#CREDIT:;
#BANNER:ETID - Banner.jpg;
#BACKGROUND:ETID - Background.jpg;
#LYRICSPATH:;
#CDTITLE:cdtitle.gif;
#MUSIC:Children Of Bodom - Everytime I Die.mp3;
#OFFSET:-0.160;
#SAMPLESTART:100.000;
#SAMPLELENGTH:12.000;
#SELECTABLE:YES;
#BPMS:0.000=103.940,96.000=51.980,102.000=103.980,316.000=103.960,400.000=102.500;
#STOPS:;
#BGCHANGES:;
// cache tags:
#FIRSTBEAT:0.000;
#LASTBEAT:407.500;
#SONGFILENAME:Songs/toune 5/COB - Every Time I Die/Children Of Bodom - Everytime I Die.sm;
#HASMUSIC:1;
#HASBANNER:1;
#MUSICLENGTH:243.051;
// end cache tags

//---------------dance-single - ----------------
#NOTES:
     dance-single:
     :
     Hard:
     12:
     0.696,0.859,0.362,0.325,0.695,1017.000,88.000,79.000,0.000,6.000:
2200
0000
0000
0000
0000
0000
0000
0000
0000
0000
0000
0000
0000
0000
0000
3300
,
0220
0000
0000
0000
0000
0000
0000
0000
0000
0000
0000
0000
0000
0000
0000
0330
,
2020
0000
0000
0000
0000
0000
0000
0000
0000
0000
0000
0000
0000
0000
0000
3030
,
0100
0002
0000
0000
0000
0000
0003
0002
0000
0000
0000
0000
0000
0000
0003
0000
,
2200
0000
0000
0000
0000
0000
0000
0000
0000
0000
0000
0000
0000
0000
0000
3300
,
0220
0000
0000
0000
0000
0000
0000
0000
0000
0000
0000
0000
0000
0000
0000
0330
,
2020
0000
0000
0000
0000
0000
0000
3030
0202
0000
0000
0000
0000
0000
0000
0303
,
0012
0000
0000
0000
0000
0000
0000
0000
0000
0000
1000
0010
1000
0010
1000
0010
,
1003
0000
0100
0010
0001
0010
0100
1000
0001
1000
0000
0100
0010
0000
1000
0000
,
0001
0000
0010
0100
1000
0100
0010
0001
1000
0001
0000
0010
0200
0000
0000
0000
,
1300
0000
0100
0010
0001
0010
0100
1000
0001
1000
0000
0100
0010
0000
1000
0000
,
0001
0000
0010
0100
1000
0100
0010
0001
1000
0001
1000
0001
0010
0100
0001
1000
,
0010
0000
1000
0010
0100
0010
1000
0001
0100
0001
0000
0010
1000
0000
0010
0000
,
0100
0000
0001
0100
0010
0100
0001
1000
0010
1000
0000
0100
0002
0000
0000
0000
,
0013
0000
1000
0010
0100
0010
1000
0001
0100
0001
0000
0010
1000
0000
0010
0000
,
1000
0100
0010
0001
0010
0100
1000
0001
0100
0010
0100
0001
1000
0100
0010
0001
0010
0100
1000
0001
0100
0010
0100
0001
,
1000
0010
0100
0100
0001
0010
0001
0001
,
1000
0000
0010
0000
0100
0000
0100
0000
0001
0100
0001
0000
1000
0010
1000
0000
,
1000
0010
0100
0100
0001
0010
0001
0001
,
1000
0000
0010
0000
0100
0000
0100
0000
0011
0011
0100
0000
1100
1100
0010
0000
,
0001
0100
0010
0010
1000
0100
1000
1000
,
0001
0000
0100
0000
0010
0000
0010
0000
1000
0010
1000
0000
0001
0100
0001
0000
,
0001
0100
0010
0010
1000
0100
1000
1000
,
0001
0000
0000
0100
0000
0000
0010
0000
0000
0010
0000
0000
1000
0100
0010
0001
0010
0100
1000
0100
0010
0001
0010
0100
,
2001
0010
0001
0110
0001
0010
0101
0000
0010
0100
0010
0101
0010
0100
0011
0000
,
0001
0010
0001
0110
0001
0010
0101
0000
3010
0000
0001
0000
0010
0000
0001
0000
,
1000
0100
0010
0000
0001
0010
0100
0000
1000
0000
0001
0000
0100
0000
0010
0000
,
1000
0000
0001
0010
0100
0010
1000
0100
1000
0000
0001
0000
0100
0000
0010
0000
,
1000
0000
0001
0010
0200
0000
0000
0000
1300
0000
0001
0000
0100
0000
0010
0000
,
1000
0000
0000
0001
0010
0100
2000
0000
0000
0000
0000
0000
3001
0000
0000
0010
0000
0000
0100
0000
0000
1000
0000
0000
,
0010
0100
0010
0100
0010
0100
0010
0100
1000
0000
0001
0000
0100
0000
0010
0000
,
1000
0000
0001
0010
0100
0010
1000
0100
1000
0000
0001
0000
0100
0000
0010
0000
,
1000
0000
0001
0010
0200
0000
0000
0000
1300
0000
0001
0000
0100
0000
0010
0000
,
1000
0000
0001
0010
2000
0000
0000
0000
3001
0000
0100
0000
0010
0000
1000
0000
,
0001
0000
0200
0000
0310
0001
0010
0100
1000
0000
0001
0000
0100
0000
0010
0000
,
1000
0000
0001
0010
0100
0010
1000
0100
1010
0000
0011
0000
0101
0000
1001
0000
,
1100
0110
0201
0000
1300
0001
0100
0010
,
1000
0000
0000
0000
0000
0000
0001
0000
0010
0000
0100
0000
2000
0000
0000
0000
0000
0000
0000
0000
0000
0000
0000
0000
3001
0000
0000
0100
0000
0000
0010
0000
0000
1000
0000
0000
0001
0000
0000
0100
0000
0000
0001
0000
0000
1000
0000
0000
,
0001
0100
1000
0001
1000
0001
1000
0001
1000
0000
0010
0000
0100
0000
0100
0000
,
0001
0010
0001
0001
1000
0010
0100
0100
,
0001
0100
0001
0000
1000
0010
1000
0000
1000
0000
0010
0000
0100
0000
0100
0000
,
0001
0010
0001
0001
1000
0010
0100
0100
,
0011
0011
0100
0000
1100
1100
0010
0000
0001
0000
0100
0000
0010
0000
0010
0000
,
1000
0100
1000
1000
0001
0100
0010
0010
,
1000
0000
0000
0010
0000
0000
1000
0000
0000
0000
0000
0000
0001
0000
0000
0100
0000
0000
0001
0000
0000
0000
0000
0000
1000
0000
0100
0000
1000
0000
0010
0000
1000
0000
0100
0000
0001
0000
0010
0000
0001
0000
0100
0000
0001
0000
0010
0000
,
1000
0000
0100
0000
1000
0000
0010
0000
1000
0000
0100
0000
0001
0000
0000
0010
0000
0000
0100
0000
0000
0010
0000
0000
1000
0000
0000
0000
0000
0000
0010
0000
0000
0100
0000
0000
2000
0000
0000
0000
0000
0000
0000
0000
0000
0000
0000
0000
,
0000
0000
0000
0010
0001
0001
0010
0000
0000
0000
0000
0000
3002
0000
0000
1000
0000
0000
0010
0000
0000
0100
0000
0000
,
0010
1000
0010
0103
0000
0110
0001
0110
,
0000
0110
0001
0110
2000
0001
0100
0010
,
0100
0001
0100
3010
0000
1001
0010
1001
,
0000
0000
1001
0000
0010
0000
1001
0100
0002
0000
1000
0000
0010
0000
0100
0000
,
2003
0001
0100
0010
3200
0001
0010
0001
,
0010
0000
0301
1000
0001
1000
0001
0100
1000
0000
0100
0010
0001
0010
0100
1000
,
0001
1000
0000
0100
0010
0000
1000
0000
0001
0000
0010
0100
1000
0100
0010
0001
,
1000
0001
0000
0010
0200
0000
0000
0000
1300
0000
0100
0010
0001
0010
0100
1000
,
0001
1000
0000
0100
0010
0000
1000
0000
0001
1000
0001
1000
0001
1000
0110
0000
,
1000
0010
0101
0000
0110
0000
0000
0000
0022
0000
0000
0033
2200
0000
0000
3300
,
1001
0000
0000
0000
0100
0000
0010
0000
1000
0000
0001
0010
0100
0010
1000
0100
,
1000
0000
0001
0000
0100
0000
0010
0000
1000
0000
0001
0010
0200
0000
0000
0000
,
1300
0000
0001
0000
0100
0000
0010
0000
1000
0000
0001
0010
2000
0000
0000
0000
,
3001
0000
0100
0000
0010
0000
1000
0000
0001
0000
0200
0000
0310
0001
0010
0100
,
1000
0000
0001
0000
0100
0000
0010
0000
1000
0000
0001
0010
0100
0010
1000
0100
,
1000
0101
1010
0011
1100
0110
0201
0000
,
1300
0000
0000
0001
0000
0000
0100
0000
0000
0010
0000
0000
1000
0000
0000
0001
0010
0100
2000
0000
0000
0000
0000
0000
,
3001
0000
0010
0000
0100
0000
1000
0000
0001
0010
0001
0100
0001
0000
1000
0100
,
1000
0010
1000
0100
0000
0000
0001
0010
0100
1000
0000
0000
0110
0000
0000
0000
,
1000
0100
0010
0001
0000
0000
0001
0010
0100
1000
0000
0000
0110
0000
0000
0000
,
1000
0100
0010
0001
0000
0000
0001
0010
0100
1000
0100
0010
0100
0010
0100
0010
,
0001
0010
0100
1000
0010
0100
0001
0010
0100
0010
0001
0100
0010
1000
0100
0010
0001
0000
0100
0000
0010
0000
1000
0000
0001
0000
0010
0000
0100
0000
1000
0000
,
0001
0000
0001
0000
1000
0000
1000
0000
0000
0010
0100
0010
0000
0000
1000
0000
,
0010
0000
0010
0000
0100
0000
0100
0000
0000
1000
0001
1000
0000
0000
1000
0000
,
0010
0100
0011
1001
0100
0010
0101
1001
,
0010
0100
1010
1001
0100
0010
1100
1001
,
1000
0000
1000
0000
0001
0000
0001
0000
0000
0100
0010
0100
0000
0000
0001
0000
,
0100
0000
0100
0000
0010
0000
0010
0000
0000
0001
1000
0001
0000
0000
0001
0000
,
0100
0010
1100
1001
0010
0100
1010
1001
,
0100
0010
0101
1001
0010
0100
0011
1001
,
0010
0100
1000
0002
0000
0103
2000
3010
,
2000
3001
0010
0100
0020
0230
0302
2003
,
3001
0010
0100
0001
0010
0100
0001
0010
1000
0001
0010
1000
0001
0010
1000
0001
,
0010
0000
0100
0000
0010
0000
0001
0000
1000
0000
0100
0000
0010
0000
0000
0000
1000
0000
0100
0000
0010
0000
0001
0010
0100
1000
0001
0010
0100
1000
0010
0000
,
0002
0000
0000
0000
0000
0000
0000
0000
0013
0100
0010
1000
0100
0010
0001
0100
,
0010
0000
0100
0000
0001
0000
0010
0000
0100
0000
1000
0000
0200
0000
0000
0000
0000
0000
0000
0000
0301
1000
0001
1000
0002
0000
0000
0000
2003
0000
0000
0000
,
3001
0010
0100
1000
0100
0010
0001
0100
0010
1000
0010
0100
0001
0010
0100
1000
0100
0010
0001
0100
0010
1000
0010
0100
,
0001
0010
0100
1000
0100
0010
0001
0010
0100
1000
0100
0010
0001
0010
0100
1000
0100
0010
0001
1000
0001
1000
0001
1000
,
0001
0000
0000
0001
1000
0000
0100
0000
2000
0000
0000
3000
0200
0000
0000
0300
,
0020
0000
0000
0000
0000
0000
0000
0000
0000
0000
0000
0000
0000
0000
0000
0000
0000
0000
0000
0000
0000
0000
0000
0000
0000
0000
0000
0000
0000
0000
0000
0000
0000
0000
0000
0000
0000
0000
0000
0000
0000
0000
0000
0000
0000
0000
0000
0000
0000
0000
0000
0000
0000
0000
0000
0000
0000
0000
0000
0000
0030
0000
0000
0000
0000
0000
0000
0000
0000
0000
0000
0000
0001
0000
0000
0000
0000
0000
0010
0000
0000
0000
0000
0000
0100
0000
0000
0000
0000
0000
1000
0000
0000
0000
0000
0000
0002
0000
0000
0000
0000
0000
0000
0000
0000
0000
0000
0000
0000
0000
0000
0000
0000
0000
0000
0000
0000
0000
0000
0000
0000
0000
0000
0000
0000
0000
0000
0000
0000
0000
0000
0000
0000
0000
0000
0000
0000
0000
0000
0000
0000
0000
0000
0000
0000
0000
0000
0000
0000
0000
0000
0000
0000
0000
0000
0000
0000
0000
0000
0000
0000
0000
0000
0000
0000
0000
0000
0000
1000
0000
0000
0000
0000
0000
0000
0000
0003
0000
0000
0000
0010
0000
0000
0000
0000
0000
0000
0000
0000
0000
0000
0000
,
0100
0000
2000
0000
0000
0000
0000
0010
3001
0000
0100
0000
0010
0000
1000
0000
0001
0100
0010
0000
0001
0000
0100
0000
0001
0000
0010
0000
1000
0100
0010
0001
,
1000
0100
0010
0001
0010
0100
1000
0001
1000
0100
0010
0001
0010
0100
1000
0001
1000
0100
0010
0100
0010
0001
0010
0001
0100
0010
0001
0010
0001
1000
0001
1000
,
0002
0000
0000
0000
0000
0000
0000
0103
0002
0000
0000
0000
2003
0000
0000
0000
,
3020
0000
0230
0000
,
0301
0000
0010
0000
0100
0000
1000
0000
0001
0000
0010
0000
0100
0000
1000
0000
0001
0100
0010
0000
0100
0000
1000
0000
0001
0000
0010
0000
0100
0000
1000
0000
,
0001
0010
0100
0000
0010
0000
1000
0000
0001
0000
0100
0000
0010
0000
1000
0000
0001
0000
1000
0000
0001
0000
1000
0000
0001
0000
1000
0000
0110
0000
0000
0000
,
1000
0010
0101
0000
0110
0000
0000
0000
0022
0000
0000
0033
2200
0000
0000
3300
,
1002
1000
0010
0100
0010
1000
0010
0103
,
0000
0110
0001
0110
0000
0110
0001
0110
,
2000
0001
0100
0010
0100
0001
0100
3010
,
0000
0000
1001
0000
0010
0000
1001
0000
0000
0000
1001
0000
0010
0000
1001
0100
,
0002
1000
0010
0100
2003
0001
0100
0010
,
3200
0001
0010
0001
0310
0001
0100
0010
,
1000
0001
1000
0001
1000
0001
0110
0000
0001
0100
1010
0000
0110
0000
0000
0000
,
2200
0000
0000
3300
0022
0000
0000
0033
2002
0000
0000
0000
0000
0000
3003
0000
;
