#TITLE:White Bird;
#SUBTITLE:(Airscape Mix);
#ARTIST:Vanessa Mae;
#TITLETRANSLIT:;
#SUBTITLETRANSLIT:;
#ARTISTTRANSLIT:;
#CREDIT:;
#BANNER:../Banner.png;
#BACKGROUND:../BG.png;
#LYRICSPATH:;
#CDTITLE:../CDTitleBRAEDEN.png;
#MUSIC:White Bird (Airscape Mix).ogg;
#OFFSET:-0.040;
#SAMPLESTART:6.894;
#SAMPLELENGTH:12.000;
#SELECTABLE:YES;
#BPMS:0.000=140.060,148.000=70.030,198.000=140.000;
#STOPS:;
#BGCHANGES:;
// cache tags:
#FIRSTBEAT:4.000;
#LASTBEAT:280.000;
#SONGFILENAME:Songs/Index Fusion/White Bird (Airscape Mix) - [Braeden]/White Bird (Airscape Mix).sm;
#HASMUSIC:1;
#HASBANNER:1;
#MUSICLENGTH:143.383;
// end cache tags

//---------------dance-single - Copied from----------------
#NOTES:
     dance-single:
     Copied from:
     Challenge:
     15:
     1.000,1.000,0.035,0.063,1.000,1048.000,5.000,9.000,0.000,3.000:
0000
0000
0000
0000
,
0000
0000
0000
0000
,
0000
0000
0000
0000
0000
0000
0000
0000
0000
0000
0000
0000
0000
0000
1000
0100
,
0010
0001
0010
0001
0010
0100
0010
0100
1000
0100
1000
0100
0010
0100
0010
0001
,
0100
0010
1000
0010
0100
0001
0100
0010
1000
0100
0010
0100
1000
0001
0100
0010
,
1000
0100
1000
0100
0010
0001
0010
0001
0100
0010
0100
0010
1000
0100
0010
0001
,
0100
0010
1000
0100
0010
0100
1000
0001
0100
0010
1000
0100
0010
0100
1000
0001
,
0100
0010
1000
0100
1000
0001
0100
0010
0100
0001
0100
0010
1000
0100
0010
0100
,
1000
0001
0100
0010
1000
0100
0010
0100
1000
0001
0100
0010
1000
0100
0010
0100
,
1000
0001
0100
0001
0100
0010
1000
0100
0010
0100
1000
0001
0100
0010
1000
0100
,
1000
0010
1000
0010
0100
0001
0100
0001
0100
0010
1000
0010
1000
0001
1000
0100
,
0010
0100
1000
0100
0010
0001
0010
0001
0010
0100
0010
0100
1000
0001
1000
0001
,
0010
0000
0100
0000
1000
0001
0100
0010
1000
0010
0100
0001
0100
0010
1000
0100
,
0010
0001
0010
0001
1000
0100
1000
0100
0010
0001
0010
0001
0100
0010
0100
0010
,
1000
0010
0100
0001
0100
0010
1000
0100
0010
0100
1000
0001
0100
0010
1000
0100
,
0010
0001
0100
0010
1000
0100
1000
0001
0100
0010
1000
0100
1000
0001
0100
0010
,
1000
0100
0010
0001
0100
0010
1000
0100
0010
0100
1000
0001
0100
0010
0100
0001
,
0100
0010
1000
0100
0010
0001
0100
0010
1000
0100
0010
0001
0100
0010
1000
0100
,
1000
0001
0100
0010
1000
0100
0010
0001
0100
0010
1000
0100
1000
0001
1000
0001
,
1000
0100
1000
0100
0010
0001
0010
0001
1000
0010
1000
0010
0100
0001
0100
0001
,
1000
0010
1000
0010
0100
0001
0100
0001
1000
0100
0010
0001
1000
0010
0100
0001
,
1000
0100
0010
0001
1000
0010
0100
0001
1000
0100
1000
0100
0010
0001
0010
0001
,
1000
0010
0100
0001
0010
0001
1000
0100
1000
0001
0100
0010
1000
0100
0010
0001
,
0100
0010
1000
0010
0100
0001
0100
0010
1000
0100
0010
0100
1000
0001
0100
0010
,
1000
0100
0010
0001
0100
0010
1000
0100
0010
0100
1000
0001
0100
0010
1000
0100
,
0010
0001
0100
0010
1000
0100
1000
0001
0100
0010
0100
0001
0100
0010
0100
0001
,
0100
0010
0100
0001
1000
0100
1000
0001
0100
0010
1000
0001
0100
0010
1000
0001
,
1000
0100
0010
0001
0010
0100
1000
0100
0010
0001
0010
0100
1000
0100
0010
0001
,
0010
0000
0100
0000
1000
0000
0100
1000
0010
0000
0100
0000
0001
0000
0100
0010
,
1000
0010
0100
0000
0001
0000
0100
0001
0100
0000
0001
0000
1000
0000
0100
0010
,
0001
0010
0100
0000
1000
0000
0100
0010
0001
0000
0100
0000
0001
0000
0010
0001
,
0010
0100
1000
0000
1000
0000
0100
0010
0100
0000
0010
0000
0010
0000
0001
0010
,
0001
0010
0001
0000
0010
0000
0100
1000
0100
0000
0010
0000
0001
0000
0100
1000
,
0100
0010
0100
0000
0001
0000
0010
0100
1000
0000
0001
0000
0010
0000
0100
1000
,
0100
0010
0001
0000
0100
0000
1000
0010
0100
0000
0001
0000
1000
0000
0001
0010
,
0100
1000
0100
0000
0010
0000
0001
1000
0001
0000
0110
0000
0011
0000
1100
0000
,
1000
0100
1000
0100
0010
0001
0010
0001
0100
0010
0100
0010
1000
0100
0010
0100
,
0220
0000
0000
0000
0000
0000
0000
0000
0330
0000
0000
0000
0002
1000
0000
0000
,
2000
0000
0000
0000
0000
0100
0010
0100
3003
0000
0000
0000
0010
0200
0000
0000
,
0020
0000
0000
0330
,
0200
0000
0001
0300
,
1000
0000
0000
0000
0000
0000
0100
0000
0000
0000
0000
0000
1000
0000
0000
0000
0000
0000
0100
0000
0000
0000
0000
0000
0010
0000
0000
0000
0000
0000
0001
0000
0000
0000
0000
0000
0010
0000
0000
0000
0000
0000
0001
0000
0000
0000
0000
0000
0100
0000
0000
0000
0000
0000
0010
0000
0000
0000
0000
0000
0100
0000
0000
0000
0000
0000
0010
0000
0000
0000
0000
0000
0100
0000
0000
0000
0000
0000
0001
0000
0000
0000
0000
0000
1000
0000
0000
0000
0100
0000
0000
0000
0010
0000
0000
0000
0001
0000
0000
0000
0000
0000
0100
0000
0000
0000
0000
0000
0010
0000
0000
0000
0000
0000
1000
0000
0000
0000
0000
0000
0100
0000
0000
0000
0000
0000
0010
0000
0000
0000
0000
0000
0001
0000
0000
0000
0000
0000
0100
0000
0000
0000
0000
0000
0010
0000
0000
0000
0000
0000
1000
0000
0000
0000
0000
0000
0100
0000
0000
0000
0000
0000
0010
0000
0000
0000
0000
0000
0001
0000
0000
0000
0000
0000
1000
0000
0000
0000
0000
0000
0100
0000
0000
0000
0010
0000
0000
0000
0001
0000
0000
0000
,
0010
0000
0000
0000
0000
0000
0100
0000
0000
0000
0000
0000
1000
0000
0000
0000
0000
0000
0010
0000
0000
0000
0000
0000
0100
0000
0000
0000
0000
0000
0001
0000
0000
0000
0000
0000
0100
0000
0000
0000
0000
0000
0010
0000
0000
0000
0000
0000
1000
0000
0000
0000
0000
0000
0100
0000
0000
0000
0000
0000
0010
0000
0000
0000
0000
0000
0001
0000
0000
0000
0000
0000
0100
0000
0000
0000
0000
0000
0010
0000
0000
0000
0000
0000
1000
0000
0000
0000
0010
0000
0000
0000
0100
0000
0000
0000
0001
0000
0000
0000
0000
0000
0100
0000
0000
0000
0000
0000
0010
0000
0000
0000
0000
0000
1000
0000
0000
0000
0000
0000
0100
0000
0000
0000
0000
0000
0010
0000
0000
0000
0000
0000
0001
0000
0000
0000
0000
0000
0100
0000
0000
0000
0000
0000
0010
0000
0000
0000
0000
0000
1000
0000
0000
0000
0000
0000
0100
0000
0000
0000
0000
0000
0010
0000
0000
0000
0000
0000
0001
0000
0000
0000
0000
0000
0100
0000
0000
0000
0000
0000
0010
0000
0000
0000
1000
0000
0000
0000
0100
0000
0000
0000
,
0010
0000
0000
0000
0000
0000
0001
0000
0000
0000
0000
0000
0100
0000
0000
0000
0000
0000
0010
0000
0000
0000
0000
0000
1000
0000
0000
0000
0000
0000
0100
0000
0000
0000
0000
0000
0010
0000
0000
0000
0000
0000
0100
0000
0000
0000
0000
0000
0010
0000
0000
0000
0000
0000
0001
0000
0000
0000
0000
0000
0100
0000
0000
0000
0000
0000
0010
0000
0000
0000
0000
0000
1000
0000
0000
0000
0000
0000
0100
0000
0000
0000
0000
0000
1000
0000
0000
0000
0000
0000
0001
0000
0000
0000
0000
0000
1000
0000
0000
0000
0000
0000
0010
0000
0000
0000
0000
0000
1000
0000
0000
0000
0000
0000
0100
0000
0000
0000
0000
0000
0010
0000
0000
0000
0000
0000
0001
0000
0000
0000
0000
0000
0100
0000
0000
0000
0000
0000
0010
0000
0000
0000
0000
0000
0100
0000
0000
0000
0000
0000
0010
0000
0000
0000
0000
0000
0100
0000
0000
0000
0000
0000
0001
0000
0000
0000
0000
0000
0100
0000
0000
0000
0000
0000
0010
0000
0000
0000
0000
0000
0001
0000
0000
0000
0010
0000
0000
0000
0100
0000
0000
0000
,
1000
0000
0000
0000
0000
0000
0010
0000
0000
0000
0000
0000
0100
0000
0000
0000
0000
0000
0001
0000
0000
0000
0000
0000
0100
0000
0000
0000
0000
0000
0010
0000
0000
0000
0000
0000
1000
0000
0000
0000
0000
0000
0010
0000
0000
0000
0000
0000
0100
0000
0000
0000
0000
0000
0001
0000
0000
0000
0000
0000
0100
0000
0000
0000
0000
0000
0010
0000
0000
0000
0000
0000
1000
0000
0000
0000
0000
0000
0010
0000
0000
0000
0000
0000
0100
0000
0000
0000
0001
0000
0000
0000
0100
0000
0000
0000
0010
0000
0000
0000
0000
0000
1000
0000
0000
0000
0000
0000
0010
0000
0000
0000
0000
0000
1000
0000
0000
0000
0000
0000
0010
0000
0000
0000
0000
0000
1000
0000
0000
0000
0000
0000
0010
0000
0000
0000
0000
0000
1000
0000
0000
0000
0000
0000
0001
0000
0000
0000
0000
0000
0100
0000
0000
0000
0000
0000
0010
0000
0000
0000
0000
0000
1000
0000
0000
0000
0000
0000
0100
0000
0000
0000
0000
0000
0010
0000
0000
0000
0000
0000
0001
0000
0000
0000
0000
0000
0100
0000
0000
0000
0000
0000
,
0010
1000
0100
0010
0001
0100
0010
1000
0100
1000
0001
0100
0010
0100
0001
0100
0010
1000
0100
0010
0001
0100
0010
1000
0100
1000
0100
1000
0001
0100
0001
0100
,
0010
1000
0010
1000
0001
0100
0001
0100
0010
1000
0100
0010
0001
0100
0010
1000
0100
0010
0001
0100
0010
1000
0100
1000
0001
0100
0010
1000
0001
1000
0010
1000
,
0001
0010
0100
0010
0100
1000
0100
0010
0100
0010
0100
1000
0100
0010
0001
0010
0100
0010
0100
1000
0100
1000
0010
0100
0010
0100
0010
0100
0010
1000
0010
1000
,
0010
0100
0001
0100
0010
1000
0100
0010
0001
0010
0100
1000
0100
0010
0001
0010
0100
1000
0100
0010
0100
0010
0001
0100
0010
1000
0100
0001
0100
1000
0010
0100
,
0001
0000
0000
0000
0000
0000
0000
0000
0000
0000
0000
0000
0000
0000
0000
0000
0000
0000
0010
0000
0000
0000
0000
0000
0000
0000
0000
0000
0000
0000
0100
0000
0000
0000
0000
0000
0000
0000
0000
0000
0000
0000
0000
0000
0000
0000
0000
0000
1000
0000
0000
0000
0001
0000
0000
0000
1000
0000
0000
0000
0001
0000
0000
0000
1000
0000
0000
0000
0001
0000
0000
0000
1000
0000
0000
0000
0001
0000
0000
0000
1000
0000
0000
0000
0001
0000
0000
0000
1000
0000
0000
0000
0001
0000
0000
0000
1000
0000
0000
0000
0000
0000
0000
0000
0000
0000
0000
0000
0010
0000
0000
0000
0000
0000
0000
0000
0000
0000
0000
0000
1000
0000
0000
0000
0000
0000
0000
0000
0000
0000
0000
0000
0010
0000
0000
0000
0000
0000
0000
0000
0000
0000
0000
0000
0100
0000
0000
0000
0000
0000
0000
0000
0000
0000
0000
0000
0001
0000
0000
0000
0000
0000
0000
0000
0000
0000
0000
0000
0100
0000
0000
0000
0000
0000
0000
0000
0000
0000
0000
0000
0001
0000
0000
0000
0000
0000
0000
0000
0000
0000
0000
0000
,
1000
0010
1000
0010
0100
0001
0100
0001
1000
0100
1000
0100
0010
0001
0010
0001
,
1000
0010
0100
0001
1000
0010
0100
0001
0100
0010
1000
0010
0100
0010
1000
0010
,
0100
0001
0100
0010
0100
0001
0100
0010
1000
0100
1000
0010
1000
0100
1000
0010
,
0100
0001
0100
0010
0100
0001
0100
0010
1000
0100
0010
0001
0100
0010
1000
0100
,
0010
0001
0100
0010
1000
0100
0010
0100
1000
0001
0010
0001
1000
0100
1000
0010
,
1000
0100
1000
0001
0010
0001
0100
0001
0100
0010
1000
0001
0100
0010
1000
0100
,
0010
0100
0010
0001
0100
0010
1000
0100
1000
0001
0100
0010
1000
0100
0010
0001
,
0100
0010
1000
0100
0010
0100
1000
0001
0100
0010
1000
0100
0010
0001
0100
0010
,
1000
0100
0010
0100
1000
0001
0100
0010
1000
0100
0010
0100
1000
0001
0100
0010
,
1000
0100
1000
0100
0010
0001
0010
0001
0100
0010
0100
0010
1000
0100
1000
0100
,
0010
0001
0010
0001
0100
0010
0100
0010
1000
0100
1000
0100
0010
0001
0010
0001
,
0100
0010
1000
0001
0100
0010
1000
0100
0010
0001
0100
0010
1000
0100
1000
0001
,
0100
0010
0100
0001
0100
0010
0100
0001
1000
0100
1000
0001
0100
0010
0100
0001
,
0100
0010
1000
0001
0100
0010
1000
0001
0100
0010
1000
0100
0010
0001
0100
0010
,
1000
0100
0010
0001
0100
0010
1000
0100
0010
0001
0100
0010
1000
0100
0010
0100
,
1000
0001
0100
0010
1000
0001
1000
0001
2002
0000
0000
0000
0000
0000
0000
0000
,
0000
0000
0000
0000
,
0000
0000
3003
0000
;

//---------------dance-single - Copied from Copied f----------------
#NOTES:
     dance-single:
     Copied from Copied f:
     Hard:
     9:
     0.526,0.588,0.084,0.112,0.331,500.000,12.000,16.000,0.000,0.000:

0000
0000
0000
0000
,
0100
0010
0100
0000
0010
0000
1000
0100
0000
0100
1000
0000
0000
0000
1000
0000
,
0010
0100
0010
0000
0100
0000
0001
0010
0000
0010
0001
0000
0000
0000
1000
0000
,
0010
0100
0010
0100
1000
0100
0010
0100
,
0010
0000
0001
0000
1000
0000
0100
0010
0100
0000
0010
0000
0100
0000
0001
0100
,
0001
0000
0010
0000
0100
0010
0000
0100
0000
0010
0100
0000
0001
0000
1000
0100
,
1000
0000
0010
0000
0001
0010
0000
0001
0000
0010
0001
0000
0010
0000
0100
0010
,
0001
0000
0010
0000
1000
0100
0000
0010
0000
0100
0010
0000
0001
0000
0100
0010
,
0100
0000
0001
0000
0010
0100
0000
1000
0000
0100
0010
0000
0001
0000
0001
0010
,
0100
0000
1000
0000
0010
0100
0000
0001
0000
0100
0010
0000
1000
0000
0100
0010
,
0001
0000
0100
0000
0001
0100
0000
0010
0000
1000
0001
0000
0010
0000
0100
0000
,
1000
0100
0010
0001
0010
0100
1000
0100
,
0010
0000
0000
0001
0010
0000
0100
0000
1000
0000
0001
0000
0010
0000
0100
1000
,
0100
0000
0010
0100
0010
0000
0001
0000
0010
0000
0100
0000
1000
0000
0001
0010
,
0100
0000
1000
0010
0100
0000
0010
0000
0100
0000
0001
0000
0100
0000
0010
0100
,
0010
0000
0100
0010
0100
0000
0010
0000
0100
0000
0001
0000
0010
0000
0100
1000
,
0100
0000
0010
0100
0010
0000
1000
0000
0010
0000
0100
0000
0001
0000
0010
0001
,
0010
0000
0100
0010
1000
0000
0010
0000
1000
0000
0100
0000
1000
0000
0100
0010
,
0001
0000
1000
0100
0010
0000
0100
0000
0010
0000
0001
0000
0100
0000
0001
0000
,
2002
0000
0000
3003
,
1000
0000
1000
0010
0000
0100
0000
0000
0101
0000
0000
0000
0011
0000
0000
0000
,
0010
0000
0100
0001
0000
0100
0000
0000
0101
0000
0000
0000
1100
0000
0000
0000
,
1000
0000
1000
0100
0000
0000
1000
0000
0100
0010
0000
0100
0000
0000
0010
0000
,
0100
0000
0100
0001
0000
0000
0001
0000
0010
0100
0000
0010
0000
0000
0100
0000
,
0010
0000
1000
0100
0000
0010
0000
0000
0011
0000
0000
0000
0101
0000
0000
0000
,
0010
0000
0010
1000
0000
0100
0000
0000
1100
0000
0000
0000
1010
0000
0000
0000
,
0001
0000
0010
0100
0000
0000
0100
0000
0010
0000
0100
1000
0000
0000
0100
0000
,
1000
0100
0010
0100
0010
0100
1000
0100
,
0010
0000
0100
0000
1000
0000
0100
0000
1000
0000
0100
0000
0010
0000
0100
0010
,
1000
0000
0100
0000
0010
0000
0100
0000
0001
0000
1000
0000
0100
0000
0010
0001
,
1000
0000
0100
0000
0010
0000
0001
0000
1000
0000
0010
0000
0100
0000
0001
1000
,
0001
0100
0001
0100
0010
1000
0010
0100
,
0001
0000
0010
0000
1000
0000
0010
0000
0100
0000
0010
0000
1000
0000
0100
1000
,
0100
0000
0001
0000
0100
0000
1000
0000
0001
0000
0100
0000
0010
0000
1000
0100
,
0010
0010
0100
1000
0010
0100
0000
0000
,
2002
0000
0000
0000
3003
0010
0001
0010
,
0001
0010
0100
0010
0100
0010
1000
0010
,
0220
0000
0000
0000
0000
0000
0000
0000
0330
0000
0000
0000
0002
1000
0000
0000
,
1000
0000
0000
0000
0003
0100
0010
0100
0000
0000
0000
0000
0010
0200
0000
0000
,
0020
0000
0000
0330
,
0200
0000
0001
0300
,
2000
0000
0000
0000
0000
0000
0000
0000
0000
0000
0000
0000
3010
0000
0000
0001
0000
0000
0000
0000
0000
0000
0000
0100
,
0001
0000
0000
0000
0000
0000
0000
0000
0000
0000
0000
0010
0001
0000
0000
0100
0000
0000
0000
0000
0000
0000
0000
1000
,
0020
0000
0000
0000
0000
0000
0000
0000
0000
0000
0000
0000
1030
0000
0000
0100
0000
0000
0000
0000
0000
0000
0000
0010
,
0200
0000
0310
1000
,
0001
0000
0000
1000
0000
0000
0000
0000
1000
0000
0000
0001
0000
0000
0000
0000
0010
0000
0000
0100
0000
0000
0000
0000
0010
0000
0000
0001
0000
0000
0000
0000
,
0200
0000
0000
0000
0000
1000
1000
1000
0300
0000
0000
0000
0000
0000
0000
0000
,
0010
0100
1000
0100
1000
0100
0010
0001
0010
0100
0010
0001
0010
0100
0010
0100
,
1000
0100
0010
0001
0010
0100
1000
0100
0010
0001
0010
0100
1000
0001
0010
0100
,
1000
0010
0100
0001
1000
0100
0010
0100
,
1000
0100
0010
0100
1000
0010
0100
0001
,
1000
0001
0010
0100
1000
0100
0010
0001
,
0010
0001
0010
0100
0010
0001
0010
0001
,
0100
0010
1000
0010
0100
0001
1000
0010
,
0100
0001
0010
0100
1000
0010
0100
0010
,
1000
0001
0100
0010
0100
0001
0100
0000
,
0000
0000
0100
0010
0001
0010
0001
1000
,
0001
0010
0001
0010
0100
1000
0100
0010
,
0100
1000
0001
0010
0100
1000
0001
0100
,
0010
1000
0100
0010
0100
0010
1000
0100
,
0010
0100
1000
0100
0010
0001
0010
0001
,
0010
0100
1000
0100
0010
0100
1000
0100
,
1000
0100
0010
0001
0010
0100
1000
0100
,
1000
0100
0010
0100
0010
0001
0010
0100
,
0010
0001
1000
0010
1000
0001
0100
0001
,
1000
0001
1000
0000
2002
0000
0000
0000
,
0000
0000
0000
0000
,
0000
0000
3003
0000
;

//---------------dance-single - ----------------
#NOTES:
     dance-single:
     :
     Medium:
     5:
     0.327,0.342,0.000,0.370,0.007,275.000,0.000,53.000,0.000,0.000:
0000
0000
0000
0000
,
1000
0100
1000
0000
0001
0000
0000
0000
,
0100
0010
0100
0000
0001
0000
0000
0000
,
0010
0100
0010
0000
0100
1000
0100
0000
,
1000
0100
0010
0001
,
0010
0100
0010
0000
0001
0000
1000
0000
,
0010
0100
0010
0000
1000
0000
0100
0000
,
0010
0100
0010
0000
0001
0000
1000
0000
,
0010
0100
0010
0000
1000
0000
0100
0000
,
0001
0010
0100
0000
1000
0000
0001
0000
,
1000
0001
1000
0000
0100
0000
0010
0000
,
0200
0000
0320
0030
,
0001
0010
0100
0000
1000
0000
0100
0000
,
1000
0100
0010
0000
0001
0000
1000
0000
,
0010
0100
0010
0000
1000
0000
0100
0000
,
0010
0100
0010
0000
0001
0000
1000
0000
,
1000
0100
0010
0000
0001
0000
0001
0000
,
0001
0010
0100
0000
0100
0000
0100
0000
,
0100
0010
0100
0000
1000
0000
0100
0000
,
2000
0000
3200
0000
,
0310
0000
0001
0000
0010
0001
0000
0000
,
0001
0000
0000
0000
1000
0100
0000
0000
,
0100
0000
0010
0100
0100
0000
0000
0000
,
0001
0000
1000
0100
1000
0000
0001
0000
,
0010
0000
0100
0000
0010
0100
0000
0000
,
0100
0000
0000
0000
0100
1000
0000
0000
,
0100
0000
0010
0100
0100
0000
0001
0000
,
2000
3200
0320
0230
,
1300
0100
0000
0001
0000
0000
0000
0000
,
0100
0010
0000
0200
0000
0300
0000
0000
,
0001
0000
0010
0000
0100
0000
1000
0100
,
1000
0200
0000
0310
0000
0000
0000
0001
,
0010
0001
0000
0020
0000
0000
0030
0001
,
1000
0001
0000
1000
0000
0100
0020
0000
,
0000
0000
0030
0000
0001
0010
0000
0000
,
0200
0000
0000
0000
0000
1300
0100
0010
,
0001
0000
0010
0000
0001
1000
0000
0000
,
2000
0000
3200
0000
,
0310
0000
0000
0000
0000
0100
1000
0100
0000
0000
0000
0000
0002
0000
0000
0000
,
2003
0000
3200
0000
,
0320
0000
0032
0000
,
0023
0000
0000
0000
0130
1000
0000
0000
,
0200
0000
0000
0000
0310
0001
0000
0000
,
0020
0000
0000
0000
0130
1000
0000
0000
,
2000
0000
0000
0000
3001
0010
0000
0000
,
1000
0100
0010
0001
,
0020
0000
0000
0000
0000
0000
0100
0030
0000
0000
0000
0000
0100
0000
0000
0000
,
1000
0100
1000
0100
0010
0100
0010
0001
,
0010
0100
1000
0100
0010
0001
1000
0001
,
2000
0000
3100
0100
,
0020
0130
0002
0013
,
0200
1300
0002
0013
,
0020
0130
0200
0310
,
0002
1003
0200
0310
,
0020
0130
0200
0310
,
0020
0130
2000
3100
,
0200
0310
0002
0013
,
0200
1300
0200
0310
,
0001
1000
0100
0010
,
0001
1000
0010
0100
,
0001
1000
0100
0010
0001
0000
1000
0000
,
0010
0100
0002
0103
,
0020
0130
0002
0013
,
0020
0130
0100
1000
,
0100
0000
0010
0000
0001
0010
0100
1000
,
0100
1000
0002
0000
,
0003
0000
2000
3200
,
0000
0300
0020
0000
,
0030
0000
0002
0023
,
0000
0030
0002
0000
,
0003
0000
0000
0000
;

//---------------dance-single - ----------------
#NOTES:
     dance-single:
     :
     Easy:
     4:
     0.293,0.316,0.014,0.474,0.000,224.000,2.000,68.000,0.000,0.000:
0000
0000
0000
0000
,
1000
0100
0010
0000
,
0001
0010
0100
0000
,
2000
0000
3200
0000
,
0310
0001
0010
0100
,
2000
3100
0001
0010
,
0020
0130
0001
1000
,
0020
0130
0001
1000
,
0200
0310
0001
1000
,
0020
0130
0001
1000
,
0200
0310
0001
1000
,
0002
0000
0023
0000
,
0130
1000
0100
0010
,
0001
0010
0100
1000
,
0001
0010
0100
1000
,
1000
0100
0010
0001
,
0001
0010
0100
1000
,
1000
0100
0010
0100
,
1000
0001
0100
0001
,
2000
0000
3200
0000
,
0310
0000
0001
0000
0020
0000
0000
0030
,
0100
0000
0200
0000
,
1300
0100
0010
0001
,
1000
0010
0100
0001
,
1000
0100
0020
0000
,
0130
0000
0100
0000
,
1000
0100
0010
0001
,
1000
0010
0100
0001
,
2000
0100
3100
0200
,
0010
0310
2000
3100
,
0200
0010
0310
0020
,
0100
0130
0002
0013
,
0200
1000
1300
0000
,
0002
0010
0013
0200
,
0310
0020
0031
0002
,
2003
0000
0000
3000
0000
0100
0000
0010
,
0000
0000
1001
0000
,
0110
0000
2000
0000
,
3200
0000
0320
0000
,
0032
0000
0023
0000
,
0032
0000
0023
0000
,
0230
0000
2300
0000
,
3200
0000
0320
0000
,
2030
0000
3200
0000
,
0320
0000
0032
0000
,
1003
0100
0010
0001
,
0020
0000
0130
0100
,
1000
1000
0100
0100
,
0010
0010
0001
0001
,
2000
0000
3200
0310
,
0020
0031
0002
0013
,
0020
0130
0200
1300
,
0000
1000
0100
0010
,
0001
0000
0002
0013
,
0020
0000
0130
0000
0200
0000
0010
0300
,
0020
0130
0200
1300
,
2000
3100
0100
0010
,
0001
0010
0200
1300
,
0002
0013
0200
1300
,
0020
0130
0002
0000
,
0003
1000
0100
0000
,
0001
0010
0200
1300
,
0000
0100
0020
0130
,
0000
0001
0020
0130
,
1000
0100
0010
0001
,
1000
0001
0020
0130
,
0000
0000
0002
0013
,
0000
0000
0200
0310
,
0000
0000
0002
0013
,
0000
0000
0020
0130
;
