#TITLE:Fergalicious;
#SUBTITLE:;
#ARTIST:Fergie;
#TITLETRANSLIT:;
#SUBTITLETRANSLIT:;
#ARTISTTRANSLIT:;
#CREDIT:;
#BANNER:fergalicious-bn.png;
#BACKGROUND:fergalicious-bg.png;
#LYRICSPATH:;
#CDTITLE:chicky-cdtitle.png;
#MUSIC:Fergalicious.mp3;
#OFFSET:-3.740;
#SAMPLESTART:47.840;
#SAMPLELENGTH:11.600;
#SELECTABLE:YES;
#BPMS:0.000=129.000;
#STOPS:;
#BGCHANGES:;
// cache tags:
#FIRSTBEAT:0.000;
#LASTBEAT:132.000;
#SONGFILENAME:Songs/toune 4/Fergalicious/Fergalicious.sm;
#HASMUSIC:1;
#HASBANNER:1;
#MUSICLENGTH:66.045;
// end cache tags

//---------------dance-single - ----------------
#NOTES:
     dance-single:
     :
     Hard:
     7:
     0.467,0.425,0.273,0.000,0.030,198.000,18.000,0.000,0.000,0.000:
1000
0100
0001
0100
1000
0000
1100
0000
,
0001
0010
0000
1000
0010
0000
0011
0000
,
0010
0100
1000
0000
1001
0000
0000
0010
,
0100
0010
0000
1100
0000
0001
0000
0010
,
1000
0000
0100
0010
0100
0010
0100
0000
,
0001
0010
0000
0101
0000
0000
0000
0000
,
1000
0010
1000
0010
0100
0010
0100
0010
,
0001
1000
0001
1000
0001
0001
0000
0000
,
0100
0010
1000
0001
0010
0100
0001
1000
,
0010
1000
0100
1000
0010
0010
0100
0100
,
0001
0010
0001
0100
0010
1000
0100
1000
,
0010
0100
0001
1000
0100
0010
0001
0010
,
0100
0001
0010
0001
0100
0010
1000
0100
,
1000
0010
0001
0100
0001
0010
0100
0001
,
0100
0001
0101
0000
1100
0000
0000
1000
,
0000
0010
1000
0100
1000
0000
1010
0000
,
0011
0000
0101
0000
1001
0000
0000
1000
,
0100
0000
0011
0000
1001
0000
0001
0010
,
0100
1000
0000
0000
0000
0000
0010
0001
,
0100
0001
0010
0000
1001
0000
1000
1000
,
0010
0100
0001
0100
0010
0000
1000
0001
,
0010
0000
1000
0001
0100
0000
1010
0000
,
0101
0000
0001
0010
0000
0100
1000
0000
,
1000
0000
0010
0000
0100
0000
0000
0100
0000
0000
0000
0000
0001
0000
1000
0000
,
0010
0100
0000
1000
0010
0000
0001
0010
,
0001
0000
0100
0000
0010
0000
0000
0010
0000
0000
0000
0000
1000
0000
0100
0000
,
0001
0100
1000
0010
0100
0000
0001
0010
,
0100
0000
1000
0000
0001
1000
0000
0001
0000
0000
0000
0000
1000
0000
0010
0000
,
0100
0100
0000
0010
0010
0010
0010
0010
,
0010
0000
0100
0010
0000
0110
0000
0000
,
1000
0100
0001
0100
1000
0000
0000
0000
,
0001
0010
1000
0010
0001
0000
0000
0000
,
1000
0010
0100
0010
1000
0000
0000
0100
,
0110
0000
0000
0000
;

//---------------dance-single - ----------------
#NOTES:
     dance-single:
     :
     Medium:
     4:
     0.309,0.325,0.303,0.015,0.000,122.000,20.000,1.000,0.000,0.000:
1000
0100
1000
1100
,
0001
0100
0001
0101
,
0010
1000
0100
0000
,
0010
0000
0001
0000
0100
0000
0000
0010
,
0100
0001
1000
0100
,
0010
0100
0000
1001
0000
0000
0000
0000
,
0010
1000
0010
0000
1000
0000
0100
0000
,
0001
0100
1000
0000
,
0010
0100
0010
0000
0001
0000
0010
0000
,
0001
0100
0001
0000
,
0100
0001
0100
0000
0010
0000
1000
0000
,
0100
0010
0001
0000
,
0010
0001
0010
0000
1000
0000
0001
0000
,
1000
0000
0010
0000
0100
0000
0100
0001
,
0100
0000
0010
0000
0010
0000
0000
1000
,
0000
0010
0001
0000
,
1000
0100
0001
0010
,
0100
0000
0010
0000
1000
0000
0001
1000
,
0001
0000
0000
0000
,
1000
1010
1010
0010
,
0100
0000
0001
0000
0100
0000
0010
1000
,
0010
0000
0000
0110
,
1001
1000
0001
0010
,
0001
1000
1001
0011
,
1001
1000
0010
0100
,
0010
1000
1010
0011
,
1010
1000
0010
0100
,
0001
0010
0011
1100
,
0011
0000
0000
0020
0000
0000
0000
0000
,
1030
0000
0000
1001
0000
0000
0000
0000
,
1000
0010
0011
0000
,
0001
0010
1010
0000
,
1000
0000
0010
0000
0011
0000
0000
0010
,
0100
0000
0000
0000
;

//---------------dance-single - ----------------
#NOTES:
     dance-single:
     :
     Easy:
     3:
     0.214,0.225,0.000,0.015,0.000,98.000,0.000,1.000,0.000,0.000:
1000
0100
0001
0000
,
0001
0100
1000
0000
,
1000
0001
0010
0000
,
0010
0100
0000
0000
,
0001
0010
0100
1000
,
0100
0010
0001
0000
,
1000
0001
0001
1000
,
0010
0100
0010
0000
,
1000
0100
0100
1000
,
0010
0100
0010
0000
,
0001
0100
0001
0100
,
0010
1000
0010
1000
,
0001
0100
0010
1000
,
0001
1000
0001
0000
,
0200
0000
0301
0000
,
0000
0100
0001
0100
,
0010
0100
0010
0000
,
1000
0001
1000
0000
,
0010
0000
0000
0000
,
1000
0100
0010
0000
,
0001
0010
0001
0000
,
1000
0001
1000
0001
,
1000
0010
0100
0000
,
0000
0010
0010
1000
,
1000
0001
0010
0000
,
0000
1000
1000
0010
,
0010
0100
0001
0000
,
0000
1000
0001
0100
,
0010
0000
0000
0000
,
0000
0000
0000
0000
,
0010
0010
0010
0000
,
1000
1000
1000
0000
,
0001
0001
0001
0000
,
0100
0000
0000
0000
;

//---------------dance-single - ----------------
#NOTES:
     dance-single:
     :
     Beginner:
     1:
     0.093,0.125,0.015,0.000,0.000,42.000,1.000,0.000,0.000,0.000:
1000
0000
0000
0000
,
0010
0000
0000
0000
,
0100
0100
0100
0000
,
0000
0000
0000
0000
,
0001
0001
0001
0000
,
0001
0000
0000
0000
,
1000
0000
0000
0000
,
0010
0000
0000
0000
,
1000
0000
0000
0000
,
0001
0000
0000
0000
,
0100
0000
0000
0000
,
0010
0000
0000
0000
,
0100
0000
0000
0000
,
0001
0000
0000
0000
,
0010
0000
1000
0000
,
0000
0000
0100
0000
,
0100
0000
0000
0000
,
0010
0000
0000
0000
,
1000
0000
0000
0000
,
0001
0000
0000
0000
,
0100
0000
0000
0000
,
0010
0000
0000
0100
,
0100
0000
0000
0000
,
0000
0001
0000
0001
,
0001
0000
0000
1000
,
0000
0000
0000
1000
,
1000
0000
0000
0100
,
0000
0000
0000
0100
,
0100
0000
0000
0000
,
0010
0000
0000
0000
,
1000
0000
0000
0000
,
0001
0000
0000
0000
,
1000
0000
0000
0000
,
1001
0000
0000
0000
;
