#TITLE:Chipwrecked;
#SUBTITLE:;
#ARTIST:Rainbowdragoneyes;
#TITLETRANSLIT:;
#SUBTITLETRANSLIT:;
#ARTISTTRANSLIT:;
#CREDIT:;
#BANNER:../Jawn - ban.png;
#BACKGROUND:../Jawn - bg.png;
#LYRICSPATH:;
#CDTITLE:;
#MUSIC:Chipwrecked.ogg;
#OFFSET:0.009;
#SAMPLESTART:46.811;
#SAMPLELENGTH:20.000;
#SELECTABLE:YES;
#BPMS:0.000=200.000;
#STOPS:;
#BGCHANGES:;
// cache tags:
#FIRSTBEAT:0.000;
#LASTBEAT:503.500;
#SONGFILENAME:Songs/Jimmy Jawns/Chipwrecked - [Aoreo]/Chipwrecked.sm;
#HASMUSIC:1;
#HASBANNER:1;
#MUSICLENGTH:153.700;
// end cache tags

//---------------dance-single - J. Nero (Footspeed)----------------
#NOTES:
     dance-single:
     J. Nero (Footspeed):
     Challenge:
     17:
     1.000,1.000,0.026,0.592,1.000,1349.000,4.000,91.000,52.000,4.000:
2000
0000
3100
1000
0001
0100
0001
0010
,
0200
0000
1300
0010
0200
0000
0302
0000
,
2003
0000
3200
0000
0320
0000
0000
0031
,
1000
0001
0010
0001
0200
0000
0320
0000
,
1030
0100
1000
0001
0100
0010
0100
0001
1000
0100
1000
0001
0100
0010
0100
0001
,
1000
0100
1000
0001
0100
0010
0100
0001
1000
0100
1000
0001
0100
0010
0100
0001
,
1000
0100
1000
0001
0100
0000
0001
1000
0001
0010
0100
0000
1000
0001
0100
0010
,
0100
0000
0001
1000
0001
0000
1000
0000
0001
0000
0010
0000
0100
0000
0000
0000
,
1000
0001
1000
0100
0010
0001
0100
0001
1000
0010
0100
0010
1000
0100
0010
0001
,
0100
0001
1000
0010
1000
0001
0100
0001
0010
0100
1000
0010
0100
0010
1000
0100
,
0010
0001
0100
0001
1000
0100
0010
0100
1000
0010
0100
0010
1000
0001
0100
0001
,
0010
0100
1000
0001
1000
0001
0100
0001
1000
0010
0100
0010
1000
0100
0010
0001
,
1000
0001
0100
0010
0100
0001
1000
0100
0010
0100
1000
0001
0100
0010
0100
0001
,
1000
0100
0010
0001
1000
0010
1000
0100
0010
0001
0100
0001
0010
0100
0010
0001
,
1000
0100
0010
0001
0100
0010
0100
0001
0010
0100
1000
0010
0100
0001
1000
0100
,
0010
0001
1000
0001
0100
0010
0100
0001
1000
0100
0010
0001
1000
0010
1000
0010
,
0100
0001
0100
0001
1000
0100
0010
0100
0010
0001
1000
0010
1000
0000
0001
0000
,
1000
0000
0002
0000
0023
0130
2000
0000
,
3002
0203
0310
2000
3001
0010
0001
0000
,
0010
0000
0200
2300
3020
0000
0230
0000
,
0302
1003
0002
0000
0023
0000
0230
2300
,
3001
0000
0200
0000
0320
1030
0002
0000
,
0203
0302
1003
0200
0310
0001
0200
0000
,
0302
0000
2003
3020
0230
0000
0302
1003
,
0200
0310
0002
0203
0301
0001
1000
0010
,
1000
0100
0010
0100
1000
0010
0100
0010
,
1000
0001
0010
0100
0010
0001
0100
0010
,
1000
0100
0010
0001
0100
0001
0010
0001
,
1000
0100
1000
0010
0100
0010
1000
0001
,
0010
0100
1000
0001
0100
0001
1000
0100
,
0010
0100
1000
0001
0100
0010
0100
0001
,
1000
0100
1000
0010
1000
0001
0100
0001
,
0010
0000
0001
0000
1000
0000
0100
0000
0010
0000
0001
0000
0100
0010
0100
0001
,
1000
0000
0000
0000
0000
0000
0000
0000
0000
0000
0001
0000
0000
0000
0000
0000
0000
0000
0000
1000
0000
0000
0000
0000
0000
0000
0000
0000
0000
0010
0000
0000
0000
0000
0000
0000
0000
0000
0100
0000
0000
0000
0000
0000
0000
0000
0000
0000
0001
0000
0000
0000
0000
0000
0000
0000
0000
0000
0100
0000
0000
0000
0000
0000
0000
0000
0000
0010
0000
0000
0000
0000
0000
0000
0000
0000
0000
1000
0000
0000
0000
0000
0000
0000
0000
0000
0001
0000
0000
0000
0000
0000
0000
0000
0000
0000
1000
0000
0000
0000
0000
0000
0000
0000
0000
0000
0100
0000
0000
0000
0000
0000
0000
0000
0000
0010
0000
0000
0000
0000
0000
0000
0000
0000
0000
0001
0000
0000
0000
0000
0000
0000
0000
0000
1000
0000
0000
0000
0000
0000
0000
0000
0000
0000
0100
0000
0000
0000
0000
0000
0000
0000
0000
0000
1000
0000
0000
0000
0000
0000
0000
0000
0000
0001
0000
0000
0000
0000
0000
0000
0000
0000
0000
0100
0000
0000
0000
0000
0000
0000
0000
0000
0001
0000
0000
0000
0000
0000
0000
0000
0000
0000
,
1000
0000
0000
0000
0000
0000
0000
0000
0000
0000
0010
0000
0000
0000
0000
0000
0000
0000
0000
0100
0000
0000
0000
0000
0000
0000
0000
0000
0000
0001
0000
0000
0000
0000
0000
0000
0000
0000
0100
0000
0000
0000
0000
0000
0000
0000
0000
0000
0010
0000
0000
0000
0000
0000
0000
0000
0000
0000
1000
0000
0000
0000
0000
0000
0000
0000
0000
0001
0000
0000
0000
0000
0000
0000
0000
0000
0000
1000
0000
0000
0000
0000
0000
0000
0000
0000
0100
0000
0000
0000
0000
0000
0000
0000
0000
0000
0010
0000
0000
0000
0000
0000
0000
0000
0000
0000
0001
0000
0000
0000
0000
0000
0000
0000
0000
1000
0000
0000
0000
0000
0000
0000
0000
0000
0000
0100
0000
0000
0000
0000
0000
0000
0000
0000
1000
0000
0000
0000
0000
0000
0000
0000
0000
0000
0001
0000
0000
0000
0000
0000
0000
0000
0000
0000
0100
0000
0000
0000
0000
0000
0000
0000
0000
0001
0000
0000
0000
0000
0000
0000
0000
0000
0000
1000
0000
0000
0000
0000
0000
0000
0000
0000
0010
0000
0000
0000
0000
0000
0000
0000
0000
0000
,
1000
0000
0000
0000
0000
0000
0000
0000
0000
0000
0001
0000
0000
0000
0000
0000
0000
0000
0000
0100
0000
0000
0000
0000
0000
0000
0000
0000
0000
0001
0000
0000
0000
0000
0000
0000
0000
0000
1000
0000
0000
0000
0000
0000
0000
0000
0000
0000
0100
0000
0000
0000
0000
0000
0000
0000
0000
0000
1000
0000
0000
0000
0000
0000
0000
0000
0000
0001
0000
0000
0000
0000
0000
0000
0000
0000
0000
0010
0000
0000
0000
0000
0000
0000
0000
0000
0100
0000
0000
0000
0000
0000
0000
0000
0000
0000
1000
0000
0000
0000
0000
0000
0000
0000
0000
0000
0001
0000
0000
0000
0000
0000
0000
0000
0000
1000
0000
0000
0000
0000
0000
0000
0000
0000
0000
0010
0000
0000
0000
0000
0000
0000
0000
0000
0100
0000
0000
0000
0000
0000
0000
0000
0000
0000
0001
0000
0000
0000
0000
0000
0000
0000
0000
0000
0100
0000
0000
0000
0000
0000
0000
0000
0000
0010
0000
0000
0000
0000
0000
0000
0000
0000
0000
1000
0000
0000
0000
0000
0000
0000
0000
0000
0001
0000
0000
0000
0000
0000
0000
0000
0000
0000
,
1000
0000
0000
0000
0000
0000
0000
0000
0000
0000
0100
0000
0000
0000
0000
0000
0000
0000
0000
0010
0000
0000
0000
0000
0000
0000
0000
0000
0000
0001
0000
0000
0000
0000
0000
0000
0000
0000
1000
0000
0000
0000
0000
0000
0000
0000
0000
0000
0100
0000
0000
0000
0000
0000
0000
0000
0000
0000
1000
0000
0000
0000
0000
0000
0000
0000
0000
0001
0000
0000
0000
0000
0000
0000
0000
0000
0000
0100
0000
0000
0000
0000
0000
0000
0000
0000
0001
0000
0000
0000
0000
0000
0000
0000
0000
0000
1000
0000
0000
0000
0000
0000
0000
0000
0000
0000
0100
0000
0000
0000
0000
0000
0000
0000
0000
0010
0000
0000
0000
0000
0000
0000
0000
0000
0000
0001
0000
0000
0000
0000
0000
0000
0000
0000
1000
0000
0000
0000
0000
0000
0000
0000
0000
0000
0001
0000
0000
0000
0000
0000
0000
0000
0000
0000
0100
0000
0000
0000
0000
0000
0000
0000
0000
0010
0000
0000
0000
0000
0000
0000
0000
0000
0000
1000
0000
0000
0000
0000
0000
0000
0000
0000
0010
0000
0000
0000
0000
0000
0000
0000
0000
0000
,
0100
0000
0000
0000
0000
0000
0000
0000
0000
0000
0001
0000
0000
0000
0000
0000
0000
0000
0000
1000
0000
0000
0000
0000
0000
0000
0000
0000
0000
0001
0000
0000
0000
0000
0000
0000
0000
0000
0010
0000
0000
0000
0000
0000
0000
0000
0000
0000
0100
0000
0000
0000
0000
0000
0000
0000
0000
0000
1000
0000
0000
0000
0000
0000
0000
0000
0000
0001
0000
0000
0000
0000
0000
0000
0000
0000
0000
1000
0000
0000
0000
0000
0000
0000
0000
0000
0010
0000
0000
0000
0000
0000
0000
0000
0000
0000
0100
0000
0000
0000
0000
0000
0000
0000
0000
0000
0001
0000
0000
0000
0000
0000
0000
0000
0000
0100
0000
0000
0000
0000
0000
0000
0000
0000
0000
0010
0000
0000
0000
0000
0000
0000
0000
0000
1000
0000
0000
0000
0000
0000
0000
0000
0000
0000
0001
0000
0000
0000
0000
0000
0000
0000
0000
0000
1000
0000
0000
0000
0000
0000
0000
0000
0000
0100
0000
0000
0000
0000
0000
0000
0000
0000
0000
0010
0000
0000
0000
0000
0000
0000
0000
0000
0001
0000
0000
0000
0000
0000
0000
0000
0000
0000
,
1000
0000
0000
0000
0000
0000
0000
0000
0000
0000
0100
0000
0000
0000
0000
0000
0000
0000
0000
1000
0000
0000
0000
0000
0000
0000
0000
0000
0000
0001
0000
0000
0000
0000
0000
0000
0000
0000
0100
0000
0000
0000
0000
0000
0000
0000
0000
0000
0010
0000
0000
0000
0000
0000
0000
0000
0000
0000
0100
0000
0000
0000
0000
0000
0000
0000
0000
0001
0000
0000
0000
0000
0000
0000
0000
0000
0000
1000
0000
0000
0000
0000
0000
0000
0000
0000
0010
0000
0000
0000
0000
0000
0000
0000
0000
0000
2000
0000
0000
0000
0000
0000
0000
0000
0000
0000
0000
0000
0000
0000
0000
0000
0000
0000
0000
0000
0000
0000
0000
0000
0000
0000
0000
0000
0000
0000
0000
0000
0000
0000
0000
0000
0000
0000
0000
0000
0000
0000
0000
0000
0000
0000
0000
0000
0000
0000
0000
0000
0000
0000
0000
0000
0000
0000
0000
0000
0000
0000
0000
0000
0000
0000
0000
0000
0000
0000
0000
0000
3000
0000
0000
0000
0000
0000
0000
0000
0000
0000
0000
0000
0000
0000
0000
0000
0000
0000
0000
0000
0000
0000
0000
0000
,
2222
3333
0000
0000
0000
0000
0000
0000
,
2222
3333
0000
0000
0000
0000
0000
0000
,
0001
0000
1000
0000
0001
0010
0100
0000
1000
0000
0010
0000
0100
0001
0100
0000
,
0001
0000
0010
0000
0100
0000
1000
0000
0010
0100
0010
0000
1000
0000
0100
0000
,
0020
0030
0000
0000
0001
0000
0000
0000
1000
0000
0100
0000
1000
0000
0000
0000
0001
0000
0000
0000
0100
0000
0000
0000
0010
0000
1000
0000
0010
0000
0000
0000
,
0100
0000
0001
0000
0010
0000
0001
0000
0100
0010
0100
0000
0001
0000
1000
0000
,
0100
0000
0010
0000
0100
0010
0100
0000
0010
0000
0001
0000
1000
0010
1000
0000
,
0001
0000
0100
0000
0001
0000
1000
0000
0100
0000
0000
1000
0001
0000
1000
0100
,
0010
0001
0100
0001
1000
0010
1000
0100
0010
0001
1000
0001
0100
0010
0100
0001
,
1000
0100
0010
0100
1000
0001
0100
0010
0100
0001
0010
0100
1000
0010
1000
0100
,
0010
0001
1000
0100
1000
0001
0010
0100
1000
0010
1000
0001
0100
0010
0100
0001
,
0010
0100
0010
0001
1000
0010
1000
0100
0010
0001
0100
0001
1000
0010
1000
0010
,
0100
0001
0010
0100
0010
0001
1000
0010
1000
0001
0010
0100
1000
0001
0100
0010
,
1000
0100
0010
0001
1000
0001
0100
0010
1000
0100
0010
0001
0100
0010
1000
0001
,
0010
0100
0010
0100
1000
0001
0100
0001
0100
0010
1000
0100
1000
0100
0010
0001
,
1000
0001
1000
0010
0100
0010
1000
0001
0010
0100
0010
0001
1000
0010
1000
0010
,
0400
0000
0300
0000
0001
0000
2000
3200
,
0320
0031
2000
0000
3020
0000
0230
0000
,
0301
1000
0001
0000
0010
0000
0200
2300
,
3002
0000
0203
0000
0302
1003
0100
0000
,
0020
0230
1300
0002
0103
0000
0002
0000
,
2003
3100
0020
0030
0002
2003
3010
0200
,
0310
1000
0100
0000
0010
0000
0002
2003
,
3020
0030
1000
0001
0200
0310
0200
0301
,
2000
3100
0020
0230
1300
0010
0100
0001
,
1000
0010
0100
0010
1000
0001
0010
0100
,
0010
0001
0100
0010
1000
0100
0010
0001
,
0100
0001
0010
0001
1000
0100
1000
0010
,
0100
0010
1000
0001
0010
0100
1000
0001
,
0100
0001
1000
0100
0010
0100
1000
0001
,
0100
0010
0100
0001
1000
0100
1000
0010
,
1000
0001
0100
0001
0010
0001
1000
0100
,
0010
0000
0000
0000
0000
0000
0000
0000
0000
0000
0000
0000
0000
0000
0000
0000
0000
0000
0000
0000
0000
0000
0000
0000
0001
0000
0000
0000
0000
0000
0000
0000
0000
0000
0000
0000
0000
0000
0000
0000
0000
0000
0000
0000
0000
0000
0000
0000
0100
0000
0000
0000
0000
0000
0000
0000
0000
0000
0000
0000
0010
0000
0000
0000
0000
0000
0000
0000
0000
0000
0000
0000
0100
0000
0000
0000
0000
0000
0000
0000
0000
0000
0000
0000
0001
0000
0000
0000
0000
0000
0000
0000
0000
0000
0000
0000
1000
0000
0000
0000
0000
0000
0000
0000
0000
0000
0100
0000
0000
0000
0000
0000
0000
0000
0000
0010
0000
0000
0000
0000
0000
0000
0000
0000
0000
0001
0000
0000
0000
0000
0000
0000
0000
0000
1000
0000
0000
0000
0000
0000
0000
0000
0000
0000
0001
0000
0000
0000
0000
0000
0000
0000
0000
0000
1000
0000
0000
0000
0000
0000
0000
0000
0000
0010
0000
0000
0000
0000
0000
0000
0000
0000
0000
0100
0000
0000
0000
0000
0000
0000
0000
0000
0001
0000
0000
0000
0000
0000
0000
0000
0000
0000
,
0100
0000
0000
0000
0000
0000
0000
0000
0000
0000
0010
0000
0000
0000
0000
0000
0000
0000
0000
1000
0000
0000
0000
0000
0000
0000
0000
0000
0000
0001
0000
0000
0000
0000
0000
0000
0000
0000
1000
0000
0000
0000
0000
0000
0000
0000
0000
0000
0001
0000
0000
0000
0000
0000
0000
0000
0000
0000
0010
0000
0000
0000
0000
0000
0000
0000
0000
0100
0000
0000
0000
0000
0000
0000
0000
0000
0000
1000
0000
0000
0000
0000
0000
0000
0000
0000
0001
0000
0000
0000
0000
0000
0000
0000
0000
0000
0010
0000
0000
0000
0000
0000
0000
0000
0000
0000
0001
0000
0000
0000
0000
0000
0000
0000
0000
1000
0000
0000
0000
0000
0000
0000
0000
0000
0000
0010
0000
0000
0000
0000
0000
0000
0000
0000
1000
0000
0000
0000
0000
0000
0000
0000
0000
0000
0001
0000
0000
0000
0000
0000
0000
0000
0000
0000
0100
0000
0000
0000
0000
0000
0000
0000
0000
0010
0000
0000
0000
0000
0000
0000
0000
0000
0000
1000
0000
0000
0000
0000
0000
0000
0000
0000
0010
0000
0000
0000
0000
0000
0000
0000
0000
0000
,
0100
0000
0000
0000
0000
0000
0000
0000
0000
0000
0001
0000
0000
0000
0000
0000
0000
0000
0000
1000
0000
0000
0000
0000
0000
0000
0000
0000
0000
0001
0000
0000
0000
0000
0000
0000
0000
0000
0010
0000
0000
0000
0000
0000
0000
0000
0000
0000
0100
0000
0000
0000
0000
0000
0000
0000
0000
0000
1000
0000
0000
0000
0000
0000
0000
0000
0000
0001
0000
0000
0000
0000
0000
0000
0000
0000
0000
0010
0000
0000
0000
0000
0000
0000
0000
0000
0001
0000
0000
0000
0000
0000
0000
0000
0000
0000
1000
0000
0000
0000
0000
0000
0000
0000
0000
0000
0010
0000
0000
0000
0000
0000
0000
0000
0000
1000
0000
0000
0000
0000
0000
0000
0000
0000
0000
0001
0000
0000
0000
0000
0000
0000
0000
0000
0100
0000
0000
0000
0000
0000
0000
0000
0000
0000
0001
0000
0000
0000
0000
0000
0000
0000
0000
0000
1000
0000
0000
0000
0000
0000
0000
0000
0000
0010
0000
0000
0000
0000
0000
0000
0000
0000
0000
1000
0000
0000
0000
0000
0000
0000
0000
0000
0001
0000
0000
0000
0000
0000
0000
0000
0000
0000
,
0010
0000
0000
0000
0000
0000
0000
0000
0000
0000
0001
0000
0000
0000
0000
0000
0000
0000
0000
1000
0000
0000
0000
0000
0000
0000
0000
0000
0000
0100
0000
0000
0000
0000
0000
0000
0000
0000
0010
0000
0000
0000
0000
0000
0000
0000
0000
0000
0001
0000
0000
0000
0000
0000
0000
0000
0000
0000
1000
0000
0000
0000
0000
0000
0000
0000
0000
0001
0000
0000
0000
0000
0000
0000
0000
0000
0000
0100
0000
0000
0000
0000
0000
0000
0000
0000
0010
0000
0000
0000
0000
0000
0000
0000
0000
0000
1000
0000
0000
0000
0000
0000
0000
0000
0000
0000
0010
0000
0000
0000
0000
0000
0000
0000
0000
0100
0000
0000
0000
0000
0000
0000
0000
0000
0000
0001
0000
0000
0000
0000
0000
0000
0000
0000
1000
0000
0000
0000
0000
0000
0000
0000
0000
0000
0001
0000
0000
0000
0000
0000
0000
0000
0000
0000
0010
0000
0000
0000
0000
0000
0000
0000
0000
0100
0000
0000
0000
0000
0000
0000
0000
0000
0000
1000
0000
0000
0000
0000
0000
0000
0000
0000
0001
0000
0000
0000
0000
0000
0000
0000
0000
0000
,
0010
0000
0000
0000
0000
0000
0000
0000
0000
0000
0001
0000
0000
0000
0000
0000
0000
0000
0000
1000
0000
0000
0000
0000
0000
0000
0000
0000
0000
0010
0000
0000
0000
0000
0000
0000
0000
0000
1000
0000
0000
0000
0000
0000
0000
0000
0000
0000
0001
0000
0000
0000
0000
0000
0000
0000
0000
0000
0010
0000
0000
0000
0000
0000
0000
0000
0000
0100
0000
0000
0000
0000
0000
0000
0000
0000
0000
1000
0000
0000
0000
0000
0000
0000
0000
0000
0001
0000
0000
0000
0000
0000
0000
0000
0000
0000
1000
0000
0000
0000
0000
0000
0000
0000
0000
0000
0010
0000
0000
0000
0000
0000
0000
0000
0000
0100
0000
0000
0000
0000
0000
0000
0000
0000
0000
0001
0000
0000
0000
0000
0000
0000
0000
0000
0100
0000
0000
0000
0000
0000
0000
0000
0000
0000
0010
0000
0000
0000
0000
0000
0000
0000
0000
0000
1000
0000
0000
0000
0000
0000
0000
0000
0000
0001
0000
0000
0000
0000
0000
0000
0000
0000
0000
1000
0000
0000
0000
0000
0000
0000
0000
0000
0100
0000
0000
0000
0000
0000
0000
0000
0000
0000
,
0010
0000
0000
0000
0000
0000
0000
0000
0000
0000
0001
0000
0000
0000
0000
0000
0000
0000
0000
1000
0000
0000
0000
0000
0000
0000
0000
0000
0000
0001
0000
0000
0000
0000
0000
0000
0000
0000
0100
0000
0000
0000
0000
0000
0000
0000
0000
0000
0010
0000
0000
0000
0000
0000
0000
0000
0000
0000
1000
0000
0000
0000
0000
0000
0000
0000
0000
0010
0000
0000
0000
0000
0000
0000
0000
0000
0000
0100
0000
0000
0000
0000
0000
0000
0000
0000
0001
0000
0000
0000
0000
0000
0000
0000
0000
0000
1000
0000
0000
0000
0000
0000
0000
0000
0000
0000
0001
0000
0000
0000
0000
0000
0000
0000
0000
0010
0000
0000
0000
0000
0000
0000
0000
0000
0000
0100
0000
0000
0000
0000
0000
0000
0000
0000
1000
0000
0000
0000
0000
0000
0000
0000
0000
0000
0001
0000
0000
0000
0000
0000
0000
0000
0000
0000
0010
0000
0000
0000
0000
0000
0000
0000
0000
0001
0000
0000
0000
0000
0000
0000
0000
0000
0000
1000
0000
0000
0000
0000
0000
0000
0000
0000
0010
0000
0000
0000
0000
0000
0000
0000
0000
0000
,
2000
3000
2222
3333
,
0000
0000
2222
3333
,
0000
0000
0000
0000
0000
0000
0000
0000
0001
0000
0100
0000
0001
1000
0001
0000
,
1000
0000
0010
0000
0100
0001
0100
0000
0001
0000
0010
0000
0100
0000
1000
0000
,
0001
0000
0100
0000
0001
0000
0000
0000
1000
0000
0000
0000
0100
0000
0000
0000
0020
0030
0000
0000
0001
0000
0000
0000
1000
0000
0010
0000
1000
0000
0000
0000
,
0001
0000
0100
0000
0010
1000
0010
0000
0100
0000
0001
0000
1000
0000
0001
0000
,
0010
0100
1000
0000
0001
0000
0100
0000
0010
0000
1000
0000
0001
0100
0001
0000
,
1000
0000
0100
0000
1000
0100
0010
0001
0100
0000
0000
0000
0100
0000
0000
0000
,
0001
1000
0001
1000
0100
0010
0100
0010
0001
0100
0010
1000
0100
1000
0010
0100
,
0001
0010
0100
1000
0010
1000
0100
0010
0001
0100
0001
1000
0010
1000
0100
0010
,
0001
0100
0010
1000
0100
1000
0010
0100
0001
0010
0001
0100
0010
1000
0100
0010
,
0001
1000
0100
1000
0010
0100
0001
1000
0001
0010
0100
1000
0001
0100
0001
1000
,
0010
0100
0010
1000
0001
0100
0001
1000
0200
0000
0000
0000
0300
0000
0000
0000
,
0000
0000
0000
0000
,
0000
0000
0000
0000
,
0000
0000
0000
0000
,
0000
0000
0000
0000
0000
0000
0000
0000
1000
0100
0010
0001
0100
0010
0100
0001
,
1000
0100
0010
0001
0100
0010
0100
0001
1000
0100
0010
0001
0100
0010
0100
0001
,
1000
0100
0010
0001
0100
0010
0100
0001
1000
0100
0010
0001
0100
0010
0100
0001
,
1000
0100
0010
0001
0100
0010
0100
0001
1000
0100
0010
0001
0100
0010
0100
0001
,
1000
0100
0010
0001
1000
0010
0100
0001
1000
0100
0010
0001
0100
0010
0100
0001
,
1000
0100
0010
0001
0100
0010
0100
0001
1000
0100
0010
0001
0100
0010
0100
0001
,
1000
0100
0010
0001
0100
0010
0100
0001
0010
0001
0100
0010
1000
0100
1000
0010
,
0100
0001
0010
0001
0100
0010
1000
0100
1000
0001
0100
0001
0000
0000
0000
0000
,
1000
0100
0010
0001
1000
0010
0100
0010
1000
0000
0000
0000
0000
0000
0001
0000
,
1000
0000
0000
0001
0100
0000
0000
0001
,
0010
0000
0000
0100
1000
0000
0000
0001
,
1000
0000
0000
0010
1000
0000
0000
0001
,
0100
0000
0000
0000
0000
0000
0001
0000
1000
0100
1000
0001
0100
0010
0100
0001
,
1000
0100
1000
0001
0100
0010
0100
0001
1000
0100
1000
0001
0100
0010
0100
0001
,
1000
0100
1000
0001
0100
0010
0100
0001
1000
0100
1000
0001
0100
0000
0001
1000
,
0001
0010
0100
0000
1000
0001
0100
0010
0100
0000
0001
0000
1000
0000
0100
0000
,
2000
3002
0M03
1000
,
00M0
0001
0100
0001
1M00
0000
0100
0000
,
00M0
0000
1000
0000
0001
0000
0100
0000
0001
0000
1000
0000
0010
0100
0010
0000
,
1000
0000
0001
0000
0100
0001
0100
0000
0001
0000
1000
0000
0100
0000
0010
0000
,
0100
0000
1000
0000
0100
0000
0000
0000
1000
0000
0000
0000
0010
0000
0000
0000
0200
0300
0000
0000
0001
0000
0000
0000
1000
0000
0001
0000
1000
0000
0000
0000
,
0100
0000
0010
0000
0001
1000
0001
0000
1000
0000
0100
0000
0010
0000
0001
0000
,
1000
0000
0000
0010
0000
0000
1000
0000
0000
0000
0000
0000
0001
0000
0000
0000
0000
0000
1000
0000
0000
0000
0000
0000
00M0
0000
0000
0000
0000
0000
00M0
0000
0000
0000
0000
0000
00M0
0000
0000
0000
00M0
0000
0000
0000
00M0
0000
0000
0000
,
00M0
0000
0000
0000
00M0
0000
0000
0000
00M0
0000
0000
0000
00M0
0000
0000
0000
00M0
0000
0000
0000
00M0
0000
0000
0000
00M0
0000
0000
00M0
0000
0000
00M0
0000
0000
00M0
0000
0000
00M0
0000
0000
00M0
0000
0000
00M0
0000
0000
00M0
0000
0000
,
00M0
0000
0000
0000
0000
0000
0000
0000
00M0
0000
0000
0000
0000
0000
0000
0000
00M0
0000
0000
0000
0000
0000
0000
0000
00M0
0000
0000
0000
0000
0000
0000
0000
00M0
0000
0000
0000
0000
0000
0000
0000
00M0
0000
0000
0000
0000
0000
0000
0000
00M0
0000
0000
0000
0000
0000
0000
0000
00M0
0000
0000
0000
0000
0000
0000
0000
00M0
0000
0000
0000
0000
0000
0000
0000
00M0
0000
0000
0000
0000
0000
00M0
0000
0000
0000
0000
0000
00M0
0000
0000
0000
0000
0000
00M0
0000
0000
0000
0000
0000
00M0
0000
0000
0000
0000
0000
00M0
0000
0000
0000
0000
0000
00M0
0000
0000
0000
0000
0000
00M0
0000
0000
0000
0000
0000
00M0
0000
0000
0000
0000
0000
00M0
0000
0000
0000
0000
0000
00M0
0000
0000
0000
0000
0000
00M0
0000
0000
0000
0000
0000
00M0
0000
0000
0000
0000
0000
00M0
0000
0000
0000
0000
0000
00M0
0000
0000
0000
0000
0000
00M0
0000
0000
0000
0000
0000
00M0
0000
0000
0000
0000
0000
00M0
0000
0000
0000
0000
0000
00M0
0000
0000
0000
0000
0000
00M0
0000
0000
0000
0000
0000
,
0001
1000
0001
0010
0100
1000
0010
1000
0001
0100
0010
0100
0001
0010
0100
1000
,
0010
1000
0001
0100
0001
1000
0010
1000
0100
0010
0001
0100
0010
0100
0001
0010
,
0100
1000
0010
1000
0001
0010
0100
0010
0001
0100
0010
0100
0001
1000
0010
1000
,
0100
0010
0001
1000
0001
1000
0010
1000
0001
0100
0010
0100
0001
0010
0100
1000
,
0001
1000
0010
0100
0010
1000
0001
0010
0100
0010
0001
1000
0010
0100
0010
1000
,
0001
0010
0100
1000
0001
0100
0001
0010
0100
1000
0010
1000
0100
0010
0100
1000
,
0001
0010
0100
1000
0010
0100
0010
1000
0100
0010
0001
0100
0010
1000
0001
0010
,
0100
1000
0001
1000
0010
0100
0010
1000
0001
0010
0100
1000
0001
0100
0001
0000
;

//---------------dance-single - J. Nero (Stamina)----------------
#NOTES:
     dance-single:
     J. Nero (Stamina):
     Hard:
     16:
     1.000,1.000,0.026,0.592,1.000,1429.000,4.000,91.000,52.000,4.000:
2000
0000
3100
1000
0001
0100
0001
0010
,
0200
0000
1300
0010
0200
0000
0302
0000
,
2003
0000
3200
0000
0320
0000
0000
0031
,
1000
0001
0010
0001
0200
0000
0320
0000
,
1030
0100
1000
0001
0100
0010
0100
0001
1000
0100
1000
0001
0100
0010
0100
0001
,
1000
0100
1000
0001
0100
0010
0100
0001
1000
0100
1000
0001
0100
0010
0100
0001
,
1000
0100
1000
0001
0100
0000
0001
1000
0001
0010
0100
0000
1000
0001
0100
0010
,
0100
0000
0001
1000
0001
0000
1000
0000
0001
0000
0010
0000
0100
0000
0000
0000
,
1000
0001
1000
0100
0010
0001
0100
0001
1000
0010
0100
0010
1000
0100
0010
0001
,
0100
0001
1000
0010
1000
0001
0100
0001
0010
0100
1000
0010
0100
0010
1000
0100
,
0010
0001
0100
0001
1000
0100
0010
0100
1000
0010
0100
0010
1000
0001
0100
0001
,
0010
0100
1000
0001
1000
0001
0100
0001
1000
0010
0100
0010
1000
0100
0010
0001
,
1000
0001
0100
0010
0100
0001
1000
0100
0010
0100
1000
0001
0100
0010
0100
0001
,
1000
0100
0010
0001
1000
0010
1000
0100
0010
0001
0100
0001
0010
0100
0010
0001
,
1000
0100
0010
0001
0100
0010
0100
0001
0010
0100
1000
0010
0100
0001
1000
0100
,
0010
0001
1000
0001
0100
0010
0100
0001
1000
0100
0010
0001
1000
0010
1000
0010
,
0100
0001
0100
0001
1000
0100
0010
0100
0010
0001
1000
0010
1000
0000
0001
0000
,
1000
0000
0002
0000
0023
0130
2000
0000
,
3002
0203
0310
2000
3001
0010
0001
0000
,
0010
0000
0200
2300
3020
0000
0230
0000
,
0302
1003
0002
0000
0023
0000
0230
2300
,
3001
0000
0200
0000
0320
1030
0002
0000
,
0203
0302
1003
0200
0310
0001
0200
0000
,
0302
0000
2003
3020
0230
0000
0302
1003
,
0200
0310
0002
0203
0301
0001
1000
0010
,
1000
0001
0100
0001
0010
0001
1000
0010
1000
0001
0100
0001
0010
0001
1000
0010
,
1000
0001
0010
0001
0100
0001
1000
0010
1000
0001
0010
0100
0010
0001
0100
0010
,
1000
0100
1000
0010
1000
0001
0100
0001
1000
0100
1000
0010
1000
0001
0100
0001
,
1000
0010
1000
0100
1000
0001
0100
0001
0010
0100
1000
0001
0100
0001
0010
0001
,
1000
0100
0010
0100
1000
0001
0010
0001
0100
0010
0100
0001
1000
0010
0100
0001
,
1000
0100
0010
0001
0100
0001
1000
0010
0100
0010
1000
0001
0100
0001
0010
0001
,
1000
0100
0010
0100
1000
0010
0100
0001
1000
0100
1000
0010
1000
0001
0100
0001
,
0010
0100
1000
0001
0100
0010
0100
0001
1000
0100
0010
0001
0100
0001
1000
0010
,
1000
0100
0010
0001
0100
0001
0010
0001
1000
0010
0100
0010
1000
0100
0010
0001
,
0100
0001
0010
0100
1000
0010
0100
0010
1000
0100
0010
0100
1000
0001
0100
0010
,
0100
0001
0010
0100
1000
0010
0100
0001
0100
0010
1000
0100
0010
0100
1000
0010
,
0100
0001
1000
0100
0010
0001
0100
0001
0010
0100
1000
0010
0100
0010
1000
0100
,
0010
0100
1000
0010
0100
0001
1000
0100
0010
0001
0100
0001
0010
0001
1000
0010
,
0100
0010
1000
0100
0010
0001
0100
0010
2000
0000
0000
0000
0000
0000
3000
0000
,
2222
3333
0000
0000
0000
0000
0000
0000
,
2222
3333
0000
0000
0000
0000
0000
0000
,
0001
0000
1000
0000
0001
0010
0100
0000
1000
0000
0010
0000
0100
0001
0100
0000
,
0001
0000
0010
0000
0100
0000
1000
0000
0010
0100
0010
0000
1000
0000
0100
0000
,
0020
0030
0000
0000
0001
0000
0000
0000
1000
0000
0100
0000
1000
0000
0000
0000
0001
0000
0000
0000
0100
0000
0000
0000
0010
0000
1000
0000
0010
0000
0000
0000
,
0100
0000
0001
0000
0010
0000
0001
0000
0100
0010
0100
0000
0001
0000
1000
0000
,
0100
0000
0010
0000
0100
0010
0100
0000
0010
0000
0001
0000
1000
0010
1000
0000
,
0001
0000
0100
0000
0001
0000
1000
0000
0100
0000
0000
1000
0001
0000
1000
0100
,
0010
0001
0100
0001
1000
0010
1000
0100
0010
0001
1000
0001
0100
0010
0100
0001
,
1000
0100
0010
0100
1000
0001
0100
0010
0100
0001
0010
0100
1000
0010
1000
0100
,
0010
0001
1000
0100
1000
0001
0010
0100
1000
0010
1000
0001
0100
0010
0100
0001
,
0010
0100
0010
0001
1000
0010
1000
0100
0010
0001
0100
0001
1000
0010
1000
0010
,
0100
0001
0010
0100
0010
0001
1000
0010
1000
0001
0010
0100
1000
0001
0100
0010
,
1000
0100
0010
0001
1000
0001
0100
0010
1000
0100
0010
0001
0100
0010
1000
0001
,
0010
0100
0010
0100
1000
0001
0100
0001
0100
0010
1000
0100
1000
0100
0010
0001
,
1000
0001
1000
0010
0100
0010
1000
0001
0010
0100
0010
0001
1000
0010
1000
0010
,
0400
0000
0300
0000
0001
0000
2000
3200
,
0320
0031
2000
0000
3020
0000
0230
0000
,
0301
1000
0001
0000
0010
0000
0200
2300
,
3002
0000
0203
0000
0302
1003
0100
0000
,
0020
0230
1300
0002
0103
0000
0002
0000
,
2003
3100
0020
0030
0002
2003
3010
0200
,
0310
1000
0100
0000
0010
0000
0002
2003
,
3020
0030
1000
0001
0200
0310
0200
0301
,
2000
0000
3100
0000
0020
0000
0230
0000
1300
0001
0100
0001
0010
0001
1000
0100
,
1000
0001
0100
0001
0010
0001
1000
0100
1000
0001
0100
0001
0010
0001
1000
0010
,
1000
0001
0100
0010
0100
0001
1000
0100
1000
0010
1000
0001
0010
0001
1000
0100
,
1000
0010
1000
0001
0010
0001
1000
0100
1000
0010
1000
0001
0010
0001
1000
0100
,
0010
0100
1000
0001
0100
0010
0100
0001
1000
0100
0010
0001
1000
0001
0100
0010
,
0100
0001
1000
0001
0010
0100
1000
0001
0100
0001
1000
0010
1000
0001
0100
0010
,
0100
0001
1000
0001
0010
0100
1000
0001
0100
0001
1000
0100
0010
0100
1000
0001
,
0100
0001
1000
0010
0100
0010
1000
0001
1000
0100
0010
0001
1000
0001
0100
0010
,
0100
0001
1000
0001
0010
0100
1000
0001
1000
0100
0010
0001
0100
0001
0010
0001
,
1000
0010
0100
0010
1000
0100
0010
0001
0100
0001
0010
0100
1000
0010
0100
0010
,
1000
0100
0010
0100
1000
0001
0100
0010
0100
0001
0010
0100
1000
0010
0100
0001
,
0100
0010
1000
0100
0010
0100
1000
0010
0100
0001
1000
0100
0010
0001
0100
0001
,
0010
0100
1000
0010
0100
0010
1000
0100
0010
0100
1000
0010
0100
0001
1000
0100
,
0010
0001
0100
0001
0010
0001
1000
0010
0100
0010
1000
0100
0010
0001
0100
0010
,
2000
3000
2222
3333
,
0000
0000
2222
3333
,
0000
0000
0000
0000
0000
0000
0000
0000
0001
0000
0100
0000
0001
1000
0001
0000
,
1000
0000
0010
0000
0100
0001
0100
0000
0001
0000
0010
0000
0100
0000
1000
0000
,
0001
0000
0100
0000
0001
0000
0000
0000
1000
0000
0000
0000
0100
0000
0000
0000
0020
0030
0000
0000
0001
0000
0000
0000
1000
0000
0010
0000
1000
0000
0000
0000
,
0001
0000
0100
0000
0010
1000
0010
0000
0100
0000
0001
0000
1000
0000
0001
0000
,
0010
0100
1000
0000
0001
0000
0100
0000
0010
0000
1000
0000
0001
0100
0001
0000
,
1000
0000
0100
0000
1000
0100
0010
0001
0100
0000
0000
0000
0100
0000
0000
0000
,
0001
1000
0001
1000
0100
0010
0100
0010
0001
0100
0010
1000
0100
1000
0010
0100
,
0001
0010
0100
1000
0010
1000
0100
0010
0001
0100
0001
1000
0010
1000
0100
0010
,
0001
0100
0010
1000
0100
1000
0010
0100
0001
0010
0001
0100
0010
1000
0100
0010
,
0001
1000
0100
1000
0010
0100
0001
1000
0001
0010
0100
1000
0001
0100
0001
1000
,
0010
0100
0010
1000
0001
0100
0001
1000
0200
0000
0000
0000
0300
0000
0000
0000
,
0000
0000
0000
0000
,
0000
0000
0000
0000
,
0000
0000
0000
0000
,
0000
0000
0000
0000
0000
0000
0000
0000
1000
0100
0010
0001
0100
0010
0100
0001
,
1000
0100
0010
0001
0100
0010
0100
0001
1000
0100
0010
0001
0100
0010
0100
0001
,
1000
0100
0010
0001
0100
0010
0100
0001
1000
0100
0010
0001
0100
0010
0100
0001
,
1000
0100
0010
0001
0100
0010
0100
0001
1000
0100
0010
0001
0100
0010
0100
0001
,
1000
0100
0010
0001
1000
0010
0100
0001
1000
0100
0010
0001
0100
0010
0100
0001
,
1000
0100
0010
0001
0100
0010
0100
0001
1000
0100
0010
0001
0100
0010
0100
0001
,
1000
0100
0010
0001
0100
0010
0100
0001
0010
0001
0100
0010
1000
0100
1000
0010
,
0100
0001
0010
0001
0100
0010
1000
0100
1000
0001
0100
0001
0000
0000
0000
0000
,
1000
0100
0010
0001
1000
0010
0100
0010
1000
0000
0000
0000
0000
0000
0001
0000
,
1000
0000
0000
0001
0100
0000
0000
0001
,
0010
0000
0000
0100
1000
0000
0000
0001
,
1000
0000
0000
0010
1000
0000
0000
0001
,
0100
0000
0000
0000
0000
0000
0001
0000
1000
0100
1000
0001
0100
0010
0100
0001
,
1000
0100
1000
0001
0100
0010
0100
0001
1000
0100
1000
0001
0100
0010
0100
0001
,
1000
0100
1000
0001
0100
0010
0100
0001
1000
0100
1000
0001
0100
0000
0001
1000
,
0001
0010
0100
0000
1000
0001
0100
0010
0100
0000
0001
0000
1000
0000
0100
0000
,
2000
3002
0M03
1000
,
00M0
0001
0100
0001
1M00
0000
0100
0000
,
00M0
0000
1000
0000
0001
0000
0100
0000
0001
0000
1000
0000
0010
0100
0010
0000
,
1000
0000
0001
0000
0100
0001
0100
0000
0001
0000
1000
0000
0100
0000
0010
0000
,
0100
0000
1000
0000
0100
0000
0000
0000
1000
0000
0000
0000
0010
0000
0000
0000
0200
0300
0000
0000
0001
0000
0000
0000
1000
0000
0001
0000
1000
0000
0000
0000
,
0100
0000
0010
0000
0001
1000
0001
0000
1000
0000
0100
0000
0010
0000
0001
0000
,
1000
0000
0000
0010
0000
0000
1000
0000
0000
0000
0000
0000
0001
0000
0000
0000
0000
0000
1000
0000
0000
0000
0000
0000
00M0
0000
0000
0000
0000
0000
00M0
0000
0000
0000
0000
0000
00M0
0000
0000
0000
00M0
0000
0000
0000
00M0
0000
0000
0000
,
00M0
0000
0000
0000
00M0
0000
0000
0000
00M0
0000
0000
0000
00M0
0000
0000
0000
00M0
0000
0000
0000
00M0
0000
0000
0000
00M0
0000
0000
00M0
0000
0000
00M0
0000
0000
00M0
0000
0000
00M0
0000
0000
00M0
0000
0000
00M0
0000
0000
00M0
0000
0000
,
00M0
0000
0000
0000
0000
0000
0000
0000
00M0
0000
0000
0000
0000
0000
0000
0000
00M0
0000
0000
0000
0000
0000
0000
0000
00M0
0000
0000
0000
0000
0000
0000
0000
00M0
0000
0000
0000
0000
0000
0000
0000
00M0
0000
0000
0000
0000
0000
0000
0000
00M0
0000
0000
0000
0000
0000
0000
0000
00M0
0000
0000
0000
0000
0000
0000
0000
00M0
0000
0000
0000
0000
0000
0000
0000
00M0
0000
0000
0000
0000
0000
00M0
0000
0000
0000
0000
0000
00M0
0000
0000
0000
0000
0000
00M0
0000
0000
0000
0000
0000
00M0
0000
0000
0000
0000
0000
00M0
0000
0000
0000
0000
0000
00M0
0000
0000
0000
0000
0000
00M0
0000
0000
0000
0000
0000
00M0
0000
0000
0000
0000
0000
00M0
0000
0000
0000
0000
0000
00M0
0000
0000
0000
0000
0000
00M0
0000
0000
0000
0000
0000
00M0
0000
0000
0000
0000
0000
00M0
0000
0000
0000
0000
0000
00M0
0000
0000
0000
0000
0000
00M0
0000
0000
0000
0000
0000
00M0
0000
0000
0000
0000
0000
00M0
0000
0000
0000
0000
0000
00M0
0000
0000
0000
0000
0000
00M0
0000
0000
0000
0000
0000
,
0001
1000
0001
0010
0100
1000
0010
1000
0001
0100
0010
0100
0001
0010
0100
1000
,
0010
1000
0001
0100
0001
1000
0010
1000
0100
0010
0001
0100
0010
0100
0001
0010
,
0100
1000
0010
1000
0001
0010
0100
0010
0001
0100
0010
0100
0001
1000
0010
1000
,
0100
0010
0001
1000
0001
1000
0010
1000
0001
0100
0010
0100
0001
0010
0100
1000
,
0001
1000
0010
0100
0010
1000
0001
0010
0100
0010
0001
1000
0010
0100
0010
1000
,
0001
0010
0100
1000
0001
0100
0001
0010
0100
1000
0010
1000
0100
0010
0100
1000
,
0001
0010
0100
1000
0010
0100
0010
1000
0100
0010
0001
0100
0010
1000
0001
0010
,
0100
1000
0001
1000
0010
0100
0010
1000
0001
0010
0100
1000
0001
0100
0001
0000
;
