#TITLE:Spiral Pegicion(Megaman X5);
#SUBTITLE:;
#ARTIST:Capcom Sound Team;
#TITLETRANSLIT:;
#SUBTITLETRANSLIT:;
#ARTISTTRANSLIT:;
#CREDIT:Jason D. Gersztyn;
#BANNER:spiral pegasi-banner.JPG;
#BACKGROUND:spiral pegasi-bg.JPG;
#LYRICSPATH:;
#CDTITLE:PhoenixW-cdtitle.JPG;
#MUSIC:14 - X5 - SPIRAL PEGACION STAGE.mp3;
#OFFSET:-0.319;
#SAMPLESTART:37.827;
#SAMPLELENGTH:12.000;
#SELECTABLE:YES;
#BPMS:0.000=159.966;
#STOPS:;
#BGCHANGES:;
// cache tags:
#FIRSTBEAT:0.500;
#LASTBEAT:355.000;
#SONGFILENAME:Songs/keyboard/14 - X5 - SPIRAL PEGACION STAGE/14 - X5 - SPIRAL PEGACION STAGE.sm;
#HASMUSIC:1;
#HASBANNER:1;
#MUSICLENGTH:139.188;
// end cache tags

//---------------dance-single - ----------------
#NOTES:
     dance-single:
     :
     Hard:
     8:
     0.501,0.597,0.115,0.726,0.251,371.000,16.000,101.000,0.000,3.000:
0000
0001
1000
0000
1000
0100
0000
0010
,
0001
2002
3003
0000
,
0000
0100
0010
0000
0001
0100
0000
0010
,
1000
0000
0000
0000
0220
0000
0000
0000
1330
0001
1000
0000
0010
0000
0000
0000
,
0000
0000
0000
0000
1000
0010
0100
0001
0020
0000
0000
0000
0000
0000
0031
1000
,
0200
0000
0000
0320
0000
0000
0000
0000
,
0030
0000
0000
0000
0001
1000
0010
0100
0002
0000
0000
0000
0000
0000
0013
0100
,
2000
0000
0000
3002
0000
0000
0000
0000
,
0003
0000
0000
0000
1000
0010
1000
0100
0002
0000
0000
0000
0000
0000
0103
1000
,
0020
0000
0000
2030
0000
0000
0000
0000
,
3000
0000
0001
0010
0100
1000
0010
1000
0020
0000
0000
0000
0000
0000
0130
0001
,
2000
3020
0230
0000
0000
0000
0000
0300
,
0010
0000
1000
0000
0001
0000
0200
0000
0000
0000
0310
1000
0020
0000
0000
0000
,
0000
0000
0030
0000
,
0001
0000
0010
0000
1000
0000
0200
0000
0000
0000
0310
0001
0020
0000
0000
0000
,
0000
0000
0030
0000
,
0101
0000
0000
0000
0010
0100
1000
0000
0000
0000
0001
0100
0010
0000
1000
0100
,
1000
0000
0010
0100
0002
0000
0000
0000
1003
0000
0100
0000
1000
0000
0020
0000
,
0000
0000
0000
0000
0000
0000
0000
0030
,
1001
0000
0000
0000
0100
0000
1010
0000
0000
0000
0000
0000
0100
0001
0100
0010
,
2000
0000
3002
0000
,
0203
0000
0320
0000
,
0230
0000
0010
0001
0000
0000
0000
0000
,
0000
0000
0000
1000
0000
0000
0001
0000
0000
0000
0000
0000
0000
0000
0300
0000
,
0020
0000
2030
0000
,
3200
0000
0302
0000
,
0203
0000
1000
0010
0000
0000
0000
0300
,
0110
0000
0010
1100
0000
0001
0100
0020
,
0000
0000
0000
0000
0030
1000
0001
0200
,
0000
0000
0000
0000
0300
0010
1000
0001
,
2000
0000
0000
0000
3000
0010
0100
0002
,
0000
0000
0000
0000
0003
1000
0001
0010
,
0020
0000
0000
0000
0000
0130
1000
0002
,
0000
0000
0000
0000
0003
0010
0100
1000
,
0200
0000
0000
0300
,
0010
0001
0010
0000
0100
1000
0100
0000
1000
0001
1000
0000
0010
0100
0010
0000
,
0000
1000
0001
0000
0001
0010
0000
0100
,
1000
2002
3003
0000
,
0000
0010
0100
0000
1000
0010
0000
0100
,
0001
0000
0000
0000
0220
0000
0000
0000
0331
1000
0001
0000
0100
0000
0000
0000
,
0000
0000
0000
0000
0001
0100
0010
1000
0200
0000
0000
0000
0000
0000
1300
0001
,
0020
0000
0000
0230
0000
0000
0000
0000
,
0300
0000
0000
0000
1000
0001
0100
0010
2000
0000
0000
0000
0000
0000
3100
0010
,
0002
0000
0000
2003
0000
0000
0000
0000
,
3000
0000
0000
0000
0001
0100
0001
0010
2000
0000
0000
0000
0000
0000
3010
0001
,
0200
0000
0000
0302
0000
0000
0000
0000
,
0003
0000
1000
0100
0010
0001
0100
0001
0200
0000
0000
0000
0000
0000
0310
1000
,
0002
0203
0320
0000
0000
0000
0000
0030
,
0100
0000
0001
0000
1000
0000
0020
0000
0000
0000
0130
0001
0200
0000
0000
0000
,
0000
0000
0300
0000
,
1000
0000
0100
0000
0001
0000
0020
0000
0000
0000
0130
1000
0200
0000
0000
0000
,
0000
0000
0300
0000
,
1010
0000
0000
0000
0100
0010
0001
0000
0000
0000
1000
0010
0100
0000
0001
0010
,
0001
0000
0100
0010
2000
0000
0000
0000
3001
0000
0010
0000
0001
0000
0200
0000
,
0000
0000
0000
0000
0000
0000
0000
0300
,
0110
0000
0000
0000
0100
0000
0101
0000
0000
0000
0000
0000
0010
1000
0010
0100
,
0002
0000
2003
0000
,
3020
0000
0230
0000
,
0320
0000
0100
1000
0000
0000
0000
0000
,
0000
0000
0000
0001
0000
0000
1000
0000
0000
0000
0000
0000
0000
0000
0030
0000
,
0200
0000
0302
0000
,
0023
0000
2030
0000
,
3020
0000
0001
0100
0000
0000
0000
0030
,
1001
0000
0010
0011
0000
1000
0010
0200
,
0000
0000
0000
0000
0300
0001
1000
0020
,
0000
0000
0000
0000
0030
0100
0001
1000
,
0002
0000
0000
0000
0003
0100
0010
2000
,
0000
0000
0000
0000
3000
0001
1000
0100
,
0200
0000
0000
0000
0000
0310
0001
2000
,
0000
0000
0000
0000
3000
0100
0010
0001
,
0020
0000
0000
0030
,
0010
1000
0010
0000
0100
0001
0100
0000
0001
1000
0001
0000
0010
0100
0010
0000
,
0000
0001
0100
0000
0100
0010
0000
0001
,
0100
2020
3030
0000
,
0000
1000
0001
0000
0001
0010
0000
1000
,
0100
0000
0000
0000
0202
0000
0000
0000
0313
1000
0010
0000
0100
0000
0000
0000
,
0000
0000
0000
0000
0100
0001
0010
0100
2000
0000
0000
0000
0000
0000
3010
0100
,
0002
0000
0000
2003
0000
0000
0000
0000
,
3000
0000
0000
0000
0010
0100
1000
0001
0020
0000
0000
0000
0000
0000
1030
0001
,
0200
0000
0000
0320
0000
0000
0000
0000
,
0030
0000
0000
0000
0100
1000
0100
0001
0020
0000
0000
0000
0000
0000
0031
0100
,
2000
0000
0000
3200
0000
0000
0000
0000
,
0300
0000
1000
0001
0100
0010
0001
0010
0002
0000
0000
0000
0000
0000
1003
0100
,
0020
0032
2003
0000
0000
0000
0000
3000
,
0001
0000
0010
0000
0100
0000
2000
0000
0000
0000
3001
0010
0002
0000
0000
0000
,
0000
0000
0003
0000
,
1000
0000
0010
0000
0001
0000
0200
0000
0000
0000
1300
0001
2000
0000
0000
0000
,
0000
0000
3000
0000
;

//---------------dance-single - ----------------
#NOTES:
     dance-single:
     :
     Medium:
     7:
     0.506,0.573,0.589,0.704,0.022,313.000,82.000,98.000,0.000,5.000:
0000
0001
0001
0000
1000
1000
0000
0010
,
0010
2002
3003
0000
,
0000
0100
0100
0000
0010
0010
0000
1000
,
1000
0000
0220
0000
1330
1000
0010
0000
,
0000
0001
0001
0000
1000
1000
0000
0010
,
0010
0202
0303
0000
,
0000
0100
0100
0000
1000
1000
0000
0001
,
0001
2200
3300
0000
,
0000
0010
1000
0000
1000
1000
0000
0001
,
0100
2020
3030
0000
,
0000
0001
0100
0000
0010
1000
0000
0100
,
0010
0022
0033
0000
,
2002
0000
0000
0000
0000
0000
3003
0100
,
0220
0000
0000
0000
,
0000
0000
0000
0000
0000
0000
0330
1000
,
2020
0000
3030
0022
0000
0000
0000
0000
,
0000
0000
0000
0000
0000
0033
1000
0100
,
2002
0000
0000
3000
,
0020
0000
0000
0000
0000
1033
2001
0000
,
3020
0000
0130
0202
0000
0000
0000
0303
,
1100
0000
0001
1001
0000
1000
0010
1000
,
1000
0000
0000
1000
0000
0000
0011
0000
0000
0000
0100
0000
0010
0000
0100
0000
,
0110
0000
0100
0101
0000
0001
0010
0100
,
0100
0000
0000
0100
0000
0000
1001
0000
0000
0000
0010
0000
0100
0000
0010
0000
,
1001
0000
1000
1010
0000
0010
0100
0001
,
0001
0000
0000
0001
0000
0000
0101
0000
0000
0000
0010
0000
1000
0000
0010
0000
,
1100
0000
0100
0110
0000
1000
0100
0010
,
0220
0000
0330
2020
0000
3030
0000
0000
,
2002
0000
0000
0000
0000
0000
0000
3003
,
0220
0000
0000
0000
0000
0000
0000
0330
,
2020
0000
0000
0000
0000
0000
0000
3030
,
2200
0000
0000
0000
0000
0000
0000
3300
,
0011
0000
1000
1001
0000
0000
0100
0100
,
0101
0000
0010
0110
0000
0000
0010
0010
,
0110
0000
0100
1010
0000
0000
1000
0010
,
0010
0010
0010
0010
0010
0010
0010
0010
,
0000
1000
1000
0000
0001
0001
0000
0100
,
0100
2002
3003
0000
,
0000
0010
0010
0000
0100
0100
0000
0001
,
0001
0000
0220
0000
0331
0001
0100
0000
,
0000
1000
1000
0000
0001
0001
0000
0100
,
0100
2020
3030
0000
,
0000
0010
0010
0000
0001
0001
0000
1000
,
1000
0022
0033
0000
,
0000
0100
0001
0000
0001
0001
0000
1000
,
0010
0202
0303
0000
,
0000
1000
0010
0000
0100
0001
0000
0010
,
0100
2200
3300
0000
,
2002
0000
0000
0000
0000
0000
3003
0010
,
0220
0000
0000
0000
,
0000
0000
0000
0000
0000
0000
0330
0001
,
0202
0000
0303
2200
0000
0000
0000
0000
,
0000
0000
0000
0000
0000
3300
0001
0010
,
2002
0000
0000
0003
,
0200
0000
0000
0000
0000
3301
1002
0000
,
0203
0000
0310
2020
0000
0000
0000
3030
,
0011
0000
1000
1001
0000
0001
0100
0001
,
0001
0000
0000
0001
0000
0000
1100
0000
0000
0000
0010
0000
0100
0000
0010
0000
,
0110
0000
0010
1010
0000
1000
0100
0010
,
0010
0000
0000
0010
0000
0000
1001
0000
0000
0000
0100
0000
0010
0000
0100
0000
,
1001
0000
0001
0101
0000
0100
0010
1000
,
1000
0000
0000
1000
0000
0000
1010
0000
0000
0000
0100
0000
0001
0000
0100
0000
,
0011
0000
0010
0110
0000
0001
0010
0100
,
0220
0000
0330
0202
0000
0303
0000
0000
,
2002
0000
0000
0000
0000
0000
0000
3003
,
0220
0000
0000
0000
0000
0000
0000
0330
,
0202
0000
0000
0000
0000
0000
0000
0303
,
0022
0000
0000
0000
0000
0000
0000
0033
,
1100
0000
0001
1001
0000
0000
0010
0010
,
1010
0000
0100
0110
0000
0000
0100
0100
,
0110
0000
0010
0101
0000
0000
0001
0100
,
0100
0100
0100
0100
0100
0100
0100
0100
,
0000
0010
0010
0000
0100
0100
0000
1000
,
1000
0220
0330
0000
,
0000
0001
0001
0000
1000
1000
0000
0100
,
0100
0000
2002
0000
3103
0100
1000
0000
,
0000
0010
0010
0000
0100
0100
0000
1000
,
1000
0022
0033
0000
,
0000
0001
0001
0000
0100
0100
0000
0010
,
0010
0202
0303
0000
,
0000
1000
0100
0000
0100
0100
0000
0010
,
0001
2200
3300
0000
,
0000
0010
0001
0000
1000
0100
0000
1000
,
0001
2020
3030
0000
,
0220
0000
0000
0000
0000
0000
0330
0001
,
2002
0000
0000
0000
,
0000
0000
0000
0000
0000
0000
3003
0100
,
0202
0000
0303
0022
0000
0000
0000
0000
,
0000
0000
0000
0000
0000
0033
0000
0000
;

//---------------dance-single - ----------------
#NOTES:
     dance-single:
     :
     Easy:
     4:
     0.394,0.414,0.438,0.417,0.022,265.000,61.000,58.000,0.000,0.000:
0000
0001
0001
1000
,
1000
2002
3003
0000
,
0000
0001
0001
1000
,
1000
0220
0330
0110
,
0000
0010
0010
0100
,
0100
0202
0303
0000
,
0000
0010
0010
0100
,
0100
2200
3300
0000
,
0000
0001
0001
1000
,
0100
2020
3030
0000
,
0000
0100
0100
0010
,
1000
0022
0033
0000
,
1000
0010
0100
0010
,
1000
0001
0010
0100
,
1000
0001
0010
1000
,
0010
0001
0100
0010
,
1000
0100
0001
0010
,
0001
0100
0010
1000
,
0010
0100
1000
0001
,
0110
0000
0000
0101
0000
0000
0000
0000
,
1100
0100
0100
0010
,
0100
0000
0000
1000
0000
0000
0011
0000
0000
0000
0000
0000
0010
0000
0000
0000
,
0100
0001
0001
0100
,
0010
0000
0000
0100
0000
0000
1001
0000
0000
0000
0000
0000
1000
0000
0000
0000
,
0010
0100
0100
1000
,
0100
0000
0000
0001
0000
0000
0101
0000
0000
0000
0000
0000
0100
0000
0000
0000
,
1100
0000
0100
0110
0000
0000
0010
0000
,
0110
0000
0000
1010
0000
0000
0001
0000
,
2002
0000
0000
0000
0000
0000
0000
3003
,
0220
0000
0000
0000
0000
0000
0000
0330
,
2020
0000
0000
0000
0000
0000
0000
3030
,
2200
0000
0000
0000
0000
0000
0000
3300
,
0002
0000
0000
0000
0000
1003
0000
2000
,
0000
0000
0000
0000
0010
3000
0010
0000
,
0020
0000
0000
0000
0000
0000
0030
1001
,
0000
0110
0000
1010
0000
0110
0000
0101
,
0000
1000
1000
0001
,
0001
2002
3003
0000
,
0000
1000
1000
0001
,
0001
0220
0330
0110
,
0000
0100
0100
0010
,
0010
2020
3030
0000
,
0000
0100
0100
0010
,
0010
0022
0033
0000
,
0000
1000
1000
0001
,
0010
0202
0303
0000
,
0000
0010
0010
0100
,
0001
2200
3300
0000
,
0001
0100
0010
0100
,
0001
1000
0100
0010
,
0001
1000
0100
0001
,
0100
1000
0010
0100
,
0001
0010
1000
0100
,
1000
0010
0100
0001
,
0100
0010
0001
1000
,
0110
0000
0000
1010
0000
0000
0000
0000
,
0011
0010
0010
0100
,
0010
0000
0000
0001
0000
0000
1100
0000
0000
0000
0000
0000
0100
0000
0000
0000
,
0010
1000
1000
0010
,
0100
0000
0000
0010
0000
0000
1001
0000
0000
0000
0000
0000
0001
0000
0000
0000
,
0100
0010
0010
0001
,
0010
0000
0000
1000
0000
0000
1010
0000
0000
0000
0000
0000
0010
0000
0000
0000
,
0011
0000
0010
0110
0000
0000
0100
0000
,
0110
0000
0000
0101
0000
0000
1000
0000
,
2002
0000
0000
0000
0000
0000
0000
3003
,
0220
0000
0000
0000
0000
0000
0000
0330
,
0202
0000
0000
0000
0000
0000
0000
0303
,
0022
0000
0000
0000
0000
0000
0000
0033
,
2000
0000
0000
0000
0000
3001
0000
0002
,
0000
0000
0000
0000
0100
0003
0100
0000
,
0200
0000
0000
0000
0000
0000
0300
0110
,
0000
1001
0000
0011
0000
1001
0000
1100
,
0000
0010
0010
1000
,
1000
0220
0330
0000
,
0000
0001
0001
0100
,
0100
2002
3003
1001
,
0000
0010
0100
1000
,
1000
0022
0033
0000
,
0000
0001
0100
0010
,
0010
0202
0303
0000
,
0000
1000
1100
0010
,
0001
2200
3300
0000
,
0000
0001
1010
1000
,
0001
2020
3030
0000
,
0100
1000
0010
1000
,
0100
0001
1000
0010
,
0100
0001
1000
0100
,
1000
0001
0010
1000
,
0100
0010
0001
1000
;
