#TITLE:Little Nappy;
#SUBTITLE:;
#ARTIST:D-Mode-D and Emotion;
#TITLETRANSLIT:;
#SUBTITLETRANSLIT:;
#ARTISTTRANSLIT:;
#CREDIT:;
#BANNER:../Banner.png;
#BACKGROUND:../BG.png;
#LYRICSPATH:;
#CDTITLE:../CDTitleKIRBY.png;
#MUSIC:D-Mode-D and Emoticon - Little Nappy.ogg;
#OFFSET:-0.056;
#SAMPLESTART:43.256;
#SAMPLELENGTH:25.000;
#SELECTABLE:YES;
#BPMS:0.000=200.000;
#STOPS:;
#BGCHANGES:;
// cache tags:
#FIRSTBEAT:0.000;
#LASTBEAT:314.000;
#SONGFILENAME:Songs/Index Tesseract/Little Nappy - [Kirby5464]/Little Nappy.sm;
#HASMUSIC:1;
#HASBANNER:1;
#MUSICLENGTH:95.451;
// end cache tags

//---------------dance-single - ----------------
#NOTES:
     dance-single:
     :
     Challenge:
     17:
     1.000,1.000,0.147,0.272,1.000,1075.000,14.000,26.000,0.000,0.000:
1000
0000
0001
0100
0000
0000
0001
0000
,
1000
0000
0000
0000
0010
0100
0001
0010
0100
1000
0000
0000
0000
0000
0000
0000
,
0002
0000
0000
0003
0000
0000
0000
0000
0000
0000
0000
0000
0000
0000
0000
0000
0000
0000
0000
0000
0000
0000
0000
0000
0020
0000
0000
0000
0030
0000
0000
0000
0000
0000
0000
0000
0000
0000
0000
0000
0000
0000
0000
0000
0000
0000
0000
0000
,
0200
0300
0000
0000
2000
0000
3000
0000
,
0001
0010
0100
1000
0001
0010
0001
1000
0010
1000
0001
0010
0100
0010
0001
1000
,
0100
1000
0010
0100
0010
1000
0001
0100
0010
1000
0100
0010
0001
1000
0010
0100
,
0001
1000
0001
0010
0100
1000
0010
0100
0010
1000
0100
1000
0001
0010
0001
1000
,
0100
0010
0100
1000
0001
0100
0001
0010
0100
1000
0001
0010
0001
1000
0010
1000
,
0001
0010
0100
0010
0001
1000
0100
1000
0010
0100
0010
1000
0001
0100
0010
1000
,
0100
0010
0001
1000
0010
0100
0001
1000
0001
0010
0100
1000
0010
0100
0010
1000
,
0100
1000
0001
0010
0001
1000
0100
0010
0100
1000
0001
0100
0001
0010
0100
1000
,
0001
0010
0001
1000
0010
0100
0001
1000
0001
0000
0000
0000
0100
0000
0010
0000
,
1000
0100
0010
0001
1000
0100
1000
0001
0100
0001
1000
0100
0010
0100
1000
0001
,
0010
0001
0100
0010
0100
0001
1000
0010
0100
0001
0010
0100
1000
0001
0100
0010
,
1000
0001
1000
0100
0010
0001
0100
0010
0100
0001
0010
0001
1000
0100
1000
0001
,
0010
0100
0010
0001
1000
0010
1000
0100
0010
0001
1000
0100
1000
0001
0100
0001
,
1000
0100
0010
0100
1000
0001
0010
0001
0100
0010
0100
0001
1000
0010
0100
0001
,
0010
0100
1000
0001
0100
0010
1000
0001
1000
0100
0010
0001
0100
0010
0100
0001
,
0010
0001
1000
0100
1000
0001
0010
0100
0010
0001
1000
0010
1000
0100
0010
0001
,
1000
0100
1000
0001
0100
0010
1000
0001
1000
0100
0010
0001
1000
0100
1000
0001
,
0100
0001
1000
0100
0010
0100
1000
0001
0010
0001
0100
0010
0100
0001
1000
0010
,
0100
0001
0010
0100
1000
0001
0100
0010
1000
0001
1000
0100
0010
0001
0100
0010
,
0100
0001
0010
0001
1000
0100
1000
0001
0010
0100
0010
0001
1000
0010
1000
0100
,
0010
0001
1000
0100
1000
0001
0100
0001
1000
0100
0010
0100
1000
0001
0010
0001
,
0100
0010
0100
0001
1000
0010
0100
0001
0010
0100
1000
0001
0100
0010
1000
0001
,
1000
0100
0010
0001
0100
0010
0100
0001
0010
0001
1000
0100
1000
0001
0010
0100
,
0010
0001
1000
0010
1000
0100
0010
0001
1000
0100
1000
0001
0100
0010
1000
0001
,
0010
0100
1000
0001
0010
0001
1000
0010
1000
0001
0010
0100
0010
0001
1000
0100
,
1000
0010
0100
0010
1000
0001
0100
0010
1000
0100
0010
0001
1000
0010
0100
0001
,
1000
0001
0010
0100
1000
0010
0100
0010
1000
0100
1000
0001
0010
0001
1000
0100
,
0010
0100
1000
0001
0100
0001
0010
0100
1000
0001
0010
0001
1000
0010
1000
0001
,
0010
0100
0010
0001
1000
0100
1000
0010
0100
0010
1000
0001
0100
0010
1000
0100
,
0010
0001
1000
0010
0100
0001
1000
0001
0010
0100
1000
0010
0100
0010
1000
0100
,
1000
0001
0010
0001
1000
0100
0010
0100
1000
0001
0100
0001
0010
0100
1000
0001
,
0010
0001
1000
0010
0100
0001
1000
0001
0010
0100
1000
0010
0100
0010
1000
0100
,
1000
0001
0010
0001
1000
0010
1000
0001
0010
0001
0100
0010
1000
0000
0000
0000
,
0001
0010
0100
1000
0001
0010
0001
1000
0010
1000
0001
0010
0100
0010
0001
1000
,
0100
1000
0010
0100
0010
1000
0001
0100
0010
1000
0100
0010
0001
1000
0010
0100
,
0001
1000
0001
0010
0100
1000
0010
0100
0010
1000
0100
1000
0001
0010
0001
1000
,
0100
0010
0100
1000
0001
0100
0001
0010
0100
1000
0001
0010
0001
1000
0010
1000
,
0001
0010
0100
0010
0001
1000
0100
1000
0010
0100
0010
1000
0001
0100
0010
1000
,
0100
0010
0001
1000
0010
0100
0001
1000
0001
0010
0100
1000
0010
0100
0010
1000
,
0100
1000
0001
0010
0001
1000
0100
0010
0100
1000
0001
0100
0001
0010
0100
1000
,
0002
0000
0003
0000
0200
0000
0300
0000
0020
0000
0030
0000
2000
3000
0000
0000
,
0101
0001
0010
0100
1100
0001
0100
0010
,
1010
1000
0110
0010
0011
0001
1000
0001
,
1001
0001
0010
0001
0101
0001
1000
0010
,
0110
0010
1010
0001
0101
0100
0010
1000
,
1001
0001
0100
0000
0010
1000
1010
0000
,
0002
0000
0023
0000
0230
0000
2300
0000
3020
0030
0000
0000
0200
0300
0000
0000
,
0001
0000
1000
0000
0020
0000
0230
0000
0302
0003
0000
0000
2000
3000
0000
0000
,
0001
0000
0100
0000
0110
0000
0000
0000
1000
0000
0001
0000
0102
0003
0000
0000
,
1000
0100
0010
0001
1000
0100
1000
0001
0100
0001
1000
0100
0010
0100
1000
0001
,
0010
0001
0100
0010
0100
0001
1000
0010
0100
0001
0010
0100
1000
0001
0100
0010
,
1000
0001
1000
0100
0010
0001
0100
0010
0100
0001
0010
0001
1000
0100
1000
0001
,
0010
0100
0010
0001
1000
0010
1000
0100
0010
0001
1000
0100
1000
0001
0100
0001
,
1000
0100
0010
0100
1000
0001
0010
0001
0100
0010
0100
0001
1000
0010
0100
0001
,
0010
0100
1000
0001
0100
0010
1000
0001
1000
0100
0010
0001
0100
0010
0100
0001
,
0010
0001
1000
0100
1000
0001
0010
0100
0010
0001
1000
0010
1000
0100
0010
0001
,
1000
0100
1000
0001
0100
0010
1000
0001
1000
0000
0000
0000
0001
0000
0100
0000
,
0000
0010
1000
0001
0000
0100
0010
1000
,
0002
0003
0020
0030
0200
0300
2000
3000
0020
0030
0200
0300
0001
0000
1000
0000
,
0001
0010
0100
1000
0001
0010
0001
1000
0010
1000
0001
0010
0100
0010
0001
1000
,
0100
1000
0010
0100
0010
1000
0001
0100
0010
1000
0100
0010
0001
1000
0010
0100
,
0001
1000
0001
0010
0100
1000
0010
0100
0010
1000
0100
1000
0001
0010
0001
1000
,
0100
0010
0100
1000
0001
0100
0001
0010
0100
1000
0001
0010
0001
1000
0010
1000
,
0001
0010
0100
0010
0001
1000
0100
1000
0010
0100
0010
1000
0001
0100
0010
1000
,
0100
0010
0001
1000
0010
0100
0001
1000
0001
0010
0100
1000
0010
0100
0010
1000
,
0100
1000
0001
0010
0001
1000
0100
0010
0100
1000
0001
0100
0001
0010
0100
1000
,
0001
0100
0010
1000
0100
1000
0001
0100
0010
0000
1000
0000
0001
0000
1000
0000
,
0010
1000
0001
0010
0100
0010
0001
1000
0100
1000
0010
0100
0010
1000
0001
0100
,
0010
1000
0100
0010
0001
1000
0010
0100
0001
1000
0001
0010
0100
1000
0010
0100
,
0010
1000
0100
1000
0001
0010
0001
1000
0100
0010
0100
1000
0001
0100
0001
0010
,
0100
1000
0001
0010
0001
1000
0010
1000
0001
0000
0000
0000
0100
0000
0000
0000
,
0001
0010
0001
1000
0010
1000
0001
0010
0100
0010
0001
1000
0100
1000
0010
0100
,
0010
1000
0001
0100
0010
1000
0100
0010
0001
1000
0010
0100
0001
1000
0001
0010
,
0100
1000
0010
0100
0010
1000
0100
1000
0001
0010
0001
1000
0100
0010
0100
1000
,
0001
0100
0001
0010
0100
1000
0001
0010
0001
1000
0010
1000
0001
0100
0010
1000
,
0002
0000
0003
0000
,
0000
0000
0000
0000
;
