#TITLE:Wolf & Raven;
#SUBTITLE:;
#ARTIST:Sonata Arctica;
#TITLETRANSLIT:;
#SUBTITLETRANSLIT:;
#ARTISTTRANSLIT:;
#CREDIT:;
#BANNER:wolfandraven-bn.png;
#BACKGROUND:sonataarctica-bg.png;
#LYRICSPATH:;
#CDTITLE:nateemboss.png;
#MUSIC:Sonata Artica - Wolf & Raven.mp3;
#OFFSET:-0.104;
#SAMPLESTART:43.478;
#SAMPLELENGTH:12.000;
#SELECTABLE:YES;
#BPMS:0.000=170.000,64.000=169.850,135.500=170.000,152.000=170.100,157.500=340.000,158.000=85.000,159.000=340.000,163.000=170.150,258.000=155.000,259.000=169.750,331.000=84.900,337.000=169.950,365.000=84.950,409.500=169.900,441.500=339.800,506.000=169.900,666.500=339.800,732.000=170.000,733.000=85.000,733.500=42.500,733.750=21.250;
#STOPS:;
#BGCHANGES:;
// cache tags:
#FIRSTBEAT:33.000;
#LASTBEAT:734.000;
#SONGFILENAME:Songs/toune 4/Wolf & Raven/Wolf & Raven.sm;
#HASMUSIC:1;
#HASBANNER:1;
#MUSICLENGTH:259.505;
// end cache tags

//---------------dance-single - ----------------
#NOTES:
     dance-single:
     :
     Hard:
     13:
     1.000,1.000,0.597,0.189,1.000,1617.000,155.000,49.000,0.000,13.000:





0000
0000
0000
0000
,
0000
0000
0000
0000
,
0000
0000
0000
0000
,
0000
0000
0000
0000
,
0000
0000
0000
0000
,
0000
0000
0000
0000
,
0000
0000
0000
0000
,
0000
0000
0000
0000
,
0000
0000
0000
0000
1000
0100
0010
0100
1000
0100
0010
0100
1000
0001
0010
0100
,
0010
0001
0010
0100
0010
0001
1000
0100
0010
0100
1000
0100
0010
0100
1000
0001
,
0010
0100
0010
0001
0010
0100
0010
0001
1000
0010
0100
0010
0001
0100
0010
0100
,
1000
0010
0100
0010
0001
0100
0010
0100
1000
0010
0100
0010
0001
0100
0010
0100
,
1000
0010
0100
0010
0001
0100
0010
1000
0100
0010
0001
0100
0010
1000
0100
0010
,
0001
0100
0010
1000
0100
0010
0001
0100
0010
1000
0100
0010
0001
0100
0010
1000
,
0100
0010
0001
0010
0100
1000
1000
0100
0100
0010
0010
0001
0001
0010
0010
0100
,
0100
1000
1000
0100
0100
0000
0001
0010
0100
1000
0100
0010
0022
0000
0000
0000
,
0000
0000
0033
1000
0100
0010
0100
0001
,
0010
0100
0000
0001
1000
0001
2000
0000
,
0000
0000
3000
0001
1000
0100
0001
0010
,
1000
0001
0110
0000
1100
0000
1001
0000
,
2200
0000
0000
0000
0300
3000
0100
0000
1000
0000
0000
0000
0010
0000
0001
0000
,
0010
0001
0010
0100
1000
0100
2000
0000
,
0000
0000
3000
0010
0001
0100
0010
1000
,
0100
0001
0010
1000
0100
0000
0001
0100
,
1000
0110
1100
0011
,
1100
0000
0200
0000
0000
0001
0302
0000
,
0000
0000
0000
0000
0000
0000
0100
0000
0000
0103
0000
2000
,
0000
0000
3200
0000
0000
0000
0320
0000
0000
0000
0000
0000
0000
0000
0000
1000
0000
0000
0130
0000
0000
0000
0000
0000
,
0000
1100
0110
0011
,
0110
0000
0000
0000
0000
0000
0000
0000
0000
0000
0000
0000
1000
0000
0000
0000
0000
0000
0000
0000
0000
0000
0000
0000
0100
0000
0000
0000
0000
0000
0000
0000
0001
0000
0000
0000
0000
0000
0000
0010
0000
0000
0000
0000
0000
0000
0000
0000
,
0000
0000
0100
0000
0000
1000
0000
0000
0100
0000
0000
0001
0000
0100
0000
0000
,
0000
0000
0000
0010
0000
0000
0000
0000
0000
0000
0000
0000
0100
0000
0000
0000
0000
0000
0001
0000
0000
0000
0000
0000
0000
0000
0000
0000
0010
0000
0000
0000
0000
0000
0000
0000
0001
0000
0000
0000
0000
0000
0200
0000
0000
0000
0000
0000
,
0000
0000
0000
0000
0301
0010
0001
1000
,
0010
0000
0100
0000
1000
0100
0000
0000
0001
0000
0000
0100
0010
0000
2000
0000
,
0000
0000
0000
0000
3010
0100
0001
0010
,
1000
0010
0100
0011
0000
0110
0000
1100
,
0000
0110
0000
0000
0001
1000
0100
0001
,
1000
1100
0101
0000
0100
0100
0100
0100
,
0000
0000
0000
0000
0100
1000
0100
0001
,
0100
0010
0001
0000
0100
0100
0100
0000
,
0000
0100
0000
1100
,
1001
0110
0101
2000
,
0000
0100
3200
0000
0000
0000
0300
0000
,
0200
0000
0000
0000
0320
0000
0000
0230
0000
0000
0310
0000
1000
0000
0000
0000
,
0000
0010
0100
0000
0000
0000
1100
0000
,
0011
0000
0000
0000
0110
0000
0000
0000
1100
0000
0000
0000
0110
0000
0000
0011
,
0000
0000
1010
0000
0110
0000
0000
0000
0000
0000
1010
0000
0110
0000
0000
1100
,
0000
0000
0110
0000
0011
0000
0000
0110
0000
0000
1010
0000
1100
0000
0000
1010
,
0000
1100
1001
0000
0100
0001
0110
0000
,
0001
0010
1100
0000
0100
0010
1100
0000
,
0101
0000
0000
0000
0100
0000
0000
0100
0000
0000
1100
0000
0101
0000
0000
0000
,
0100
0010
1100
0000
0100
0010
0101
0000
,
0100
0000
1000
0000
0102
0000
0000
0100
0000
0000
0100
0000
0103
0000
0000
0000
,
1100
0010
0101
0000
0101
1000
1010
0000
,
0101
0000
0010
0000
0201
0000
0000
0001
0000
0000
0001
0000
0301
0000
0000
0000
,
0100
0100
1100
0000
0100
0100
0220
0000
,
0000
0000
0000
0000
0000
0000
0000
0000
0330
0000
0000
0000
1000
0100
1000
0100
,
1000
0100
1000
0100
1000
0100
1000
0100
1000
0100
1000
0100
1100
0000
0000
1100
,
0000
0000
1100
0000
0000
1000
0100
0000
0100
1000
0100
1000
0100
0000
0010
0000
,
0100
0000
1000
0000
0010
0000
0100
0000
1000
0000
0100
0010
0000
0000
0010
0000
,
0001
0010
0200
0000
0000
0000
0300
0100
,
1000
0100
0010
0001
0100
0010
1100
0000
,
0110
0000
0011
0000
0110
0000
0000
1000
,
0100
0010
0100
0001
0010
0100
0010
0001
,
1000
0100
0020
0000
0000
1130
0110
0000
,
0110
0000
0101
0000
0000
0110
0000
0000
0110
0000
1100
0000
0101
0000
0000
0000
,
1100
0000
0000
0000
0101
0000
0000
0000
0100
0001
0100
1000
0100
0001
0100
1000
,
0100
0001
0100
1000
0100
0001
0100
0001
0100
1000
0100
1000
0100
0001
0100
0001
,
0100
1000
0100
0001
0100
1000
0100
0001
0100
0010
0100
0010
0100
0001
0100
0001
,
0100
0010
0100
0010
0100
0001
0100
0010
0100
0010
0100
0010
0100
0010
0100
0010
,
1000
0100
1000
0010
1000
0100
1000
0010
1000
0001
0100
0010
0100
0001
0100
0010
,
0100
0001
0010
0100
0010
1000
0010
0100
0010
1000
0001
0100
0001
0010
0001
0100
,
0001
1000
0010
0100
0010
1000
0010
0100
0010
1000
0100
0010
0100
1000
0100
0010
,
0100
1000
0010
0001
0010
0100
0010
0001
0010
1000
0100
0010
0100
0001
0100
0010
,
0100
1000
0001
0100
0001
0010
0001
0100
0001
0010
1000
0100
1000
0010
1000
0100
,
1000
0010
0100
0001
0100
0010
0100
1000
0100
1000
0010
0001
0010
0100
1000
0100
,
0001
0010
0001
0100
1000
0100
0010
0001
0010
0100
1000
0100
0010
0001
0010
0100
,
1000
0100
0010
0001
0010
0100
1000
0100
0010
0001
0010
0100
1000
0100
0010
0001
,
0010
0100
1000
0100
0010
0001
0010
0100
1000
0100
0010
0001
0100
0010
0100
1000
,
0100
0001
0100
0010
0100
1000
0100
0001
0100
0010
0100
1000
0010
0001
0010
0001
,
0010
0001
0010
0001
0010
0001
0010
0001
0010
0100
0010
0100
0010
0100
0010
0100
,
0010
0100
0010
0100
0010
0001
0010
0001
0010
0001
0010
0001
0010
0001
0010
0001
,
0100
0000
0010
0000
0100
0000
0010
0000
0100
0000
0010
0000
0100
0000
0010
0000
0100
0000
0010
0000
0100
0000
0000
0000
1000
0100
0010
0000
0001
0000
0100
0010
,
0100
1000
0000
0000
1000
0000
1000
0100
0010
0000
0001
0100
0010
0100
0001
0100
,
0010
0000
1000
0100
0010
0001
0010
0001
0010
0001
0010
0001
0000
0000
0000
0000
,
0000
0000
0010
0100
0010
0100
0010
0100
0010
0000
0000
0000
1000
0100
0010
0001
,
0010
0000
0000
0000
1000
0010
0100
0010
0001
0010
1000
0010
0100
0010
0001
0010
,
1000
0010
0100
0010
0001
0010
0100
0010
1000
0010
0100
0010
0001
0000
0000
0000
,
0000
0000
0100
1000
0100
0010
0001
0010
0100
0000
0000
0000
0001
0010
0100
0010
,
0001
0000
0000
0000
0100
0010
0001
0100
0010
0001
0100
0010
0001
0100
0010
0001
,
0100
0010
0001
0100
0010
0001
0100
0010
0001
0010
0100
1000
0010
0100
1000
0010
,
0100
1000
0010
0100
1000
0000
1000
0100
0000
0000
0100
0000
0100
0010
0000
0000
,
0001
0000
0010
0100
0010
0000
1100
0000
1100
0000
0101
0000
0101
0010
0100
0010
,
0100
0010
0100
0010
0100
0010
0100
0010
0100
0010
0100
0010
1100
0000
0100
0001
,
0000
0000
0110
0000
1000
0001
0010
0000
0110
0000
0001
1000
0100
0000
0110
0000
,
0101
0000
1100
0000
0110
0010
1000
0010
0100
0010
1000
0010
0100
0010
1000
0010
,
0100
0010
1000
0010
0101
0000
0100
0100
0000
0000
1100
0000
0001
0001
0001
0000
,
0110
0000
0100
0100
0100
0000
1100
0000
0110
0000
0011
0000
0110
0001
0100
1000
,
0100
0001
0100
1000
0100
0001
0100
1000
0100
0001
0100
1000
0101
0000
0010
0010
,
0000
0000
1100
0000
0001
0001
0001
0000
0110
0000
1000
1000
1000
0000
0110
0000
,
0110
0000
0110
0000
0110
0000
1100
0000
0101
1000
0100
0001
0100
0000
0001
0010
,
0100
1000
0100
0010
0001
0200
0000
0000
0000
0000
0000
0000
0000
0000
0000
2000
,
0000
0000
0000
0000
0000
0000
3311
1000
0100
0001
0100
0010
0001
0100
0010
0100
,
1000
0001
0010
0100
0001
1000
0100
0010
0001
1000
0100
0001
1000
0100
0001
0100
,
1000
0001
0100
0010
0100
1000
0001
0100
0010
0001
1000
0100
0001
0010
0100
0010
,
0001
1000
0100
0010
0100
1000
0001
0100
0010
1000
0001
0010
0100
0010
1000
0001
,
0100
0010
0001
1000
0100
0001
0100
0010
0100
1000
0010
0001
0010
1000
0100
0001
,
0010
0100
1000
0001
0010
0100
0010
0100
1000
0001
0010
0100
0010
0100
1000
0001
,
0010
0100
0001
0010
1000
0100
0001
0010
1000
0001
0010
0100
1000
0001
0100
0010
,
1000
0001
0100
0010
0001
1000
0001
1000
0001
1000
0001
1000
0010
0100
0010
0100
,
0010
0100
1000
0001
0010
0100
0010
0000
0100
0000
0001
0000
0010
0000
0100
0000
,
0010
0100
1000
0001
0010
0100
0001
1000
,
0100
0010
1000
0001
0010
0100
0001
1000
,
0100
0010
0001
0010
0100
1000
0001
0010
,
0001
0010
0001
1000
0100
1000
0100
0010
,
0001
0010
0100
0010
0001
1000
0100
0001
,
0010
1000
0001
0010
0100
1000
0001
0010
,
1000
0001
0100
0010
0100
0001
1000
0100
,
0010
0001
0010
1000
0001
0010
0100
0001
,
0010
0001
1000
0100
1000
0001
0010
0001
,
1000
0100
1000
0010
0100
0010
1000
0100
,
1000
0001
0010
0001
0100
0010
0100
0001
,
0010
1000
0100
1000
0010
0001
0010
0100
,
0010
1000
0100
0001
0010
0001
0100
0010
,
0100
0001
0010
0001
0100
0010
0100
0001
,
0010
0001
1000
0100
1000
0010
0100
0010
,
1000
0100
1000
0000
1010
0000
0000
1100
,
0000
0000
0110
0000
0011
0000
0000
1010
,
0000
0000
0110
0000
0110
0000
0000
0100
,
0000
0000
0001
0010
1100
0000
0000
0000
,
1010
0000
0000
0000
0101
0000
0000
0110
,
0000
1100
1100
0000
,
1100
0000
0011
0000
2200
0000
0000
3311
,
0000
0110
1001
0000
,
0110
0000
1000
0100
1000
0100
1000
0100
1000
0100
1000
0100
1000
0100
1000
0100
,
1000
0100
1000
0100
1000
0000
0000
0000
0101
0000
0000
0000
0000
0000
1100
0000
,
0220
0000
0000
0000
0000
0000
0000
0000
0330
0010
0001
0010
0001
0100
0010
0100
,
0010
0001
0100
0001
0100
1000
0010
1000
0020
0000
0000
0000
0000
0000
0000
0000
,
0000
0000
0000
0000
0100
0000
0000
0000
0130
1000
0100
0001
0010
0001
0100
0010
,
0100
0001
0010
0100
0010
0100
0001
0010
0101
0000
0000
0000
0101
0000
0000
0000
,
1001
1001
0120
0000
,
0000
1000
0000
0100
0032
0000
0000
0000
,
0013
0000
0000
0100
0000
0000
1000
0000
0100
0010
0100
1000
0010
0100
1000
0010
,
0100
1000
0010
0100
1000
0010
0100
1000
0010
0100
1000
0010
0100
0001
0010
0001
,
1100
0010
1000
0110
0001
0100
1001
0100
0010
0100
0001
0010
0100
0001
0010
0100
,
0001
0010
0100
0001
0100
0010
0001
0100
0010
0100
1000
0100
0001
0010
0100
0010
,
1100
0001
0100
1010
0001
0100
1010
0010
0101
0010
0100
0010
0001
0010
0100
0010
,
1101
0010
0100
0010
0001
0010
0100
1000
0220
0000
0000
0000
0330
0000
0000
0000
,
1010
0000
0000
0110
0000
0000
1100
0000
0011
0000
0000
0000
0000
0000
0000
0000
,
1001
0000
1001
0000
,
1100
0001
1000
0010
1100
0001
1000
0010
0202
0000
0000
0000
0000
0000
0000
0000
,
1000
0000
0323
0000
,
1030
0100
0001
0100
1000
0100
0001
0100
2200
0000
0000
0000
0000
0000
0000
0000
,
3002
0000
2303
0000
,
3100
0010
1000
0010
0100
0001
0010
0100
2000
0000
0000
0000
0000
0000
0000
0000
,
0010
0000
3001
0000
,
1000
0001
1000
0001
1000
0001
1000
0001
2002
0000
0000
0000
0000
0000
0000
0000
,
3113
0000
0220
1000
,
1000
0000
0000
0000
1000
0000
0000
0000
1330
0100
0010
0100
0010
0001
1000
0100
,
0010
0100
0010
0001
1000
0100
0010
0100
0010
0001
1000
0100
0010
0100
0010
0001
,
0100
0010
0100
0001
0100
0010
0100
0001
0100
0010
0100
0001
0100
0010
0100
0001
,
0100
0010
0001
0100
0010
1000
0010
1000
0100
1000
0100
1000
0010
1000
0010
1000
,
0001
1000
0001
1000
0100
0010
0100
0010
0001
1000
0100
0010
0100
0010
0001
1000
,
0100
0010
0100
0010
0001
1000
0001
1000
0010
0100
0010
1000
0001
1000
0001
0010
,
0100
0010
1000
0001
1000
0010
0100
0010
1000
0001
1000
0001
1000
0001
1000
0001
,
1000
0100
0010
0100
1000
0100
0010
0100
1000
0001
1000
0001
1000
0001
1000
0001
,
0010
0100
0010
0001
0010
0100
0010
0001
0010
0100
1000
0000
0100
0000
0001
0000
,
0010
1000
0100
0001
0010
1000
0100
0001
,
0010
1000
0100
0001
0100
1000
0100
0001
,
0100
1000
0010
0001
0010
1000
0010
0001
,
0010
1000
0100
0001
0100
1000
0010
0001
,
0010
0100
1000
0001
1000
0100
0001
0010
,
0001
1000
0100
0010
0100
1000
0001
0100
,
0001
0010
0100
0001
0100
0010
1000
0100
,
1000
0010
0100
0001
0100
1000
0010
0100
,
0010
1000
0001
0100
0001
0010
0100
0001
,
0100
0010
1000
0100
1000
0001
1000
0010
,
1000
0100
0001
1000
0001
0100
0001
0010
,
0001
0100
0010
0001
0100
0010
0001
0010
,
0100
0010
0001
1000
0010
0100
0001
1000
,
0010
0100
0001
0010
1000
0100
0001
0010
,
1000
0100
0001
0010
0100
1000
0001
0100
,
0010
0100
1000
0001
0220
0000
0000
0000
,
0000
0000
0330
0000
;

//---------------dance-single - Evil----------------
#NOTES:
     dance-single:
     Evil:
     Challenge:
     18:
     1.000,1.000,1.000,0.381,1.000,1865.000,622.000,99.000,24.000,124.000:

0000
0000
0000
0000
,
0000
0000
0000
0000
,
0000
0000
0000
0000
,
0000
0000
0000
0000
,
0000
0000
0000
0000
,
0000
0000
0000
0000
,
0000
0000
0000
0000
,
0000
0000
0000
0000
,
0000
0000
0000
0000
1000
1000
0010
0010
1000
1000
0010
0010
1000
1000
0010
0010
,
0100
0100
0010
0010
0100
0100
0010
0010
0100
0100
0010
0010
0100
0100
0001
0001
,
0100
0100
0001
0001
0100
0100
0001
0001
1000
1000
0001
0001
1000
1000
0001
0001
,
1000
1000
0001
0001
0100
0100
0001
0001
0100
0100
0001
0001
0100
0100
0001
0001
,
0100
0100
0010
0010
0100
0100
0010
0010
0100
0100
0010
0010
1000
1000
0100
0100
,
0010
0010
0001
0001
0100
0100
0100
0010
0010
0010
1000
1000
0100
0100
0010
0010
,
0001
0001
0010
0010
0010
0100
0100
0100
1000
0100
0010
0001
0001
0010
0100
1000
,
1000
0100
0010
0001
0100
0000
0001
0010
0100
1000
0100
0010
0022
0000
0000
0000
,
0000
0000
0033
1001
0100
0010
0100
0001
,
0110
1100
0000
0001
1000
0001
2020
0000
,
0000
0000
3030
0001
1000
0100
0001
0010
,
1000
0001
0220
0000
2300
0000
3232
0000
,
2000
0000
0000
0000
0303
3000
0100
0000
1000
0000
0000
0000
0010
0000
0001
0000
,
0010
0001
0010
0100
1000
0100
2200
0000
,
0000
0000
3300
0010
0001
0100
0010
1000
,
0100
0001
0110
1010
0101
0000
0011
0110
,
1100
0100
1000
0100
1000
0100
0010
0001
1110
0010
0100
1000
0111
0010
0001
0010
,
1110
0010
0001
0010
2200
0010
0001
0010
0001
0010
3001
0010
0302
0010
0100
0100
,
1000
0100
0100
0010
0100
0100
1000
0100
0100
0010
0100
0100
0013
0000
0000
0110
,
0000
0000
1100
0000
0020
0100
0001
0100
0001
0100
1001
0000
0131
0000
0000
0000
,
0000
0000
0001
0010
1100
0000
0010
1000
0110
0000
0100
1000
0011
0000
0010
1000
,
0110
0000
0000
0000
0000
0000
0010
0000
0000
0100
0000
0000
1100
0000
0000
0000
0000
0000
0000
0000
0000
0000
0000
0000
1100
0000
0000
0000
0000
0000
0000
0000
0011
0000
0000
0000
0000
0000
0000
0110
0000
0000
0000
0000
0000
0000
0000
0000
,
0000
0000
0110
0011
0000
1100
0000
0000
0110
0000
0000
0011
0110
1100
0000
0000
,
0000
0000
0000
0110
0000
0000
0000
0000
0000
1100
0000
0000
0100
0000
0000
1010
0000
0000
0101
0000
0000
0000
0000
0000
0000
0000
0000
0000
2010
0000
0000
0000
0000
0000
0000
0000
0002
0000
0000
0000
0000
0000
0210
0000
3000
0010
0000
0000
,
1003
1000
0010
0010
1000
1000
0010
0010
0301
0000
0010
0000
0001
0000
1000
0000
,
0010
0000
0100
0000
1001
0110
0000
0000
0001
0000
0000
0101
0110
0000
2000
0000
,
0100
0010
0001
0000
0100
0010
0001
0000
3100
0010
0001
0000
0001
0000
0010
0000
,
1000
0010
0100
0011
0000
0110
0000
1100
,
0000
0110
0000
0000
0001
1000
0100
0001
,
1000
1100
0101
0000
0110
0101
0110
0202
,
0000
0000
0000
0000
0000
0303
0000
0000
0100
0000
1000
0000
0100
0000
0000
0001
,
0000
0000
1100
0000
0110
0000
0000
0000
0011
0000
0000
0000
0000
0000
0000
0000
0100
0000
0M00
0M00
1M00
0M00
MM00
MM00
M010
M000
M0M0
M0M0
00M0
00M0
00M0
00M0
,
0000
0000
0000
0000
0000
0000
0000
0000
0100
0000
0M00
0M00
0M00
0M00
0M00
0M00
0000
0000
0000
0000
0000
0000
0000
0000
1100
0000
0010
0000
0100
0000
0000
0000
,
1001
0100
1000
0000
0110
0001
0010
0000
0101
0010
0100
0000
2000
0100
0010
0001
,
0010
0000
0100
0000
3200
0010
0001
0010
0001
0010
0001
0010
0301
0000
0000
0000
,
0002
0000
0000
0000
0023
0000
0000
0230
0000
0000
0310
0000
1000
0100
0010
0001
,
0010
0000
0010
0000
0100
0010
0100
1000
0100
0000
0000
0000
1100
0010
1100
0000
,
0011
0100
1100
0000
0110
0010
0011
0000
1100
0010
0011
0000
0110
0000
0000
0011
,
0000
0000
1010
0000
0110
0000
0000
0000
0000
0000
1010
0000
0110
0011
0000
1100
,
0000
0000
0110
0000
0011
1100
0000
0110
0000
0000
1010
0000
1100
0011
0000
1010
,
0000
0000
1100
0000
1001
0000
0000
1010
0110
0000
0001
0000
0110
0000
0000
0110
,
0011
0000
0010
0001
1100
0000
0000
0011
0100
0000
0010
0001
1100
0000
0000
1010
,
0101
0000
0010
0001
0100
0000
0000
0100
0000
0000
1100
0010
0101
0000
1000
0010
,
0100
0000
0010
0001
1100
0000
0011
0010
0100
0000
0010
1000
0101
0000
0001
0010
,
0100
0000
1100
0010
0102
0000
0000
1100
0000
0000
0110
0000
1103
0000
0011
0110
,
1100
0000
0110
1010
0202
0000
0010
1000
0010
0000
0010
1000
2023
0000
0000
0000
,
3030
0000
0010
0000
1001
0000
0000
0011
0000
0000
1001
0000
0312
0000
0100
0010
,
1000
0000
0010
0100
1103
0000
0010
0001
0100
0000
0100
1000
0220
0000
1000
0001
,
1000
0000
1000
0001
1000
0000
1000
0001
1330
0000
0011
0000
1000
1000
1000
0100
,
0100
0010
0010
0010
0001
0001
0010
0010
0010
0100
0100
0001
1010
0000
0000
1100
,
0000
0000
1010
0000
0000
1001
0110
0000
0001
1100
0110
1100
0101
0000
0010
0000
,
0100
0000
1000
0000
0010
0000
0100
0000
1000
0000
0100
0010
0000
0000
0010
0000
,
0001
0000
0010
0000
0200
0000
0010
0001
0010
0000
0010
0001
0310
0000
0100
0000
,
1000
0100
0010
0001
0100
0010
1100
0000
,
0110
0000
0011
0000
0110
0000
0001
1000
,
0100
0000
0010
0000
0100
0000
0001
0010
0000
0000
0100
0000
0010
0000
0001
0000
,
1000
0100
0020
0000
0000
1031
0110
0000
,
0110
0000
0101
0000
0000
0110
0000
0000
0110
0000
1100
0000
0101
0000
0000
0000
,
1100
0000
0000
0000
0101
0000
0100
0010
0100
0010
0010
1000
0100
1000
0100
0100
,
0001
0010
0001
1000
1000
0100
0010
0100
0001
0001
0100
0010
1000
0100
0100
0001
,
0010
0100
0010
0010
1000
0001
0100
0010
0010
0100
0001
0010
1000
1000
0100
0001
,
0010
0100
0100
1000
0001
1000
0010
0010
0001
1000
0001
0100
0100
0001
1000
0001
,
0010
0010
0100
0010
0100
1000
1000
0010
0100
0010
0001
0001
0100
0010
0010
0001
,
1000
1000
0010
0100
0100
0001
0010
0010
0100
1000
1000
0001
0010
0010
0100
1000
,
1000
0001
0010
0010
0100
0001
0001
0010
0100
0100
0010
0001
1000
1000
0010
0001
,
0001
1000
0100
0100
0001
1000
1000
0100
0001
0001
1000
0100
0100
0010
0100
0001
,
0010
0100
0010
1000
0001
0010
0202
0000
0010
0000
0313
0000
1100
0001
1010
0100
,
1001
0100
0110
0001
0101
0010
0110
1000
1100
0001
0110
0100
0011
1000
1100
0001
,
0011
0100
0101
1000
1001
0010
0110
0100
0011
1000
1100
0001
0011
0100
0110
1000
,
1001
0010
0110
1000
0011
0010
1100
0100
0011
1000
0110
0010
1001
0001
0110
0100
,
0011
0100
1010
0001
0110
0001
0011
0100
1001
0100
0110
1000
0101
1000
0110
0010
,
1100
0010
0110
0001
0101
0001
0110
0100
1100
0100
0110
1000
1010
0001
0110
0001
,
1010
0001
0110
0001
1010
0001
0110
0001
1010
0100
0011
0100
1010
0100
0011
0100
,
1010
0100
0011
0100
1010
0001
0110
0001
1010
0001
0110
0001
1010
0001
0110
0001
,
1100
0000
0010
0000
0101
0000
0010
0000
1100
0000
0010
0000
0101
0000
0010
0000
1100
0000
0010
0000
0101
0000
0000
0000
1000
0100
0010
0000
0001
0000
0100
0010
,
0100
1000
0000
0000
1000
0000
1000
0100
0010
0000
0001
0100
0010
0100
0001
0100
,
0010
0000
1000
0100
0110
0001
1010
0001
0110
0001
1010
0002
0000
0000
0000
0000
,
0003
0000
0011
0100
1010
0100
0011
0100
1020
0000
0000
0000
1030
0100
0010
0001
,
0020
0000
0000
0000
1130
0010
0101
0010
1001
0010
1100
0010
0101
0010
1001
0010
,
1100
0010
0101
0010
1001
0010
0101
0010
1100
0010
0101
0010
1001
0000
0000
0000
,
0000
0000
0110
1000
0101
0010
1001
0010
0101
0000
0000
0000
0011
0010
0110
0010
,
0011
0000
0000
0000
1100
0010
0101
0100
1010
0001
0101
0010
0101
0100
1010
0001
,
1100
0010
0001
0100
1010
0001
0110
0010
0101
0010
0101
1000
0110
0100
1001
0010
,
0110
1000
0011
0100
1100
0000
1000
0100
0000
0000
0100
0000
0100
0010
0000
0000
,
0001
0000
0010
0100
0010
0000
1100
0000
1100
0000
0101
0000
0101
0010
1100
1000
,
0100
0010
1100
0001
0100
0010
1100
1000
0100
0010
1100
0001
1100
0000
0100
0001
,
0000
0000
0110
0000
1000
0001
0010
0000
0110
0000
0001
1000
0100
0000
0110
0000
,
0101
0000
1100
0000
0110
0010
1001
0010
0100
0010
1001
0010
0100
0010
1001
0010
,
0100
0010
1001
0010
0101
0000
0100
0100
0000
0000
1100
0000
0001
0001
0001
0000
,
0110
0000
0100
0100
0100
0000
1100
0000
0110
0000
0011
0000
0110
0001
0110
1000
,
0100
0001
0110
1000
0100
0001
0110
1000
0100
0001
0110
1000
0101
0000
0010
0010
,
0000
0000
1100
0000
0001
0001
0001
0000
0110
0000
1000
1000
1000
0000
0110
0000
,
0110
0000
0110
0000
0110
0000
1100
0000
0101
1000
0100
0001
0100
0000
0011
1010
,
0110
1100
0110
0110
0011
0202
0000
0000
0000
0000
0000
0000
0000
0000
0000
2003
,
0000
0000
0000
0000
0000
0000
3311
0100
0010
0001
1100
0010
0100
1000
0011
0100
,
1100
0001
0110
1000
0001
1000
0110
0001
0010
0001
1100
0001
1000
0100
0011
0100
,
1100
0001
0110
1000
0100
0010
0101
0010
0001
0010
1100
0010
0100
1000
0110
1000
,
0011
1000
0110
0001
0010
0100
1011
0100
0010
0100
1001
0010
1000
0001
0110
0001
,
1010
0001
0110
0001
0100
0010
1001
0100
0010
0100
1001
0010
0100
1000
0110
1000
,
1001
0001
0110
0001
1000
0100
0101
0100
1000
0100
0101
0010
0001
0010
1010
0001
,
0110
1000
0011
0100
0010
1000
0101
0010
0100
0010
1100
0001
0010
0100
0011
1000
,
0110
0010
1100
0010
0001
0010
1100
0010
0001
0010
1100
0010
0001
1000
0110
0001
,
1010
0100
0011
1000
0010
0100
0010
0000
0101
0000
1000
0000
0011
0000
0010
0000
,
1100
0001
0011
0100
0110
1000
0101
1000
,
0110
0001
1010
0001
0110
1000
0101
0001
,
0110
1000
0011
0100
1010
0001
0101
0010
,
1001
0010
0110
1000
0101
1000
0110
0010
,
1001
0010
1100
0010
0011
1000
0110
0001
,
0110
1000
0011
0010
1100
1000
0011
0010
,
1100
0001
0110
0010
0101
0001
1100
0100
,
0011
0001
0110
1000
0011
0010
1100
0001
,
0110
0001
1001
0100
1001
0001
0110
0001
,
1001
0100
1001
0010
0110
0010
1001
0100
,
1001
0001
0110
0001
1100
0010
1100
0001
,
0110
1000
0101
1000
0110
0001
1010
0100
,
0011
1000
0110
0001
1010
0001
0110
0010
,
1100
0001
0110
0001
0101
0010
0110
0001
,
1010
0001
1100
0100
1010
0010
0101
0010
,
1010
0100
1100
0001
1020
0000
0000
2130
,
0000
0000
0000
0000
3110
0000
1000
0100
0012
0000
0000
0000
0000
0000
2013
0000
,
0000
0000
0000
0000
3110
0000
1000
0001
0120
0000
0000
0000
0000
0000
2030
0000
,
0000
0000
0000
0000
3002
0000
0023
0000
1230
0000
0000
0000
0000
0000
0010
0001
,
2310
0000
0000
0000
3102
0000
0000
0123
,
0000
0000
0000
0000
1130
0000
0001
0010
2100
0000
0000
0000
0000
0000
0000
0000
,
3210
0000
0312
0000
2203
0000
0000
3311
,
0000
0000
0000
0000
0220
0000
0000
0000
2332
0000
0100
0010
0100
0000
0000
0000
,
3113
0000
0000
0000
1010
0100
1000
0100
1010
0100
1000
0100
1010
0100
1000
0100
,
1010
0100
1000
0100
1010
0100
1000
0000
0102
0000
0000
0000
0000
0000
2103
0000
,
3220
0000
0000
0000
0000
0000
0000
0000
0330
0010
0001
0010
1001
0100
0010
0100
,
1010
0001
0100
0001
0110
1000
0010
1000
0022
0000
0000
0000
0000
0000
0000
0000
,
0000
0000
0000
0000
2003
0000
0000
0000
3131
1000
0100
0001
1010
0001
0100
0010
,
1100
0001
0010
0100
0011
0100
0001
0010
0101
1000
0100
1000
0101
0010
0100
0010
,
1001
0100
0010
0100
1001
0100
1000
0001
0120
0001
0100
0000
0100
0001
0100
0000
,
0100
0001
2100
0000
0100
0001
0200
0000
3032
0000
0000
0000
0300
0000
0000
0000
,
0113
0000
0000
0101
0010
0001
0010
1000
0101
0010
0001
0010
1100
0001
0010
0001
,
0110
1000
0100
1000
0011
0100
0001
0100
1010
0001
0100
1000
0011
0100
0010
0001
,
1100
0100
1010
0100
0011
0100
1001
0100
1010
0100
0001
0010
1100
0001
0010
0100
,
0011
0010
0100
0001
1100
0010
0001
0100
0011
0100
1000
0100
0101
0010
0100
0010
,
1100
0001
0100
1010
0011
0100
1010
0010
0101
0010
0100
0010
1001
0010
0100
0010
,
1100
0010
0100
0010
0101
0010
0100
1000
0220
0000
0000
0000
0330
0000
0000
0000
,
1010
0000
0000
0110
0000
0000
1200
0000
0021
0000
0000
0000
0000
0000
0000
0000
,
1001
0000
2332
0000
,
3113
0001
1000
0010
1100
0001
1000
0010
0202
1000
0010
0010
1000
1000
0010
0010
,
1000
1000
0010
0010
1000
1000
0010
0010
0323
0100
1000
0100
1000
0100
1000
0100
,
1030
0100
0001
0100
1000
0100
0001
0100
2200
0010
0001
0010
0001
0010
0001
0010
,
3002
0010
1000
0010
1000
0010
1000
0010
2303
0100
0010
0001
0010
0100
0010
0001
,
3100
0010
1000
0010
0100
0001
0010
0100
2000
0010
0100
0001
0010
0100
0001
0100
,
0011
0100
0010
0001
0010
0100
0010
0001
3220
0000
0000
0000
0000
0000
0000
0000
,
1001
0000
0000
1001
0000
0000
1001
0000
2332
0000
0100
0010
0100
0000
0100
0010
,
3123
0000
1000
0001
1000
0000
1000
0001
0200
0000
0000
0000
0000
0000
0000
0000
,
0000
0000
0000
0000
0000
0000
0000
0000
1331
0100
0011
0100
0110
0001
1010
0100
,
0011
0100
0110
0001
1010
0100
0011
0100
0110
0001
1010
0100
0011
0100
0110
0001
,
1100
0010
1100
0001
1100
0010
1100
0001
1100
0010
1100
0001
1100
0010
1100
0001
,
1100
0010
0001
0100
0011
1000
0011
1000
0110
1000
0110
1000
0011
1000
0011
1000
,
0101
1000
0101
1000
0110
0010
0110
0010
0101
1000
0101
0010
1100
0010
0011
1000
,
0101
0010
0101
0010
0101
1000
0101
1000
0011
0100
0011
1000
0101
1000
0101
0010
,
0101
0010
1100
0001
1010
0010
0101
0010
1100
0001
1100
0001
1100
0001
1100
0001
,
1100
0100
0011
0100
1010
0100
0011
0100
1010
0001
1100
0001
1010
0001
1100
0001
,
1010
0100
0110
0001
1010
0100
0110
0001
0011
0100
1010
0000
0110
0000
0001
0000
,
1010
1000
0110
0001
0011
1000
1100
0001
,
0011
1000
0110
0001
1100
1000
0110
0001
,
0110
1000
1010
0001
0110
1000
1010
0001
,
0110
1000
0110
0001
0110
1000
0011
1000
,
0011
0100
1010
0001
1010
0100
0101
1000
,
0101
0010
1100
0001
1100
0010
0011
0100
,
0011
1000
1100
0001
1100
0010
1001
0100
,
1001
0010
1100
0001
1100
1000
0011
0100
,
0011
1000
1001
0100
1001
0010
0110
0001
,
0110
0010
1001
0100
1010
0001
1001
0010
,
1010
0100
0101
1000
1001
0100
0101
0010
,
1001
0100
0110
0001
1100
0010
0011
0010
,
1100
0010
0011
1000
0110
0100
0011
1000
,
0110
0100
0011
0010
1100
0100
0011
0010
,
1100
0100
0011
0010
1100
1000
0011
0100
,
1010
0100
1001
0001
0220
0000
0000
0000
,
0000
0000
0330
0000
;
