#TITLE:FFX Battle;
#SUBTITLE:Square Enix;
#ARTIST:Arashi no Tenshi;
#TITLETRANSLIT:;
#SUBTITLETRANSLIT:;
#ARTISTTRANSLIT:arashinotenshi;
#CREDIT:;
#BANNER:ff10_logo2.jpg;
#BACKGROUND:battle1.JPG;
#LYRICSPATH:;
#CDTITLE:ArashinoTenshi.bmp;
#MUSIC:FFX Battle.mp3;
#OFFSET:0.440;
#SAMPLESTART:38.014;
#SAMPLELENGTH:13.000;
#SELECTABLE:YES;
#BPMS:0.000=299.900,41.500=299.900;
#STOPS:;
#BGCHANGES:;
// cache tags:
#FIRSTBEAT:4.000;
#LASTBEAT:948.500;
#SONGFILENAME:Songs/longs versions/FFX Battle/FFX Battle.sm;
#HASMUSIC:1;
#HASBANNER:1;
#MUSICLENGTH:201.926;
// end cache tags

//---------------dance-single - ----------------
#NOTES:
     dance-single:
     :
     Hard:
     7:
     0.439,0.822,0.584,0.906,0.059,320.000,118.000,183.000,0.000,0.000:
0000
0000
0000
0000
,
1000
0000
0000
0200
0000
0010
0300
0000
,
0020
0000
0100
0030
0000
0110
0000
0000
,
1001
0000
0000
2000
0000
0000
0000
3002
,
0000
0000
2003
0000
,
0000
3020
0000
0000
0030
0100
0000
0000
,
1010
0000
0101
0000
0000
1100
0000
0011
,
0000
0000
1000
0000
0000
0001
0000
0000
,
2000
0000
0000
0000
0000
3020
0000
0000
,
0000
0000
0230
0000
0000
0000
0000
0302
,
0000
0000
0000
1003
0000
0000
1000
0000
,
1000
0000
0000
0101
0000
1010
0000
0000
,
1200
0000
0000
1300
0000
0000
0001
0000
,
0000
0001
0000
0001
0000
0000
0011
0000
,
1100
0000
0000
0012
0000
0000
0013
0000
,
0000
2010
0000
0000
3100
0000
0020
0000
,
0000
2030
0000
3002
0000
0003
1020
0000
,
0000
0130
0000
0000
0210
0000
0000
0320
,
0000
1030
0000
0000
1000
0000
0001
0000
,
0000
2000
0000
0000
3010
0000
0000
2000
,
0000
0000
0002
0000
,
0003
0200
0000
0000
0000
3300
0000
0000
,
0000
0000
0002
0000
0000
0000
0000
2000
,
0000
0000
0000
3000
0020
0000
0000
0033
,
0000
0000
0000
0000
0000
2002
0000
0000
,
0000
0003
0200
0000
0000
0000
0300
0020
,
0000
0000
0000
3030
0000
0000
0000
0000
,
0220
0000
0000
0000
0030
0002
0000
0000
,
0000
0003
0020
0000
0000
0000
0000
0000
,
0330
0000
0120
0000
0000
0000
0030
2001
,
0000
0000
0000
3000
0210
0000
0000
0000
,
0300
1002
0000
0000
0000
0003
1100
0000
,
0000
0011
0000
0000
2020
0000
0000
0000
,
0000
0000
0000
0000
,
0000
0000
0000
0000
,
3030
0000
0000
0000
0000
1200
0000
0000
,
0000
0300
0021
0000
0000
0000
0030
1200
,
0000
0000
0000
0300
0220
0000
0000
0330
,
0110
0000
0000
1010
0000
0000
0202
0000
,
0000
0000
0000
0000
,
0000
0000
0000
0000
,
0000
0000
0000
0303
0000
0000
0000
0000
,
2100
0000
0000
0000
3000
0120
0000
0000
,
0000
0032
0000
0000
0000
0000
0103
0000
,
0000
0000
0000
0110
0000
0000
0110
0000
,
0000
0220
0000
0000
0000
0000
0000
0000
,
0000
0000
0000
0330
,
0000
0000
0202
0000
,
0000
0303
2020
0000
0000
0000
0000
0000
,
0000
0000
0000
0000
,
0000
0000
0000
0000
3030
0220
0000
0000
,
0000
0000
0000
0330
2002
0000
0000
0000
,
0000
0000
0000
0000
0000
0000
0000
3003
,
0000
0000
0000
0000
,
0000
0000
0000
0000
0000
1010
0000
0000
,
0000
0000
0101
0000
0000
0000
0000
0110
,
0000
0000
0012
0000
,
1000
0000
0000
0100
0000
0000
0020
0000
,
0000
0000
0000
0000
,
0000
0000
0000
0000
,
0033
0000
0000
0000
0000
0000
0000
1100
,
0000
0000
0110
0000
,
0000
0011
0000
0000
0000
0000
2100
0000
,
0000
0000
0001
0000
0000
0010
0000
0000
,
0200
0000
0000
0000
,
0000
0000
0000
0000
,
0000
3300
0000
0000
,
0000
0000
0200
0000
0000
0000
0000
0010
,
0000
0000
0000
0310
0000
0000
0000
0000
,
0012
0000
0000
0000
0000
1000
0000
0000
,
0100
0000
0000
0020
0000
0000
0000
0000
,
0000
0000
0000
0000
,
0000
0000
0033
0000
,
0000
0000
0020
0000
,
0000
0100
0000
0000
0000
0130
0000
0000
,
0000
0000
2100
0000
0000
0000
0000
0001
,
0000
0000
0010
0000
0000
0200
0000
0000
,
0000
0000
0000
0000
,
0000
0000
0000
3300
,
0000
0000
0000
0000
0000
0000
0000
1000
,
0000
0000
0200
0000
,
0010
0000
0000
0000
0000
0301
0000
0000
,
0000
0000
2001
0000
0000
0010
0000
0000
,
3100
0000
0000
0220
,
0000
0000
0000
0000
,
0000
0000
0000
0000
,
0000
0000
0000
0000
,
0000
0000
0000
0000
,
0330
0000
0000
0000
,
0000
0000
0021
0000
0000
0000
0000
0100
,
0000
0000
1030
0000
,
0000
1200
0000
0000
0000
0000
0010
0000
,
0000
0301
0000
0000
2000
0000
0000
0000
,
0000
3000
2002
0000
0000
0000
0000
0000
,
0000
0000
0000
0000
,
0000
0000
0000
0000
,
0000
0000
0000
0000
,
0000
0000
3003
0000
,
0000
0000
0000
0000
,
1000
0000
0000
0100
0000
0000
0010
0000
0000
0001
0000
0000
0000
0000
0000
1000
,
0000
0000
1000
0000
0000
1000
0000
0000
0000
0000
0000
0000
0001
0000
0000
0001
,
0000
0000
0001
0000
0000
0000
0000
1000
0000
0000
0000
0001
0000
0000
0000
0000
,
0000
0000
0000
0001
0000
0000
0010
0000
0000
0100
0000
0000
1000
0000
0000
0000
,
0000
0000
1000
0000
0000
1000
0000
0000
1000
0000
0000
0000
0000
0000
0000
0001
,
0000
0000
0001
0000
0000
0001
0000
0000
0000
0000
1000
0000
0000
0000
0001
0000
,
0000
0200
0000
0000
0000
0000
0000
0000
,
0000
0000
0000
2000
,
0000
0000
0000
3000
0002
0000
0000
0000
,
0000
0003
2300
0000
0000
0000
0000
0000
,
0000
0000
0000
3001
,
0000
0000
0000
0000
0000
0012
0000
0000
,
0000
0000
0200
0000
,
0000
0000
0000
0000
,
0000
0000
0000
0000
0000
0300
2000
0000
,
0000
0000
0000
3003
0220
0000
0000
0000
,
0000
0000
0000
0000
,
0000
0000
0000
0000
0000
0330
0000
0000
,
0000
0000
0000
2000
,
0000
0000
3000
0200
0000
0000
0000
0300
,
0020
0000
0000
0000
0031
0001
0000
0000
,
0000
0202
0000
0000
0000
0303
2200
0000
,
0000
3300
0000
0202
0000
0000
0303
0100
,
0100
0000
0020
0000
,
0030
0200
0000
0000
0000
0300
0020
0000
,
0000
0000
1030
1000
0000
0000
0000
0210
,
0000
0000
0000
0300
0120
0000
0000
0000
,
0030
0210
0000
0000
0300
0010
0010
0000
,
0000
0210
0000
0000
0000
0300
1002
0000
,
0000
0000
0003
0120
0000
0000
0000
0030
,
2001
0000
0000
0000
3000
1001
0000
0000
,
0110
0000
0000
0220
0000
0000
0000
0000
,
0000
0000
0000
0000
,
0000
0000
0000
0000
0000
0000
0000
0330
,
0000
0000
2200
0000
,
3300
0022
0000
0000
0000
0033
2200
0000
,
0000
0000
3300
0220
0000
0000
0330
0110
,
0000
0000
0110
0000
0000
2002
0000
0000
,
0000
0000
0000
0000
,
0000
0000
0000
0000
,
0000
0000
3003
0000
0000
0000
0000
2010
,
0000
0000
0000
3000
0220
0000
0000
0330
,
2100
0000
0000
0000
0000
3001
0000
0000
,
0000
0000
0010
0000
0000
0100
0000
0000
,
0220
0000
0000
0000
,
0000
0000
0000
0000
0000
0330
0000
0000
,
0000
0000
0000
0200
0000
0000
0000
0000
,
0300
0020
0000
0000
0000
0000
0000
0000
,
0000
0000
0000
0000
,
0000
0000
0000
0030
2200
0000
0000
0000
,
0000
0000
3300
0022
0000
0000
0000
0000
,
0000
0000
0000
0033
,
0000
0000
0000
0000
,
0000
0000
0101
0000
,
0000
1010
0000
0000
0000
0000
1001
0000
,
0000
0000
0000
0012
0000
0000
0000
1000
,
0000
0000
0100
0000
0000
0020
0000
0000
,
0000
0000
0000
0000
,
0000
0000
0000
0000
0000
0000
0000
0033
,
0000
0000
0000
1100
,
0000
0000
0000
0110
0000
0000
0000
0000
,
0011
0000
0000
0000
0000
2100
0000
0000
,
0000
0001
0000
0000
0010
0000
0000
0200
,
0000
0000
0000
0000
,
0000
0000
0000
0000
,
0000
3300
0000
0000
0000
0000
0000
0000
,
0000
0200
0000
0000
0000
0000
0010
0000
,
0000
0000
0310
0000
0000
0000
0000
0012
,
0000
0000
0000
0000
1000
0000
0000
0100
,
0000
0020
0000
0000
,
0000
0000
0000
0000
,
0000
0000
0000
0033
0000
0000
0000
0000
,
0000
0000
0000
0020
0000
0000
0000
0000
,
0100
0000
0130
0000
,
0000
2100
0000
0000
0000
0000
0001
0000
,
0000
0010
0000
0000
0200
0000
0000
0000
,
0000
0000
0000
0000
,
0000
0000
0000
0000
0000
3300
0000
0000
,
0000
0000
0000
0110
,
0000
0000
0000
0200
0000
0000
0000
1000
,
0000
0000
0301
0000
,
0000
0210
0000
0000
0010
0000
0000
0310
,
0000
0000
0000
0000
0000
2020
0000
0000
,
0000
0000
0000
0000
,
0000
0000
0000
0000
,
0000
0000
0000
0000
,
0000
0000
0000
0000
0000
0000
0000
3030
,
0000
0000
0000
0000
,
0000
0120
0000
0000
0000
0000
0100
0000
,
0000
0000
0000
0130
0000
0000
0000
0000
,
0210
0000
0000
0000
0000
1000
0000
0000
,
0301
0000
0000
0220
0000
0000
0000
0000
,
0330
0202
0000
0000
0000
0000
0000
0000
,
0000
0000
0000
0000
,
0000
0000
0000
0000
,
0000
0000
0000
0000
,
0000
0000
0000
0303
0000
0000
0000
0000
,
0000
0000
0000
0000
0000
0000
0000
0010
,
0000
0100
0000
0000
0010
0000
0000
0100
0000
0000
0000
0000
0000
0010
0000
0000
,
0010
0000
0000
0010
0000
0000
0000
0000
0000
0000
0100
0000
0000
0100
0000
0000
,
0100
0000
0000
0000
0000
1000
0000
0000
0000
0001
0000
0000
0000
0000
0000
0000
,
0000
0100
0000
0000
0010
0000
0000
0100
0000
0000
0010
0000
0000
0000
0000
0000
,
0100
0000
0000
0100
0000
0000
0100
0000
0000
0000
0000
0000
0000
0010
0000
0000
,
0010
0000
0000
0010
0000
0000
0000
0000
1000
0000
0000
0000
0001
0000
0000
0000
,
0200
0000
0000
0000
,
0000
0000
0000
0000
0000
2000
0000
0000
,
0000
0000
3000
0002
0000
0000
0000
0000
,
0003
2300
0000
0000
0000
0000
0000
0000
,
0000
0000
0000
0000
0000
3001
0000
0000
,
0000
0000
0012
0000
,
0000
0000
0000
0200
0000
0000
0000
0000
,
0000
0000
0000
0000
,
0000
0000
0000
0000
0300
2000
0000
0000
,
0000
0000
3003
0220
0000
0000
0000
0000
,
0000
0000
0000
0000
,
0000
0000
0330
0000
,
0000
0000
0000
0000
0000
0002
0000
0000
,
0000
0003
0020
0000
0000
0000
0030
0200
,
0000
0000
0000
0301
0001
0000
0000
0000
,
0202
0000
0000
0000
0303
2200
0000
0000
,
3300
0000
0202
0000
0000
0303
0100
0100
,
0000
0000
0000
2000
0000
0000
0000
3000
,
0200
0000
0000
0000
0300
0020
0000
0000
,
0000
1030
1000
0000
0000
0000
0210
0000
,
0000
0000
0300
0120
0000
0000
0000
0030
,
0210
0000
0000
0300
0010
0010
0000
0000
,
1010
0000
0000
0000
0000
0101
0000
0000
,
0000
0000
0110
0000
0000
0000
0000
1001
,
0000
0000
0000
0000
1100
0000
0000
0011
,
0000
0220
0000
0000
,
0000
0000
0000
0000
,
0000
0000
0000
0330
,
0000
0000
0000
0020
0000
0000
0000
0030
,
2000
0000
0000
0000
3000
0002
0000
0000
,
0000
0003
0200
0000
0000
0300
1100
0000
,
0000
0011
0000
0000
2002
0000
0000
0000
,
0000
0000
0000
0000
,
0000
0000
0000
0000
,
0000
3003
0000
0000
0000
0000
0000
0000
;
