#TITLE:Putin's Boner;
#SUBTITLE:;
#ARTIST:Helblinde;
#TITLETRANSLIT:;
#SUBTITLETRANSLIT:;
#ARTISTTRANSLIT:;
#CREDIT:owenviau1;
#BANNER:../Banner.PNG;
#BACKGROUND:../BG.PNG;
#LYRICSPATH:;
#CDTITLE:../CDTitleOV1.png;
#MUSIC:Putin's Boner.ogg;
#OFFSET:-0.191;
#SAMPLESTART:153.787;
#SAMPLELENGTH:29.999;
#SELECTABLE:YES;
#BPMS:0.000=200.000;
#STOPS:;
#BGCHANGES:;
// cache tags:
#FIRSTBEAT:0.000;
#LASTBEAT:785.000;
#SONGFILENAME:Songs/Index Fusion/Putin's Boner - [owenviau1]/Putin's Boner.sm;
#HASMUSIC:1;
#HASBANNER:1;
#MUSICLENGTH:238.733;
// end cache tags

//---------------dance-single - ----------------
#NOTES:
     dance-single:
     :
     Challenge:
     18:
     1.000,1.000,0.054,0.653,1.000,2554.000,13.000,156.000,31.000,0.000:

2000
0000
3000
0000
0200
0000
0300
0000
0040
0030
0004
0003
2000
0000
0000
3000
,
0000
0000
0020
0000
0230
0000
0300
0002
0000
0000
0000
0000
1003
0000
0010
0000
,
0100
0000
0001
0000
1000
0010
1000
0000
0001
0100
0010
1000
0010
0000
0100
0000
,
0001
0000
1000
0000
0100
0010
0001
0000
1000
0010
1000
0001
0100
0000
0010
0000
,
0100
0000
0001
0000
1000
0100
0010
0000
0001
1000
0010
0100
0001
0000
0000
0000
,
0101
0000
0110
0000
1010
0000
1000
0100
,
0010
0000
0001
0000
0100
0010
1000
0000
0001
0100
0001
1000
0010
0000
0100
0000
,
0010
0000
1000
0000
0001
0010
0100
0000
1000
0010
1000
0001
0100
0000
0010
0000
,
1000
0000
0001
0000
1000
0100
0010
0000
0001
0100
0001
1000
0010
0000
0000
0000
,
1010
0000
0110
0000
0101
0000
1MM1
1000
,
0100
0000
0010
0000
0001
0000
0000
M000
0000
0000
0M00
0000
0000
0000
0000
0000
,
0000
0000
1000
0000
0010
0000
0200
0300
0000
0002
0000
0003
M000
0000
0000
00M0
,
00M0
00M0
00M0
00M0
20M0
00M0
00M0
00M0
00M0
0000
3001
0000
0200
0000
0000
0000
,
0000
0000
0000
0300
0010
0000
0000
0000
1000
0000
0000
0000
0002
0000
0000
0000
,
0000
0003
0020
0000
0030
0100
2000
0000
,
0000
3000
0001
0000
0100
0000
0020
0000
,
0000
0030
2000
0000
0000
3001
0200
0000
,
0000
0310
0000
1010
,
0000
0000
0000
0000
,
1000
0100
0010
0001
1000
0001
0100
0010
1000
0010
0100
0001
0100
0010
1000
0001
,
1000
0100
0010
0001
1000
0100
1000
0001
0100
0010
0100
0001
1000
0001
0100
0010
,
1000
0001
0100
0001
1000
0010
1000
0100
0010
0001
1000
0001
0100
0010
1000
0001
,
1000
0010
1000
0001
0100
0010
0100
0001
,
1000
0100
1000
0001
0100
0010
0100
0001
1000
0001
0100
0010
1000
0010
0100
0001
,
0100
0010
1000
0001
1000
0100
0010
0001
1000
0100
1000
0001
0010
0001
0100
0010
,
1000
0001
0100
0001
1000
0010
0100
0001
0100
0010
1000
0001
1000
0100
0010
0001
,
1000
0010
0100
0001
1000
0100
0010
0001
,
1000
0010
0100
0010
1000
0001
0100
0001
0010
0100
1000
0001
0010
0001
0100
0010
,
1000
0010
0100
0001
1000
0001
0100
0010
0100
0001
1000
0100
1000
0001
0010
0001
,
0100
0010
1000
0010
0100
0001
1000
0001
0010
0100
1000
0001
0100
0010
0100
0001
,
1000
0010
0100
0010
1000
0001
0100
0001
,
1000
0010
0100
0001
0100
0010
1000
0001
1000
0100
0010
0001
1000
0100
1000
0001
,
0010
0001
0100
0010
0100
0001
1000
0100
1000
0010
0100
0001
0100
0010
1000
0001
,
1000
0010
0100
0001
0100
0010
1000
0001
1000
0100
0010
0001
1000
0010
1000
0001
,
0100
0000
0000
0010
0000
0000
2000
0000
3000
0000
0001
0000
0200
0000
0300
0000
,
M001
0100
0001
1000
0010
0100
0010
1000
0001
0100
0010
0100
0001
1000
0100
0010
,
0001
1000
0100
1000
0010
0100
0001
1000
0001
0100
0010
0100
0001
1000
0001
0010
,
0100
1000
0001
0010
0001
1000
0100
1000
0010
0100
0001
0010
0001
1000
0010
0100
,
0010
1000
0001
0100
0001
1000
0100
0010
0001
1000
0100
1000
0010
0100
0001
0100
,
0010
1000
0001
1000
0100
0010
0001
1000
0010
1000
0001
0100
0010
0100
0001
1000
,
0001
0010
0100
1000
0001
0010
0001
0100
0010
1000
0010
0100
0001
1000
0001
0100
,
0010
0100
0001
1000
0100
1000
0010
0100
0001
1000
0100
1000
0001
0010
0001
0100
,
0010
1000
0010
0100
0001
1000
0001
0100
0010
1000
0010
0100
0001
1000
0100
1000
,
0001
0010
0001
0100
0010
1000
0010
0100
0001
1000
0001
0010
0100
1000
0001
0100
,
0001
1000
0010
0100
0001
1000
0100
1000
0010
0100
0001
1000
0001
0100
0010
1000
,
0010
0100
0001
1000
0001
0010
0100
1000
0001
0010
0001
0100
0010
0100
0001
1000
,
0100
1000
0010
0100
0010
1000
0001
0100
0001
1000
0100
0010
0001
1000
0010
1000
,
0001
0100
0010
1000
0010
0100
0001
1000
0100
1000
0001
0010
0100
1000
0001
0010
,
0001
0100
0010
1000
0010
0100
0001
1000
0001
0100
0010
0100
0001
1000
0010
1000
,
0200
0310
0001
1000
0020
0230
0302
1003
,
0020
0030
0200
0300
0020
0030
2000
3000
0002
0003
0200
0300
0002
0003
2000
3000
0020
0030
2000
3000
0002
0003
0020
0030
0200
0300
2000
3000
0020
0030
2000
3000
,
0M01
0010
0001
1000
0010
0100
0010
1000
0001
0100
0001
1000
0100
1000
0010
0100
,
0001
0100
0010
1000
0001
1000
0100
0010
0001
1000
0010
0100
0010
1000
0001
0100
,
0010
1000
0010
0100
0001
1000
0100
1000
0001
0010
0100
1000
0001
0010
0001
0100
,
0010
1000
0010
0100
0001
1000
0100
1000
0010
0100
0010
1000
0001
0100
0010
1000
,
0010
0100
0001
1000
0100
1000
0010
0100
0001
1000
0100
0010
0001
1000
0100
1000
,
0010
0100
0001
1000
0001
0100
0010
1000
0010
0100
0001
1000
0001
0010
0100
1000
,
0001
0010
0001
0100
0010
1000
0010
0100
0001
1000
0001
0100
0010
0100
0001
1000
,
0010
0100
0001
1000
0010
0000
0M00
0000
,
1000
0010
0100
0001
1000
0001
0100
0010
0100
0001
1000
0100
1000
0010
0100
0001
,
1000
0100
1000
0001
0010
0001
0100
0010
1000
0010
0100
0001
1000
0001
0100
0010
,
0100
0001
1000
0100
0010
0001
1000
0100
1000
0010
0100
0001
1000
0001
0100
0010
,
0100
0001
1000
0010
1000
0100
0010
0001
1000
0100
1000
0001
0010
0001
0100
0010
,
1000
0010
0100
0001
0100
0010
1000
0001
1000
0100
0010
0001
1000
0100
1000
0010
,
0100
0001
0100
0010
1000
0001
1000
0100
0010
0001
1000
0100
1000
0001
0100
0010
,
1000
0010
0100
0001
1000
0001
0100
0010
0100
0001
1000
0010
1000
0100
0010
0001
,
1000
0010
1000
0001
0100
0010
0100
0001
1000
0001
0010
0100
1000
0001
0100
0001
,
1000
0100
0010
0001
1000
0001
0100
0010
,
0200
0301
2000
3010
2000
3100
0020
0031
,
0200
0301
1000
0100
0010
0001
1000
0100
,
2000
3001
0400
0301
4000
3100
0040
0031
,
1000
0000
0010
0000
0100
0000
0010
0000
1000
0000
0001
0000
0010
0000
0100
1000
,
0001
1000
0010
0000
0100
0000
0010
0000
1000
0001
1000
0000
0100
0010
0001
1000
,
0001
0100
0010
1000
0001
0100
0001
1000
,
0020
0030
0200
0300
0020
0030
2000
3000
0002
0003
0200
0300
0002
0003
2000
3000
0200
0300
0020
0030
0002
0003
2000
3000
0020
0030
2000
3000
0002
0003
0200
0300
,
M010
0100
0001
1000
0010
1000
0100
0010
0001
1000
0100
1000
0001
0100
0010
1000
,
0010
0100
0001
1000
0001
0010
0100
1000
0001
0010
0001
1000
0100
1000
0010
0100
,
0001
1000
0001
0100
0010
1000
0001
1000
0100
0010
0001
1000
0100
1000
0001
0010
,
0001
0100
0010
1000
0010
0100
0001
1000
0001
0100
0010
0100
0001
1000
0010
1000
,
0100
0010
0001
1000
0100
1000
0001
0100
0010
1000
0010
0100
0001
1000
0001
0100
,
0010
0100
0001
1000
0100
1000
0010
0100
0001
1000
0001
0010
0100
1000
0001
0010
,
0001
0100
0010
1000
0010
0100
0001
1000
0001
0100
0010
0100
0001
1000
0100
1000
,
0010
0100
0001
1000
0100
0010
0001
1000
0100
1000
0010
0100
0001
1000
0001
1000
,
0001
0100
0010
0100
0001
1000
0010
1000
0100
0010
0001
1000
0100
1000
0001
0100
,
0010
0100
0001
1000
0010
1000
0100
0010
0001
0100
0010
0100
0001
1000
0010
1000
,
0001
0100
0010
1000
0010
0100
0001
1000
0001
0100
0010
1000
0010
0100
0001
1000
,
0001
0010
0100
1000
0001
0100
0001
1000
0010
0100
0010
1000
0001
0100
0001
0100
,
0001
1000
0010
0100
0010
1000
0001
0100
0001
1000
0100
0010
0001
1000
0100
1000
,
0001
0010
0001
0100
0010
1000
0010
0100
0001
1000
0001
0100
0010
0100
0001
1000
,
0010
1000
0100
0010
0001
1000
0100
1000
0001
0100
0001
1000
0010
0100
0010
1000
,
0001
0100
0001
1000
0100
0010
0001
1000
0100
1000
0001
0100
0010
1000
0001
1000
,
0020
0000
0030
0000
2000
3000
0100
0010
0002
0003
1000
0010
2000
0000
3000
0000
,
0001
0100
0001
1000
0010
1000
0001
0100
0010
0100
0001
1000
0010
1000
0100
0010
,
0001
1000
0100
1000
0010
0100
0001
0100
0010
1000
0001
1000
0100
0010
0001
1000
,
0100
1000
0001
0010
0001
0100
0010
0100
0001
1000
0010
1000
0100
0010
0001
1000
,
0020
0130
0002
1003
0002
0013
0100
1000
,
0001
1000
0010
0100
0010
1000
0001
0100
0001
1000
0100
0010
0001
1000
0010
0100
,
0001
0100
0010
1000
0001
1000
0100
0010
0001
1000
0100
1000
0010
0100
0001
0100
,
0010
1000
0001
1000
0100
0010
0001
1000
0001
0100
0010
0100
0001
1000
0010
1000
,
0001
0100
0020
0030
2000
0000
3001
0000
,
0100
0010
1000
0001
0100
0001
1000
0100
0010
0001
1000
0100
1000
0001
0100
0010
,
0100
0001
1000
0010
1000
0100
0010
0001
0100
0001
1000
0010
0100
0001
0100
0010
,
1000
0001
1000
0100
0010
0001
0100
0010
0100
0001
1000
0001
0100
0010
1000
0001
,
1000
0100
0010
0001
1000
0100
1000
0001
0010
0001
0100
0010
1000
0001
1000
0100
,
0010
0001
1000
0100
1000
0001
0010
0001
0100
0010
1000
0010
0100
0001
1000
0001
,
0100
0010
0100
0001
1000
0010
1000
0100
0010
0001
1000
0100
1000
0001
0010
0001
,
0100
0010
1000
0010
0100
0001
1000
0001
0100
0010
0100
0001
1000
0001
0010
0100
,
2000
0000
3001
0000
0200
0000
0310
1000
,
0001
0010
0100
1000
0001
0100
0001
1000
0010
0100
0001
1000
0100
1000
0001
0010
,
0001
0100
0010
1000
0010
0100
0001
1000
0001
0100
0010
0100
0001
1000
0100
1000
,
0010
0100
0001
1000
0100
0010
0001
1000
0100
1000
0001
0010
0001
0100
0010
1000
,
0010
0100
0001
1000
0001
0100
0010
1000
0010
0100
0001
1000
0001
0010
0100
1000
,
0001
0010
0001
0100
0010
1000
0010
0100
0001
1000
0001
0100
0010
0100
0001
1000
,
0100
1000
0001
0010
0001
0100
0010
1000
0010
0100
0001
1000
0001
0010
0100
1000
,
0001
0010
0001
0100
0010
1000
0010
0100
0001
1000
0001
0100
0010
0100
0001
1000
,
0100
1000
0010
0100
0001
1000
0001
0100
0010
1000
0010
0100
0001
1000
0001
0010
,
0200
0000
0000
2300
3002
0000
0000
0203
,
03M0
0000
0000
0000
M000
M000
M000
0000
1MM2
0000
0000
0000
0023
0000
0000
0000
,
0230
0000
0000
2300
3002
0000
0000
2003
,
3010
0100
0001
0100
0020
0000
0000
0000
,
2030
0000
3002
0000
0023
0000
0230
2300
,
300M
0000
0000
0000
00M0
00M0
00M0
0000
1MM2
0000
0000
0000
0203
0000
0000
0000
,
0300
0020
0000
2030
3002
0000
0000
0013
,
0100
1000
0001
1000
0020
0000
0000
0000
,
2030
0000
3002
0000
0023
0000
0230
2300
,
3002
0000
0203
0320
2030
0000
3002
0000
,
0003
2000
0000
3020
0230
0000
0000
0302
,
4003
3000
0040
0030
0200
0000
0000
0000
,
0301
1000
0001
0100
0010
1000
0010
0100
0001
1000
0100
1000
0010
0100
0010
1000
,
0001
0100
0001
1000
0001
0010
0001
0100
0001
0010
0100
1000
0010
0100
0010
1000
,
0001
0100
0001
1000
0100
0010
0001
1000
0010
1000
0001
0100
0010
1000
0010
0100
,
0001
1000
0001
0010
0001
0100
0001
1000
0001
0010
0100
1000
0001
0100
0001
1000
,
0010
0100
0010
1000
0001
0100
0001
1000
0100
0010
0001
1000
0100
1000
0010
0100
,
0001
1000
0001
1000
0001
1000
0001
1000
0001
0010
0100
1000
0001
0100
0001
1000
,
0010
0100
0001
1000
0100
1000
0010
0100
0010
1000
0001
0010
0100
1000
0001
1000
,
0010
0100
0010
0100
0010
0100
0010
0100
0010
1000
0001
0100
0001
1000
0100
0010
,
0001
1000
0100
1000
0010
0100
0001
0100
0010
1000
0001
1000
0010
0100
0010
1000
,
0001
0100
0001
0100
0001
0100
0001
0100
0001
0010
0100
1000
0010
0100
0001
1000
,
0001
0100
0010
1000
0010
0100
0001
1000
0100
1000
0001
0010
0001
0100
0010
1000
,
0010
0100
0001
1000
0001
0100
0010
0100
0001
1000
0100
1000
0010
0100
0001
1000
,
0002
0013
0100
2000
3002
0103
0001
2000
,
3020
0230
0302
2003
3200
1300
0020
0130
,
0002
1003
0100
2000
3002
0013
0001
0200
,
0320
2030
3002
2003
3200
0310
0001
1000
,
0010
0100
0001
1000
0100
1000
0010
0100
0001
1000
0001
0010
0100
1000
0001
0010
,
0001
0100
0010
1000
0010
0100
0001
1000
0001
0100
0010
0100
0001
1000
0100
1000
,
0010
0100
0010
1000
0001
0100
0001
0010
0100
1000
0001
0010
0001
0100
0010
1000
,
0010
0100
0001
1000
0001
0100
0010
0100
0001
1000
0100
1000
0010
0100
0001
1000
,
0001
0100
0010
1000
0001
0100
0001
1000
0100
0010
0001
1000
0010
1000
0001
0100
,
0001
0010
0100
1000
0001
0010
0001
0100
0010
1000
0001
1000
0100
0010
0001
1000
,
0100
1000
0001
0100
0010
1000
0010
0100
0001
1000
0001
0010
0100
1000
0001
0100
,
0002
0023
0230
2300
3002
0003
1000
0000
,
0010
0100
0010
1000
0001
0100
0010
1000
0001
0100
0001
1000
0100
0010
0001
1000
,
0010
1000
0001
0100
0010
1000
0010
0100
0001
1000
0001
0100
0010
1000
0001
0100
,
0001
1000
0010
0100
0001
1000
0100
1000
0010
0100
0001
1000
0001
0100
0010
0100
,
0001
1000
0100
1000
0010
0100
0001
1000
0100
0010
0001
1000
0100
1000
0001
0010
,
0001
0100
0010
1000
0010
0100
0001
1000
0001
0100
0010
1000
0001
0100
0001
0010
,
0100
1000
0001
0010
0001
1000
0100
0010
0001
1000
0100
1000
0001
0100
0010
1000
,
0010
0100
0001
1000
0001
0100
0010
0100
0001
1000
0010
1000
0100
0010
0001
1000
,
0100
1000
0001
0010
0001
0100
0010
1000
0010
0100
0001
1000
0001
0100
0010
0100
,
0001
1000
0100
1000
0010
0100
0001
1000
0001
0010
0100
1000
0001
0100
0001
1000
,
0010
0100
0001
1000
0001
0010
0100
1000
0001
0010
0001
0100
0010
1000
0010
0100
,
0001
1000
0001
0100
0010
0100
0001
0010
0001
1000
0010
1000
0001
0100
0001
1000
,
0020
0000
0030
0000
0200
0000
0300
0000
0002
0000
0000
0003
2000
0000
0000
0000
,
3001
0010
0100
1000
0001
0100
0001
1000
0010
0100
0001
1000
0001
0100
0010
1000
,
0001
0100
0001
1000
0100
0010
0001
1000
0100
1000
0010
0100
0010
1000
0001
0100
,
0010
1000
0010
0100
0001
1000
0001
0010
0100
1000
0001
0010
0001
0100
0010
1000
,
0002
0203
0320
1030
0002
0000
2003
0000
,
3010
0100
0010
1000
0001
0100
0001
0010
0100
1000
0001
0010
0001
0100
0010
1000
,
0010
0100
0001
1000
0001
0100
0010
0100
0001
1000
0100
1000
0010
0100
0001
0100
,
0010
1000
0001
1000
0100
0010
0001
1000
0100
1000
0010
0100
0001
0100
0010
1000
,
0002
0023
0230
1300
0002
1003
0020
0130
,
0001
1000
0001
0100
0010
1000
0010
0100
0001
1000
0100
1000
0001
0010
0001
0100
,
0010
0100
0001
1000
0010
1000
0100
0010
0001
1000
0100
1000
0001
0010
0001
0100
,
0010
1000
0010
0100
0001
1000
0001
0100
0010
0100
0001
1000
0001
0010
0100
1000
,
0002
2003
3020
0130
0002
1003
0200
0000
,
1300
0010
1000
0001
0100
0010
0100
0001
1000
0010
1000
0100
0010
0001
0100
0001
,
1000
0010
0100
0001
0100
0010
1000
0001
1000
0100
0010
0001
1000
0100
1000
0001
,
0100
0010
0100
0001
1000
0010
1000
0100
0010
0001
1000
0001
0100
0010
1000
0001
,
2000
3020
0230
0000
0000
0000
0302
0000
,
1003
0010
0100
0001
1000
0001
0100
0010
0100
0001
1000
0010
1000
0100
0010
0001
,
1000
0100
1000
0001
0100
0010
1000
0010
0100
0001
1000
0001
0100
0010
0100
0001
,
1000
0100
1000
0010
0100
0001
1000
0001
0010
0100
1000
0001
0010
0001
0100
0010
,
1000
0010
0100
0001
1000
0001
0100
0010
0100
0001
1000
0100
1000
0010
0100
0001
,
1000
0100
0010
0001
1000
0100
1000
0010
0100
0001
1000
0001
1000
0001
0100
0010
,
0100
0001
1000
0010
1000
0100
0010
0001
1000
0100
1000
0001
0100
0010
0100
0001
,
1000
0010
1000
0100
0010
0001
0100
0010
0100
0001
1000
0010
1000
0001
0100
0010
,
1000
0010
0100
0001
1000
0001
0100
0010
1000
0010
0100
0001
1000
0001
0010
0100
,
1000
0001
0100
0001
1000
0010
0100
0010
1000
0001
0100
0001
0100
0001
1000
0010
,
0100
0010
1000
0001
0100
0001
1000
0100
0010
0001
1000
0100
1000
0001
0010
0001
,
0100
0010
1000
0010
0100
0001
1000
0001
0100
0010
0100
0001
1000
0010
1000
0100
,
0010
0001
1000
0100
1000
0001
0100
0001
1000
0010
0100
0010
1000
0001
0100
0001
,
1000
0100
0010
0001
1000
0100
1000
0010
0100
0001
1000
0001
0100
0010
0100
0001
,
1000
0010
1000
0100
0010
0001
1000
0100
1000
0001
0100
0010
1000
0010
0100
0001
,
1000
0001
0100
0010
0100
0001
1000
0100
1000
0010
0100
0001
1000
0001
0010
0100
,
1000
0001
0010
0001
0100
0010
1000
0010
0100
0001
1000
0001
0100
0010
0100
0001
,
2000
3000
0000
0000
;
