#TITLE:Keepin' Up With The Kids;
#SUBTITLE:;
#ARTIST:Mindless Self Indulgence;
#TITLETRANSLIT:;
#SUBTITLETRANSLIT:;
#ARTISTTRANSLIT:;
#CREDIT:;
#BANNER:Keepin' Up With The Kids.png;
#BACKGROUND:Keepin' Up With The Kids-bg.png;
#LYRICSPATH:;
#CDTITLE:!tear-cdtitle.png;
#MUSIC:Keepin Up With The Kids.mp3;
#OFFSET:-0.103;
#SAMPLESTART:41.868;
#SAMPLELENGTH:11.780;
#SELECTABLE:YES;
#BPMS:0.000=83.420,16.000=166.840,32.000=83.420,40.000=166.840,52.000=83.420,54.000=166.840,70.000=83.420,82.000=166.840,98.000=83.420,106.000=166.840,118.000=83.420,120.000=166.840,136.000=83.420,140.000=166.840,152.000=83.420,154.000=166.840,170.000=83.420,174.000=166.840,206.000=83.420;
#STOPS:;
#BGCHANGES:;
// cache tags:
#FIRSTBEAT:0.000;
#LASTBEAT:213.750;
#SONGFILENAME:Songs/Fresh Flock of Fantastic Files F4/(Tear) Keepin' Up With The Kids/Keepin Up With The Kids.sm;
#HASMUSIC:1;
#HASBANNER:1;
#MUSICLENGTH:103.575;
// end cache tags

//---------------dance-single - ----------------
#NOTES:
     dance-single:
     :
     Hard:
     10:
     1.000,1.000,1.000,0.058,0.912,557.000,182.000,6.000,0.000,0.000:  // measure 1
1000
0000
0010
0000
1000
0100
0000
1000
0000
0000
0000
0001
0010
0001
0100
0001
,  // measure 2
0010
0100
0010
0000
0100
1000
0000
0010
0000
0000
0000
0100
0001
0100
0010
0100
,  // measure 3
0011
1000
0010
1100
0001
0000
1000
0100
1000
0010
0100
0011
1000
0000
0001
0100
1001
0000
1000
0110
1001
0000
1010
0000
1100
0000
0110
0000
0011
0000
0101
0000
,  // measure 4
1001
0100
0010
1001
0100
0000
0100
1000
0001
0100
0001
0110
1000
0000
0001
1000
0100
0000
0001
1010
0101
0000
1010
0000
1100
0000
0011
0000
0110
0000
1100
0000
,  // measure 5
1010
0000
1000
0100
1000
0000
0001
0000
0101
0000
0100
0010
1000
0000
0001
0000
,  // measure 6
0011
0000
0010
0100
0010
0000
0100
0000
0110
0000
0100
1000
0011
0000
1000
0000
,  // measure 7
1010
0000
1000
0010
0100
0000
0001
0000
0011
0000
0001
0100
0001
0000
0100
0000
,  // measure 8
0110
0000
0100
0001
1000
0000
1000
0000
1100
0000
1000
0100
1001
0000
0001
0000
,  // measure 9
1000
0100
1000
0010
1000
0001
0100
0010
0001
0010
0100
0010
1000
0001
0010
0001
,  // measure 10
0000
0001
0100
0010
0100
0001
0100
0010
0100
0001
0010
0100
0010
0001
0100
0001
,  // measure 11
1001
0000
1000
0010
0100
0000
0000
0000
0011
0000
1100
0000
0110
0000
1001
0000
,  // measure 12
1010
0000
1000
0001
0010
0000
0000
0000
1100
0000
0110
0000
1001
0000
0011
0000
,  // measure 13
0101
0000
0100
0010
1000
0000
0000
0000
1100
0000
1010
0000
0101
0000
0000
0000
,  // measure 14
0001
0000
0100
0010
0000
0010
0000
0000
0110
0000
1000
0010
0100
0000
0000
0000
,  // measure 15
0011
0000
0101
0000
1001
0000
1010
0000
0101
0000
0001
0010
0001
0000
0000
0000
,  // measure 16
0110
0000
1100
0000
1010
0000
0110
0000
1001
0000
1000
0001
0010
0000
0001
0000
,  // measure 17
0011
1001
0101
0000
1010
0000
1100
1001
,  // measure 18
0000
0000
0202
0000
0000
0000
0000
0303
0001
0000
0100
0000
0010
1000
0000
0001
,  // measure 19
0000
0000
0000
0000
0000
0000
1000
0000
0010
0000
0100
0000
0010
0000
1000
0000
0011
1000
0010
1001
0100
0000
1010
0001
1000
0100
0010
1100
0001
0000
0100
0010
,  // measure 20
1001
0000
0001
0110
1001
0000
1010
0000
0110
0000
0101
0000
0011
0000
0110
0000
1100
0001
0100
0011
1000
0000
0110
1000
0001
0100
0001
1010
0100
0000
0001
0010
,  // measure 21
1100
0000
1000
0011
1100
0000
1010
0000
1001
0000
0011
0000
0101
0000
0110
0000
1001
0000
0000
0000
1000
0000
0100
0000
1000
0000
0000
0000
0001
0000
0000
0000
,  // measure 22
0101
0000
0100
0010
1000
0000
0001
0000
0011
0000
0010
0100
1000
0000
0100
0000
,  // measure 23
1100
0000
1000
0010
0101
0000
0001
0000
1001
0000
0001
0100
0001
0000
1000
0000
,  // measure 24
1010
0000
1000
0001
0010
0000
0100
0000
0110
0000
0100
1000
0010
0000
0100
0000
,  // measure 25
0110
0000
0001
1000
0110
0000
0100
0000
0001
0010
0001
0100
0001
1000
0001
0100
,  // measure 26
0001
0010
0100
0010
1000
0010
0100
1000
0000
0010
1000
0010
0100
0010
1000
0001
,  // measure 27
0100
0010
0100
0001
0100
1000
0100
0001
1001
0000
1000
0010
0100
0000
0000
0000
,  // measure 28
0101
0000
1001
0000
1100
0000
1010
0000
0101
0000
0001
1000
0010
0000
0000
0000
,  // measure 29
0110
0000
0101
0000
1001
0000
1100
0000
0110
0000
0010
0001
1000
0000
0000
0000
,  // measure 30
1010
0000
1001
0000
0101
0000
0000
0000
0001
0000
0010
0100
0000
0100
0000
0000
,  // measure 31
1100
0000
1000
0001
0010
0000
0000
0000
0110
0000
1100
0000
1010
0000
0110
0000
,  // measure 32
0101
0000
0001
1000
0010
0000
0000
0000
1010
0000
1001
0000
0110
0000
1001
0000
,  // measure 33
0101
0000
0001
0010
0100
0000
0010
0000
0110
0000
1100
0000
0011
0000
0000
0000
,  // measure 34
1010
0000
0000
0000
0101
0000
0011
0000
0000
0000
0220
0000
0000
0000
0000
0330
,  // measure 35
0100
0000
1000
0000
0010
0100
0000
0001
0000
0000
0000
1000
0010
0100
0010
1000
,  // measure 36
1100
0000
1000
0001
0010
0000
0000
0000
0011
0000
1001
0000
0110
0000
0101
0000
,  // measure 37
1010
1001
0000
0101
0000
0011
0000
1100
,  // measure 38
1010
0000
0001
0100
0010
0000
1000
0000
1010
0000
0000
0000
0101
0000
1001
0000
,  // measure 39
0000
1000
0000
0010
0000
0100
0000
0000
0110
0000
0001
1000
0100
0000
0000
0000
,  // measure 40
0110
0000
1100
0000
1010
0000
0110
0000
0101
0000
1000
0100
1000
0000
0001
0000
,  // measure 41
0011
0101
0110
1010
1001
0000
0000
0100
,  // measure 42
0110
0101
1100
0011
1010
0000
0101
0011
,  // measure 43
0000
0000
0220
0000
0000
0000
0000
0330
0100
0000
1000
0000
0001
0010
0000
0001
,  // measure 44
0000
0000
0000
0100
0010
1000
0010
0100
0110
0000
0100
0001
1000
0000
0010
0000
,  // measure 45
1010
0000
1000
0001
0010
0000
0100
0000
0110
0000
0100
0010
0001
0000
1000
0000
,  // measure 46
1010
0000
1000
0010
1001
0000
0001
0000
0011
0000
0010
0100
1000
0000
0010
0000
,  // measure 47
1010
0000
1000
0001
0010
0000
0001
0000
0101
0000
0100
0010
1000
0000
0001
0000
,  // measure 48
1001
0000
0001
0010
1100
0000
1000
0000
1010
0000
1000
0001
0010
0000
0100
0000
,  // measure 49
0110
0000
0100
1000
0001
0000
0100
0000
0101
0000
0100
0010
1000
0000
0001
0000
,  // measure 50
0101
0000
0100
0010
1001
0000
1000
0000
1010
0000
1000
0001
0010
0000
0001
0000
,  // measure 51
0101
0000
0100
0010
0100
0000
0001
0000
0011
0000
0010
0100
1000
0000
0010
0000
,  // measure 52
1010
0000
1000
0001
0110
0000
0100
0000
0001
1000
0001
0010
0001
0100
0001
0010
,  // measure 53
0100
0010
1000
0010
0001
0100
0010
1000
0000
0001
0100
0010
0100
0001
0100
0010
,  // measure 54
0100
1000
0100
0001
1000
0010
1000
0100
0000
0000
0000
0000
0000
0000
0000
0000
;
