#TITLE:How You Remind Me;
#SUBTITLE:Sexuality Violation;
#ARTIST:Nickelback;
#TITLETRANSLIT:;
#SUBTITLETRANSLIT:;
#ARTISTTRANSLIT:;
#CREDIT:;
#BANNER:howyouremindme-bn.png;
#BACKGROUND:howyouremindme-bg.png;
#LYRICSPATH:;
#CDTITLE:;
#MUSIC:02 - How You Remind Me (LP Mix).ogg;
#OFFSET:-0.197;
#SAMPLESTART:72.954;
#SAMPLELENGTH:12.000;
#SELECTABLE:YES;
#BPMS:0.000=171.633;
#STOPS:;
#BGCHANGES:;
// cache tags:
#FIRSTBEAT:0.000;
#LASTBEAT:632.000;
#SONGFILENAME:Songs/Sexuality Violation 2/How You Remind Me - [Janus5k]/How You Remind Me.sm;
#HASMUSIC:1;
#HASBANNER:1;
#MUSICLENGTH:224.417;
// end cache tags

//---------------dance-single - T. Swag vs. Archie----------------
#NOTES:
     dance-single:
     T. Swag vs. Archie:
     Challenge:
     15:
     1.000,1.000,0.094,0.753,1.000,2003.000,21.000,169.000,68.000,0.000:

0001
0010
0001
0010
0100
1000
0001
1000
0010
0100
0001
1000
0100
0010
0100
0010
,
0001
1000
0100
1000
0010
0100
0010
0100
0001
1000
0010
1000
0100
0010
0100
0010
,
0001
0100
0010
1000
0001
1000
0010
1000
0001
0010
0001
1000
0100
0010
0100
0010
,
0001
1000
0100
1000
0010
0100
0010
0100
0001
1000
0010
1000
0100
0010
0100
0010
,
0001
0100
0001
0100
0010
1000
0001
1000
0100
0010
0001
1000
0010
0100
0010
0100
,
0001
1000
0010
1000
0100
0010
0100
0010
0001
1000
0100
1000
0010
0100
0010
0100
,
0001
0010
0100
1000
0001
1000
0100
1000
0001
0100
0001
1000
0010
0100
0010
0100
,
0001
1000
0010
1000
0100
0010
0100
0010
0001
1000
0100
1000
0010
0100
0010
0100
,
0010
0100
0001
0100
0010
1000
0001
1000
0001
1000
0001
1000
0100
0010
0001
0010
,
0001
0010
0001
0010
0100
1000
0001
1000
0001
1000
0001
1000
0010
0100
0001
0100
,
0001
0100
0001
0100
0010
1000
0100
1000
0100
1000
0100
1000
0010
0100
0001
0100
,
0001
0000
0100
0000
0010
0000
1000
0000
0000
0001
0000
0000
1000
0000
0100
0000
0010
0000
0001
0000
0000
1000
0000
0000
0001
0000
0100
0000
0010
0000
1000
0000
0000
0001
0000
0000
1000
0000
0100
0000
0010
0000
0001
0000
0000
1000
0000
0000
,
0001
0000
1000
0000
0001
0000
0010
0100
0010
0100
0010
0000
0001
0000
0100
0010
,
0100
0010
0100
0000
0001
0000
0010
0100
0010
0100
0010
0000
0001
1000
0001
0000
,
1000
0000
0001
0000
1000
0000
0010
0100
0010
0100
0010
0000
1000
0000
0100
0010
,
0100
0010
0100
0000
1000
0000
0010
0100
0010
0100
0010
0000
1000
0001
1000
0000
,
0010
0000
0010
0000
0100
0000
0001
0100
0010
0100
0001
0000
1000
0000
1000
0000
,
0100
0000
0100
0000
0010
0000
0001
0010
0100
0010
0001
0000
1000
0000
1000
0000
,
0100
0010
0001
1000
0010
0100
0001
1000
0100
0010
0001
1000
0010
0100
0001
1000
,
0100
0010
0001
1000
0010
0100
0001
1000
0100
0000
0100
0000
0010
0000
0010
0000
,
0001
1000
0001
1000
0001
1000
0100
0010
0100
0010
0100
0010
0001
0100
0010
1000
,
0001
0100
0001
0100
0010
1000
0100
1000
0100
1000
0010
0100
0001
1000
0010
1000
,
0001
0010
0001
0010
0100
1000
0001
0010
0001
1000
0010
0100
0001
0010
0100
1000
,
0001
0010
0001
0010
0100
1000
0001
0100
0001
1000
0010
0100
0001
1000
0100
0010
,
0001
1000
0001
1000
0001
1000
0010
0100
0010
0100
0010
0100
0001
0010
0100
1000
,
0001
0010
0001
0010
0100
1000
0010
1000
0010
1000
0100
0010
0001
1000
0100
1000
,
0001
0100
0001
0100
0010
1000
0001
0100
0001
1000
0100
0010
0001
0100
0010
1000
,
0001
0100
0001
0100
0010
1000
0001
0010
0001
1000
0100
0010
0001
1000
0010
0100
,
0001
0010
0001
0010
0100
1000
0100
1000
0010
0100
0001
0010
0100
1000
0010
0100
,
0001
0010
0001
0010
0100
1000
0100
1000
0010
1000
0001
0100
0001
0100
0010
1000
,
0001
0010
0001
0010
0100
1000
0100
1000
0010
1000
0001
0100
0001
0100
0010
1000
,
0001
0010
0001
0010
0100
1000
0100
1000
0010
1000
0001
0100
0001
0100
0010
1000
,
0001
0010
0001
0010
0100
1000
0100
1000
0010
0100
0001
0010
0100
1000
0010
0100
,
0001
0010
0001
0010
0100
1000
0100
1000
0010
1000
0001
0100
0001
0100
0010
1000
,
0001
0010
0001
0010
0100
1000
0100
1000
0010
1000
0001
0100
0001
0100
0010
1000
,
0001
0010
0001
0010
0100
1000
0100
1000
0010
1000
0100
1000
0001
1000
0010
1000
,
0001
0100
0010
1000
0100
1000
0001
0100
0010
1000
0100
1000
0001
0100
0010
1000
,
0100
1000
0001
0100
0010
1000
0100
1000
0001
0100
0010
1000
0100
1000
0001
0100
,
0010
1000
0100
1000
0001
0100
0010
1000
0100
1000
0001
0100
0010
1000
0100
1000
,
0001
0100
0010
1000
0100
1000
0001
0100
0010
1000
0100
1000
0001
0100
0010
1000
,
0100
1000
0001
0100
0010
1000
0100
1000
0001
0100
0010
1000
0100
1000
0001
0100
,
0010
1000
0100
1000
0001
0100
0010
1000
0100
1000
0001
0100
0010
1000
0100
1000
,
0001
0100
0010
1000
0100
1000
0001
0100
0010
1000
0100
1000
0001
0100
0010
1000
,
0100
1000
0001
0100
0010
1000
0100
1000
0001
0100
0010
1000
0100
1000
0001
0100
,
0001
2000
3001
0200
0000
0301
0100
0010
,
1010
1000
0001
0020
0000
0200
0000
0330
,
1001
0002
1003
0200
0000
1300
0100
0010
,
0011
0000
0001
0000
1000
0000
0001
0000
0100
0010
1000
0001
1000
0000
0000
0000
,
1MM1
2000
3001
0200
0000
0301
0100
0010
,
1010
1000
0001
0020
0000
0200
0030
0310
,
0011
0001
1000
0100
1000
0010
0100
0001
,
1000
0000
0000
0000
0001
0000
0000
0000
0010
0000
0000
0000
0001
0000
0000
0000
0200
0300
0000
0000
0020
0000
0030
0000
2000
0000
0000
0000
3000
0000
0000
0000
,
1MM1
0002
1003
0020
0000
1030
0010
0100
,
0101
0001
1000
0200
0000
0020
0000
0330
,
1001
2000
3001
0020
0000
0031
0010
0100
,
1100
0000
1000
0000
0001
0000
1000
0000
0010
0100
0001
1000
0001
0000
0000
0000
,
1MM1
0002
1003
0020
0000
1030
0010
0100
,
0101
0001
1000
0200
0000
0020
0300
0032
,
0103
0010
1000
0001
0010
0100
1000
0001
0100
0010
1000
0001
0010
0100
1000
0001
,
0100
0010
1000
0001
0010
0100
1000
0001
0100
0000
0100
0000
0010
0000
0010
0000
,
2000
0000
0000
0000
3200
0000
0000
0000
0320
0000
0000
0000
0032
0000
0000
0000
2003
0000
0000
3000
0200
0000
0000
0300
0020
0000
0000
0030
0002
0000
0000
0000
2003
0000
3000
0000
0200
0000
0300
0000
0020
0000
0030
0000
0002
0000
0003
0000
1000
0000
0000
0000
0010
0000
0000
0000
1000
0000
0000
0000
0001
0000
0000
0000
,
2000
0000
0000
0000
3200
0000
0000
0000
0320
0000
0000
0000
0032
0000
0000
0000
2003
0000
0000
3000
0200
0000
0000
0300
0020
0000
0000
0030
0002
0000
0000
0003
2000
0000
3000
0000
0200
0000
0300
0000
0020
0000
0030
0000
0002
0000
0003
0000
1000
0000
0000
0000
0100
0000
0000
0000
1000
0000
0000
0000
0001
0000
0000
0000
,
2000
0000
0000
0000
3020
0000
0000
0000
0230
0000
0000
0000
0302
0000
0000
0000
2003
0000
0000
3000
0020
0000
0000
0030
0200
0000
0000
0300
0002
0000
0000
0003
2000
0000
3000
0000
0020
0000
0030
0000
0200
0000
0300
0000
0002
0000
0003
0000
1000
0000
0000
0000
0100
0000
0000
0000
1000
0000
0000
0000
0001
0000
0000
0000
,
1000
0010
1000
0010
0100
0010
0100
0010
1000
0100
1000
0100
0010
0100
0010
0100
,
2000
0000
0000
0000
3020
0000
0000
0000
0230
0000
0000
0000
0302
0000
0000
0000
2003
0000
0000
3000
0020
0000
0000
0030
0200
0000
0000
0300
0002
0000
0000
0003
2000
0000
3000
0000
0020
0000
0030
0000
0200
0000
0300
0000
0002
0000
0003
0000
1000
0000
0000
0000
0100
0000
0000
0000
1000
0000
0000
0000
0001
0000
0000
0000
,
2000
0000
0000
0000
3020
0000
0000
0000
0230
0000
0000
0000
0302
0000
0000
0000
2003
0000
0000
3000
0020
0000
0000
0030
0200
0000
0000
0300
0002
0000
0000
0003
2000
0000
3000
0000
0020
0000
0030
0000
0200
0000
0300
0000
0002
0000
0003
0000
1000
0000
0000
0000
0010
0000
0000
0000
1000
0000
0000
0000
0001
0000
0000
0000
,
2000
0000
0000
0000
3200
0000
0000
0000
0320
0000
0000
0000
0032
0000
0000
0000
2003
0000
0000
3000
0200
0000
0000
0300
0020
0000
0000
0030
0002
0000
0000
0003
2000
0000
3000
0000
0200
0000
0300
0000
0020
0000
0030
0000
0002
0000
0003
0000
1000
0000
0000
0000
0010
0000
0000
0000
1000
0000
0000
0000
0001
0000
0000
0000
,
1000
0100
1000
0100
0010
0100
0010
0100
1000
0010
1000
0010
0100
0010
0100
0010
,
2000
0000
0000
0000
3002
0000
0000
0000
0023
0000
0000
0000
0230
0000
0000
0000
2300
0000
0000
3000
0002
0000
0000
0003
0020
0000
0000
0030
0200
0000
0000
0300
2000
0000
3000
0000
0002
0000
0003
0000
0020
0000
0030
0000
0200
0000
0300
0000
1000
0000
0000
0000
0001
0000
0000
0000
0100
0000
0000
0000
0001
0000
0000
0000
,
2000
0000
0000
0000
3002
0000
0000
0000
0023
0000
0000
0000
0230
0000
0000
0000
2300
0000
0000
3000
0002
0000
0000
0003
0020
0000
0000
0030
0200
0000
0000
0300
2000
0000
3000
0000
0002
0000
0003
0000
0020
0000
0030
0000
0200
0000
0300
0000
1000
0000
0000
0000
0001
0000
0000
0000
0010
0000
0000
0000
0001
0000
0000
0000
,
2000
0000
0000
0000
3002
0000
0000
0000
0203
0000
0000
0000
0320
0000
0000
0000
2030
0000
0000
3000
0002
0000
0000
0003
0200
0000
0000
0300
0020
0000
0000
0030
2000
0000
3000
0000
0002
0000
0003
0000
0200
0000
0300
0000
0020
0000
0030
0000
1000
0000
0000
0000
0001
0000
0000
0000
0010
0000
0000
0000
0001
0000
0000
0000
,
1000
0010
1000
0010
0100
0010
0100
0010
1000
0100
1000
0100
0010
0100
0010
0100
,
2000
0000
0000
0000
3002
0000
0000
0000
0203
0000
0000
0000
0320
0000
0000
0000
2030
0000
0000
3000
0002
0000
0000
0003
0200
0000
0000
0300
0020
0000
0000
0030
2000
0000
3000
0000
0002
0000
0003
0000
0200
0000
0300
0000
0020
0000
0030
0000
1000
0000
0000
0000
0001
0000
0000
0000
0010
0000
0000
0000
0001
0000
0000
0000
,
2000
0000
0000
0000
3002
0000
0000
0000
0203
0000
0000
0000
0320
0000
0000
0000
2030
0000
0000
3000
0002
0000
0000
0003
0200
0000
0000
0300
0020
0000
0000
0030
2000
0000
3000
0000
0002
0000
0003
0000
0200
0000
0300
0000
0020
0000
0030
0000
1000
0000
0000
0000
0001
0000
0000
0000
0100
0000
0000
0000
0001
0000
0000
0000
,
2000
0000
0000
0000
3002
0000
0000
0000
0023
0000
0000
0000
0230
0000
0000
0000
2300
0000
0000
3000
0002
0000
0000
0003
0020
0000
0000
0030
0200
0000
0000
0300
2000
0000
3000
0000
0002
0000
0003
0000
0020
0000
0030
0000
0200
0000
0000
0000
1300
0000
0000
0000
0001
0000
0000
0000
0100
0000
0000
0000
0001
0000
0000
0000
,
0100
0000
0000
0000
0000
0000
0010
0000
0000
0000
0000
0000
1001
0000
0000
0000
0000
0000
1000
0000
0000
0001
0000
0000
1000
0000
0010
0000
0100
0000
0001
0000
1000
0000
0010
0000
0100
0000
0001
0000
1000
0000
0010
0000
0100
0000
0001
0000
,
1000
0100
0010
0001
0100
0001
1000
0100
0010
0001
0100
0001
1000
0100
0010
0001
,
0100
0001
1000
0100
0010
0001
0100
0001
1000
0100
0010
0001
0100
0001
1000
0100
,
0010
0001
0100
0001
1000
0100
0010
0001
0100
0001
1000
0100
0010
0001
0100
0001
,
1000
0100
0010
0001
0100
0001
1000
0100
0010
0001
0100
0001
1000
0100
0010
0001
,
0100
0001
1000
0100
0010
0001
0100
0001
1000
0100
0010
0001
0100
0001
1000
0100
,
0010
0001
0100
0001
1000
0100
0010
0001
0100
0001
1000
0100
0010
0001
0100
0001
,
1000
0100
0010
0001
0100
0001
1000
0100
0010
0001
0100
0001
1000
0100
0010
0001
,
0100
0001
1000
0100
0010
0001
0100
0001
1000
0100
0010
0001
0100
0001
1000
0100
,
1000
0010
0100
0001
0010
0001
1000
0010
0100
0001
0010
0001
1000
0010
0100
0001
,
0010
0001
1000
0010
0100
0001
0010
0001
1000
0010
0100
0001
0010
0001
1000
0010
,
0100
0001
0010
0001
1000
0010
0100
0001
0010
0001
1000
0010
0100
0001
0010
0001
,
1000
0010
0100
0001
0010
0001
1000
0010
0100
0001
0010
0001
1000
0010
0100
0001
,
0010
0001
1000
0010
0100
0001
0010
0001
1000
0010
0100
0001
0010
0001
1000
0010
,
0100
0001
0010
0001
1000
0010
0100
0001
0010
0001
1000
0010
0100
0001
0010
0001
,
1000
0010
0100
0001
0010
0001
1000
0010
0100
0001
0010
0001
1000
0010
0100
0001
,
0010
0001
1000
0010
0100
0001
0010
0001
1000
0010
0100
0001
0010
0001
1000
0010
,
2000
0000
0000
0000
,
0000
0000
0000
0000
,
0000
0000
0000
0000
,
0000
0000
0000
0000
0000
0000
0000
0000
0000
0000
0000
0000
0000
0000
0000
0000
0000
0000
0000
0000
0000
0000
0000
0000
3000
0000
0000
000M
00M0
0M00
M000
0000
,
0000
0000
0000
0000
,
0000
0000
0000
0000
,
M000
0000
0000
0000
,
M000
0000
0000
0000
,
0M00
0000
0M00
0000
,
00M0
0000
00M0
0000
,
000M
0000
000M
0000
,
000M
0000
000M
0000
,
0M00
0M00
0M00
0M00
,
00M0
00M0
00M0
00M0
,
M000
M000
M000
M000
,
M000
M000
M000
M000
,
0M00
0M00
0M00
0M00
0M00
0M00
0M00
0M00
,
00M0
00M0
00M0
00M0
00M0
00M0
00M0
00M0
,
000M
000M
M000
0M00
0M00
0M00
0M00
0M00
,
0M00
0M00
0M00
0M00
0M00
0M00
0M00
0M00
,
1010
0000
0000
0010
0000
0000
0100
0000
0000
0000
0000
0000
0010
0000
1000
0010
0000
0000
0100
0000
0000
0000
0000
0000
,
1010
0000
0000
0010
0000
0000
0100
0000
0010
1000
0000
1000
0001
0000
0001
1000
0000
0000
0100
0000
0000
0000
0000
0000
,
0011
0000
0000
0010
0000
0000
0100
0000
0000
0000
0000
0000
0010
0000
0001
0010
0000
0000
0100
0000
0000
0000
0000
0000
,
0011
0000
0000
0010
0000
0000
0100
0000
0010
0001
0000
0001
1000
0000
1000
0001
0000
0000
0100
0000
0000
0110
0000
0000
,
0101
0000
0000
0100
0000
0000
0010
0000
0000
0000
0000
0000
0100
0000
0001
0100
0000
0000
0010
0000
0000
0000
0000
0000
,
0101
0000
0000
0100
0000
0000
0010
0000
0100
0001
0000
0001
1000
0000
1000
0001
0000
0000
0010
0000
0000
0000
0000
0000
,
0100
0010
0001
1000
0010
0100
0001
1000
0100
0010
0001
1000
0010
0100
0001
1000
,
0100
0010
0001
1000
0010
0100
0001
1000
0100
0000
0100
0000
0010
0000
0010
0000
,
0001
1000
0010
1000
0100
1000
0001
1000
0100
1000
0001
0010
0001
0010
0100
1000
,
0001
0010
0001
0010
0100
1000
0010
1000
0100
1000
0001
0100
0010
1000
0010
0100
,
0001
1000
0100
1000
0010
1000
0001
1000
0010
1000
0001
0100
0001
0100
0010
1000
,
0001
0100
0001
0100
0010
1000
0100
1000
0010
1000
0001
0010
0100
1000
0100
0010
,
0001
1000
0010
1000
0100
1000
0001
1000
0100
1000
0001
0010
0001
0010
0100
1000
,
0001
0010
0001
0010
0100
1000
0010
1000
0100
1000
0001
0100
0010
1000
0010
0100
,
0001
1000
0100
1000
0010
1000
0001
1000
0010
1000
0001
0100
0001
0100
0010
1000
,
0001
0100
0001
0100
0010
1000
0100
1000
0010
1000
0001
0010
0100
1000
0100
0010
,
0001
1000
0010
1000
0100
1000
0001
1000
0100
1000
0001
0010
0001
0010
0100
1000
,
0001
0010
0001
0010
0100
1000
0010
1000
0100
1000
0001
0100
0010
1000
0010
0100
,
0001
1000
0100
1000
0010
1000
0001
1000
0010
1000
0001
0100
0001
0100
0010
1000
,
0001
0100
0001
0100
0010
1000
0100
1000
0010
1000
0001
0010
0100
1000
0100
0010
,
0001
1000
0010
1000
0100
1000
0001
1000
0100
1000
0001
0010
0001
0010
0100
1000
,
0001
0010
0001
0010
0100
1000
0010
1000
0100
1000
0001
0100
0010
1000
0010
0100
,
0001
1000
0100
1000
0010
1000
0001
1000
0010
1000
0001
0100
0001
0100
0010
1000
,
0010
0000
0000
0000
0000
0000
0100
0000
0000
0000
0000
0000
1001
0000
0000
0000
0000
0000
0001
0000
0000
1000
0000
0000
0001
0000
0010
0000
0100
0000
1000
0000
0001
0000
0010
0000
0100
0000
1000
0000
0001
0000
0010
0000
0100
0000
1000
0000
,
0001
0100
0010
1000
0100
1000
0001
0100
0010
1000
0100
1000
0001
0100
0010
1000
,
0100
1000
0001
0100
0010
1000
0100
1000
0001
0100
0010
1000
0100
1000
0001
0100
,
0010
1000
0100
1000
0001
0100
0010
1000
0100
1000
0001
0100
0010
1000
0100
1000
,
0001
0100
0010
1000
0100
1000
0001
0100
0010
1000
0100
1000
0001
0100
0010
1000
,
0100
1000
0001
0100
0010
1000
0100
1000
0001
0100
0010
1000
0100
1000
0001
0100
,
0010
1000
0100
1000
0001
0100
0010
1000
0100
1000
0001
0100
0010
1000
0100
1000
,
0001
0100
0010
1000
0100
1000
0001
0100
0010
1000
0100
1000
0001
0100
0010
1000
,
0100
1000
0001
0100
0010
1000
0100
1000
0001
0100
0010
1000
0100
1000
0001
0100
,
0001
0010
0100
1000
0010
1000
0001
0010
0100
1000
0010
1000
0001
0010
0100
1000
,
0010
1000
0001
0010
0100
1000
0010
1000
0001
0010
0100
1000
0010
1000
0001
0010
,
0100
1000
0010
1000
0001
0010
0100
1000
0010
1000
0001
0010
0100
1000
0010
1000
,
0001
0010
0100
1000
0010
1000
0001
0010
0100
1000
0010
1000
0001
0010
0100
1000
,
0010
1000
0001
0010
0100
1000
0010
1000
0001
0010
0100
1000
0010
1000
0001
0010
,
0100
1000
0010
1000
0001
0010
0100
1000
0010
1000
0001
0010
0100
1000
0010
1000
,
0001
0010
0100
1000
0010
1000
0001
0010
0100
1000
0010
1000
0001
0010
0100
1000
,
0010
1000
0001
0010
0100
1000
0010
1000
0001
0010
0100
1000
0010
1000
0001
0010
,
0001
1000
0010
1000
0100
0010
0001
1000
0010
1000
0100
0010
0001
1000
0010
1000
,
0100
0010
0001
1000
0010
1000
0100
0010
0001
1000
0010
1000
0100
0010
0001
1000
,
0010
1000
0100
0010
0001
1000
0010
1000
0100
0010
0001
1000
0010
1000
0100
0010
,
0001
1000
0010
1000
0100
0010
0001
1000
0010
1000
0100
0010
0001
1000
0010
1000
,
0100
0010
0001
1000
0010
1000
0100
0010
0001
1000
0010
1000
0100
0010
0001
1000
,
0010
1000
0100
0010
0001
1000
0010
1000
0100
0010
0001
1000
0010
1000
0100
0010
,
0001
0000
0000
0000
;

//---------------dance-single - T. Swag----------------
#NOTES:
     dance-single:
     T. Swag:
     Hard:
     13:
     1.000,1.000,0.094,0.753,1.000,1658.000,21.000,169.000,68.000,0.000:
0001
0010
0001
0010
0100
1000
0001
1000
0010
0100
0001
1000
0100
0010
0100
0010
,
0001
1000
0100
1000
0010
0100
0010
0100
0001
1000
0010
1000
0100
0010
0100
0010
,
0001
0100
0010
1000
0001
1000
0010
1000
0001
0010
0001
1000
0100
0010
0100
0010
,
0001
1000
0100
1000
0010
0100
0010
0100
0001
1000
0010
1000
0100
0010
0100
0010
,
0001
0100
0001
0100
0010
1000
0001
1000
0100
0010
0001
1000
0010
0100
0010
0100
,
0001
1000
0010
1000
0100
0010
0100
0010
0001
1000
0100
1000
0010
0100
0010
0100
,
0001
0010
0100
1000
0001
1000
0100
1000
0001
0100
0001
1000
0010
0100
0010
0100
,
0001
1000
0010
1000
0100
0010
0100
0010
0001
1000
0100
1000
0010
0100
0010
0100
,
0010
0100
0001
0100
0010
1000
0001
1000
0001
1000
0001
1000
0100
0010
0001
0010
,
0001
0010
0001
0010
0100
1000
0001
1000
0001
1000
0001
1000
0010
0100
0001
0100
,
0001
0100
0001
0100
0010
1000
0100
1000
0100
1000
0100
1000
0010
0100
0001
0100
,
0004
4000
0000
0000
0000
0000
0000
0000
0000
0000
0000
0000
0000
0000
0000
0000
0000
0000
0000
0000
0000
0003
3000
0000
,
0001
0000
1000
0000
0001
0000
0010
0100
0010
0100
0010
0000
0001
0000
0100
0010
,
0100
0010
0100
0000
0001
0000
0010
0100
0010
0100
0010
0000
0001
1000
0001
0000
,
1000
0000
0001
0000
1000
0000
0010
0100
0010
0100
0010
0000
1000
0000
0100
0010
,
0100
0010
0100
0000
1000
0000
0010
0100
0010
0100
0010
0000
1000
0001
1000
0000
,
0010
0000
0010
0000
0100
0000
0001
0100
0010
0100
0001
0000
1000
0000
1000
0000
,
0100
0000
0100
0000
0010
0000
0001
0010
0100
0010
0001
0000
1000
0000
1000
0000
,
0100
0010
0001
1000
0010
0100
0001
1000
0100
0010
0001
1000
0010
0100
0001
1000
,
0100
0010
0001
1000
0010
0100
0001
1000
0100
0000
0100
0000
0010
0000
0010
0000
,
0001
1000
0001
1000
0001
1000
0100
0010
0100
0010
0100
0010
0001
0100
0010
1000
,
0001
0100
0001
0100
0010
1000
0100
1000
0100
1000
0010
0100
0001
1000
0010
1000
,
0001
0010
0001
0010
0100
1000
0001
0010
0001
1000
0010
0100
0001
0010
0100
1000
,
0001
0010
0001
0010
0100
1000
0001
0100
0001
1000
0010
0100
0001
1000
0100
0010
,
0001
1000
0001
1000
0001
1000
0010
0100
0010
0100
0010
0100
0001
0010
0100
1000
,
0001
0010
0001
0010
0100
1000
0010
1000
0010
1000
0100
0010
0001
1000
0100
1000
,
0001
0100
0001
0100
0010
1000
0001
0100
0001
1000
0100
0010
0001
0100
0010
1000
,
0001
0100
0001
0100
0010
1000
0001
0010
0001
1000
0100
0010
0001
1000
0010
0100
,
0001
0010
0001
0010
0100
1000
0100
1000
0010
0100
0001
0010
0100
1000
0010
0100
,
0001
0010
0001
0010
0100
1000
0100
1000
0010
1000
0001
0100
0001
0100
0010
1000
,
0001
0010
0001
0010
0100
1000
0100
1000
0010
1000
0001
0100
0001
0100
0010
1000
,
0001
0010
0001
0010
0100
1000
0100
1000
0010
1000
0001
0100
0001
0100
0010
1000
,
0001
0010
0001
0010
0100
1000
0100
1000
0010
0100
0001
0010
0100
1000
0010
0100
,
0001
0010
0001
0010
0100
1000
0100
1000
0010
1000
0001
0100
0001
0100
0010
1000
,
0001
0010
0001
0010
0100
1000
0100
1000
0010
1000
0001
0100
0001
0100
0010
1000
,
0001
0010
0001
0010
0100
1000
0100
1000
0010
1000
0100
1000
0001
1000
0010
1000
,
0001
0100
0010
1000
0100
0010
0001
0100
,
0010
1000
0100
0010
0001
0100
0010
1000
,
0100
0010
0001
0100
0010
1000
0100
0010
,
0001
0100
0010
1000
0100
0010
0001
0100
,
0010
1000
0100
0010
0001
0100
0010
1000
,
0100
0010
0001
0100
0010
1000
0100
0010
,
0001
0100
0010
1000
0100
0010
0001
0100
,
0010
1000
0100
0010
0001
0100
0010
1000
,
0001
2000
3001
0200
0000
0301
0100
0010
,
1010
1000
0001
0020
0000
0200
0000
0330
,
1001
0002
1003
0200
0000
1300
0100
0010
,
0011
0000
0001
0000
1000
0000
0001
0000
0100
0010
1000
0001
1000
0000
0000
0000
,
1MM1
2000
3001
0200
0000
0301
0100
0010
,
1010
1000
0001
0020
0000
0200
0030
0310
,
0011
0001
1000
0100
1000
0010
0100
0001
,
1000
0000
0000
0000
0001
0000
0000
0000
0010
0000
0000
0000
0001
0000
0000
0000
0200
0300
0000
0000
0020
0000
0030
0000
2000
0000
0000
0000
3000
0000
0000
0000
,
1MM1
0002
1003
0020
0000
1030
0010
0100
,
0101
0001
1000
0200
0000
0020
0000
0330
,
1001
2000
3001
0020
0000
0031
0010
0100
,
1100
0000
1000
0000
0001
0000
1000
0000
0010
0100
0001
1000
0001
0000
0000
0000
,
1MM1
0002
1003
0020
0000
1030
0010
0100
,
0101
0001
1000
0200
0000
0020
0300
0032
,
0103
0010
1000
0001
0010
0100
1000
0001
0100
0010
1000
0001
0010
0100
1000
0001
,
0100
0010
1000
0001
0010
0100
1000
0001
0100
0000
0100
0000
0010
0000
0010
0000
,
2000
0000
0000
0000
3200
0000
0000
0000
0320
0000
0000
0000
0032
0000
0000
0000
2003
0000
0000
3000
0200
0000
0000
0300
0020
0000
0000
0030
0002
0000
0000
0000
2003
0000
3000
0000
0200
0000
0300
0000
0020
0000
0030
0000
0002
0000
0003
0000
1000
0000
0000
0000
0010
0000
0000
0000
1000
0000
0000
0000
0001
0000
0000
0000
,
2000
0000
0000
0000
3200
0000
0000
0000
0320
0000
0000
0000
0032
0000
0000
0000
2003
0000
0000
3000
0200
0000
0000
0300
0020
0000
0000
0030
0002
0000
0000
0003
2000
0000
3000
0000
0200
0000
0300
0000
0020
0000
0030
0000
0002
0000
0003
0000
1000
0000
0000
0000
0100
0000
0000
0000
1000
0000
0000
0000
0001
0000
0000
0000
,
2000
0000
0000
0000
3020
0000
0000
0000
0230
0000
0000
0000
0302
0000
0000
0000
2003
0000
0000
3000
0020
0000
0000
0030
0200
0000
0000
0300
0002
0000
0000
0003
2000
0000
3000
0000
0020
0000
0030
0000
0200
0000
0300
0000
0002
0000
0003
0000
1000
0000
0000
0000
0100
0000
0000
0000
1000
0000
0000
0000
0001
0000
0000
0000
,
1000
0010
1000
0010
0100
0010
0100
0010
1000
0100
1000
0100
0010
0100
0010
0100
,
2000
0000
0000
0000
3020
0000
0000
0000
0230
0000
0000
0000
0302
0000
0000
0000
2003
0000
0000
3000
0020
0000
0000
0030
0200
0000
0000
0300
0002
0000
0000
0003
2000
0000
3000
0000
0020
0000
0030
0000
0200
0000
0300
0000
0002
0000
0003
0000
1000
0000
0000
0000
0100
0000
0000
0000
1000
0000
0000
0000
0001
0000
0000
0000
,
2000
0000
0000
0000
3020
0000
0000
0000
0230
0000
0000
0000
0302
0000
0000
0000
2003
0000
0000
3000
0020
0000
0000
0030
0200
0000
0000
0300
0002
0000
0000
0003
2000
0000
3000
0000
0020
0000
0030
0000
0200
0000
0300
0000
0002
0000
0003
0000
1000
0000
0000
0000
0010
0000
0000
0000
1000
0000
0000
0000
0001
0000
0000
0000
,
2000
0000
0000
0000
3200
0000
0000
0000
0320
0000
0000
0000
0032
0000
0000
0000
2003
0000
0000
3000
0200
0000
0000
0300
0020
0000
0000
0030
0002
0000
0000
0003
2000
0000
3000
0000
0200
0000
0300
0000
0020
0000
0030
0000
0002
0000
0003
0000
1000
0000
0000
0000
0010
0000
0000
0000
1000
0000
0000
0000
0001
0000
0000
0000
,
1000
0100
1000
0100
0010
0100
0010
0100
1000
0010
1000
0010
0100
0010
0100
0010
,
2000
0000
0000
0000
3002
0000
0000
0000
0023
0000
0000
0000
0230
0000
0000
0000
2300
0000
0000
3000
0002
0000
0000
0003
0020
0000
0000
0030
0200
0000
0000
0300
2000
0000
3000
0000
0002
0000
0003
0000
0020
0000
0030
0000
0200
0000
0300
0000
1000
0000
0000
0000
0001
0000
0000
0000
0100
0000
0000
0000
0001
0000
0000
0000
,
2000
0000
0000
0000
3002
0000
0000
0000
0023
0000
0000
0000
0230
0000
0000
0000
2300
0000
0000
3000
0002
0000
0000
0003
0020
0000
0000
0030
0200
0000
0000
0300
2000
0000
3000
0000
0002
0000
0003
0000
0020
0000
0030
0000
0200
0000
0300
0000
1000
0000
0000
0000
0001
0000
0000
0000
0010
0000
0000
0000
0001
0000
0000
0000
,
2000
0000
0000
0000
3002
0000
0000
0000
0203
0000
0000
0000
0320
0000
0000
0000
2030
0000
0000
3000
0002
0000
0000
0003
0200
0000
0000
0300
0020
0000
0000
0030
2000
0000
3000
0000
0002
0000
0003
0000
0200
0000
0300
0000
0020
0000
0030
0000
1000
0000
0000
0000
0001
0000
0000
0000
0010
0000
0000
0000
0001
0000
0000
0000
,
1000
0010
1000
0010
0100
0010
0100
0010
1000
0100
1000
0100
0010
0100
0010
0100
,
2000
0000
0000
0000
3002
0000
0000
0000
0203
0000
0000
0000
0320
0000
0000
0000
2030
0000
0000
3000
0002
0000
0000
0003
0200
0000
0000
0300
0020
0000
0000
0030
2000
0000
3000
0000
0002
0000
0003
0000
0200
0000
0300
0000
0020
0000
0030
0000
1000
0000
0000
0000
0001
0000
0000
0000
0010
0000
0000
0000
0001
0000
0000
0000
,
2000
0000
0000
0000
3002
0000
0000
0000
0203
0000
0000
0000
0320
0000
0000
0000
2030
0000
0000
3000
0002
0000
0000
0003
0200
0000
0000
0300
0020
0000
0000
0030
2000
0000
3000
0000
0002
0000
0003
0000
0200
0000
0300
0000
0020
0000
0030
0000
1000
0000
0000
0000
0001
0000
0000
0000
0100
0000
0000
0000
0001
0000
0000
0000
,
2000
0000
0000
0000
3002
0000
0000
0000
0023
0000
0000
0000
0230
0000
0000
0000
2300
0000
0000
3000
0002
0000
0000
0003
0020
0000
0000
0030
0200
0000
0000
0300
2000
0000
3000
0000
0002
0000
0003
0000
0020
0000
0030
0000
0200
0000
0000
0000
1300
0000
0000
0000
0001
0000
0000
0000
0100
0000
0000
0000
0001
0000
0000
0000
,
0100
0000
0000
0000
0000
0000
0010
0000
0000
0000
0000
0000
1001
0000
0000
0000
0000
0000
1000
0000
0000
0001
0000
0000
4000
0000
0004
0000
0000
0000
0000
0000
0000
0000
0000
0000
0000
0000
0000
0000
0000
0000
3000
0000
0003
0000
0000
0000
,
1000
0010
0100
0001
0010
0100
1000
0010
,
0100
0001
0010
0100
1000
0010
0100
0001
,
0010
0100
1000
0010
0100
0001
0010
0100
,
1000
0010
0100
0001
0010
0100
1000
0010
,
0100
0001
0010
0100
1000
0010
0100
0001
,
0010
0100
1000
0010
0100
0001
0010
0100
,
1000
0010
0100
0001
0010
0100
1000
0010
,
0100
0000
0001
0000
0010
0000
0100
0000
1000
0000
0010
0000
0100
0000
0001
1000
,
0001
0100
0010
1000
0100
0010
0001
0100
,
0010
1000
0100
0010
0001
0100
0010
1000
,
0100
0010
0001
0100
0010
1000
0100
0010
,
0001
0100
0010
1000
0100
0010
0001
0100
,
0010
1000
0100
0010
0001
0100
0010
1000
,
0100
0010
0001
0100
0010
1000
0100
0010
,
0001
0100
0010
1000
0100
0010
0001
0100
,
0010
0000
1000
0000
0100
0000
0010
0000
0001
0000
0100
0000
0010
0000
1000
0001
,
2000
0000
0000
0000
,
0000
0000
0000
0000
,
0000
0000
0000
0000
,
0000
0000
0000
0000
0000
0000
0000
0000
0000
0000
0000
0000
0000
0000
0000
0000
0000
0000
0000
0000
0000
0000
0000
0000
3000
0000
0000
000M
00M0
0M00
M000
0000
,
0000
0000
0000
0000
,
0000
0000
0000
0000
,
M000
0000
0000
0000
,
M000
0000
0000
0000
,
0M00
0000
0M00
0000
,
00M0
0000
00M0
0000
,
000M
0000
000M
0000
,
000M
0000
000M
0000
,
0M00
0M00
0M00
0M00
,
00M0
00M0
00M0
00M0
,
M000
M000
M000
M000
,
M000
M000
M000
M000
,
0M00
0M00
0M00
0M00
0M00
0M00
0M00
0M00
,
00M0
00M0
00M0
00M0
00M0
00M0
00M0
00M0
,
000M
000M
M000
0M00
0M00
0M00
0M00
0M00
,
0M00
0M00
0M00
0M00
0M00
0M00
0M00
0M00
,
1010
0000
0000
0010
0000
0000
0100
0000
0000
0000
0000
0000
0010
0000
1000
0010
0000
0000
0100
0000
0000
0000
0000
0000
,
1010
0000
0000
0010
0000
0000
0100
0000
0010
1000
0000
1000
0001
0000
0001
1000
0000
0000
0100
0000
0000
0000
0000
0000
,
0011
0000
0000
0010
0000
0000
0100
0000
0000
0000
0000
0000
0010
0000
0001
0010
0000
0000
0100
0000
0000
0000
0000
0000
,
0011
0000
0000
0010
0000
0000
0100
0000
0010
0001
0000
0001
1000
0000
1000
0001
0000
0000
0100
0000
0000
0110
0000
0000
,
0101
0000
0000
0100
0000
0000
0010
0000
0000
0000
0000
0000
0100
0000
0001
0100
0000
0000
0010
0000
0000
0000
0000
0000
,
0101
0000
0000
0100
0000
0000
0010
0000
0100
0001
0000
0001
1000
0000
1000
0001
0000
0000
0010
0000
0000
0000
0000
0000
,
0100
0010
0001
1000
0010
0100
0001
1000
0100
0010
0001
1000
0010
0100
0001
1000
,
0100
0010
0001
1000
0010
0100
0001
1000
0100
0000
0100
0000
0010
0000
0010
0000
,
0001
1000
0010
1000
0100
1000
0001
1000
0100
1000
0001
0010
0001
0010
0100
1000
,
0001
0010
0001
0010
0100
1000
0010
1000
0100
1000
0001
0100
0010
1000
0010
0100
,
0001
1000
0100
1000
0010
1000
0001
1000
0010
1000
0001
0100
0001
0100
0010
1000
,
0001
0100
0001
0100
0010
1000
0100
1000
0010
1000
0001
0010
0100
1000
0100
0010
,
0001
1000
0010
1000
0100
1000
0001
1000
0100
1000
0001
0010
0001
0010
0100
1000
,
0001
0010
0001
0010
0100
1000
0010
1000
0100
1000
0001
0100
0010
1000
0010
0100
,
0001
1000
0100
1000
0010
1000
0001
1000
0010
1000
0001
0100
0001
0100
0010
1000
,
0001
0100
0001
0100
0010
1000
0100
1000
0010
1000
0001
0010
0100
1000
0100
0010
,
0001
1000
0010
1000
0100
1000
0001
1000
0100
1000
0001
0010
0001
0010
0100
1000
,
0001
0010
0001
0010
0100
1000
0010
1000
0100
1000
0001
0100
0010
1000
0010
0100
,
0001
1000
0100
1000
0010
1000
0001
1000
0010
1000
0001
0100
0001
0100
0010
1000
,
0001
0100
0001
0100
0010
1000
0100
1000
0010
1000
0001
0010
0100
1000
0100
0010
,
0001
1000
0010
1000
0100
1000
0001
1000
0100
1000
0001
0010
0001
0010
0100
1000
,
0001
0010
0001
0010
0100
1000
0010
1000
0100
1000
0001
0100
0010
1000
0010
0100
,
0001
1000
0100
1000
0010
1000
0001
1000
0010
1000
0001
0100
0001
0100
0010
1000
,
0010
0000
0000
0000
0000
0000
0100
0000
0000
0000
0000
0000
1001
0000
0000
0000
0000
0000
0001
0000
0000
1000
0000
0000
0004
0000
4000
0000
0000
0000
0000
0000
0000
0000
0000
0000
0000
0000
0000
0000
0000
0000
0003
0000
3000
0000
0000
0000
,
0001
0010
0100
1000
0010
0100
0001
0010
,
0100
1000
0010
0100
0001
0010
0100
1000
,
0010
0100
0001
0010
0100
1000
0010
0100
,
0001
0010
0100
1000
0010
0100
0001
0010
,
0100
1000
0010
0100
0001
0010
0100
1000
,
0010
0100
0001
0010
0100
1000
0010
0100
,
0001
0010
0100
1000
0010
0100
0001
0010
,
0100
0000
1000
0000
0010
0000
0100
0000
0001
0000
0010
0000
0100
0000
1000
0001
,
1000
0100
0010
0001
0100
0010
1000
0100
,
0010
0001
0100
0010
1000
0100
0010
0001
,
0100
0010
1000
0100
0010
0001
0100
0010
,
1000
0100
0010
0001
0100
0010
1000
0100
,
0010
0001
0100
0010
1000
0100
0010
0001
,
0100
0010
1000
0100
0010
0001
0100
0010
,
1000
0100
0010
0001
0100
0001
1000
0100
0010
0001
0100
0001
1000
0100
0010
0001
,
0100
0001
1000
0100
0010
0001
0100
0001
1000
0100
0010
0001
0100
0001
1000
0100
,
0010
0001
0100
0001
1000
0100
0010
0001
0100
0001
1000
0100
0010
0001
0100
0001
,
1000
0100
0010
0001
0100
0001
1000
0100
0010
0001
0100
0001
1000
0100
0010
0001
,
0100
0001
1000
0100
0010
0001
0100
0001
1000
0100
0010
0001
0100
0001
1000
0100
,
0010
0001
0100
0001
1000
0100
0010
0001
0100
0001
1000
0100
0010
0001
0100
0001
,
1000
0100
0010
0001
0100
0001
1000
0100
0010
0001
0100
0001
1000
0100
0010
0001
,
0100
0001
1000
0100
0010
0001
0100
0001
1000
0100
0010
0001
0100
0001
1000
0100
,
1000
0000
0000
0000
;

//---------------dance-single - T. Swag----------------
#NOTES:
     dance-single:
     T. Swag:
     Medium:
     11:
     0.809,1.000,0.165,0.223,0.548,1184.000,37.000,50.000,69.000,0.000:
0002
0000
1003
1000
0010
0100
0010
1000
,
0002
0000
0023
0000
0130
0000
1000
0001
,
0200
0310
1000
1000
0001
0010
0100
0010
,
0002
2003
3020
2030
,
3002
0000
1003
1000
0100
0010
0100
1000
,
0002
0000
0203
0000
0310
0000
1000
0001
,
0020
0130
1000
1000
0001
0100
0010
0100
,
0002
2003
3200
2300
,
3001
0200
0320
2030
,
3001
0020
0230
0320
,
0031
0000
0000
0000
2000
0000
0000
0000
3010
0000
0000
0000
1000
0001
1000
0001
,
1000
0100
0000
0010
0011
0001
1000
0000
,
0001
0000
1000
0000
0001
0000
0010
0100
0010
0100
0010
0000
0001
0000
0100
0010
,
0100
0010
0100
0000
0001
0000
0010
0100
0010
0100
0010
0000
0001
1000
0001
0000
,
1000
0000
0001
0000
1000
0000
0010
0100
0010
0100
0010
0000
1000
0000
0100
0010
,
0100
0010
0100
0000
1000
0000
0010
0100
0010
0100
0010
0000
1000
0001
1000
0000
,
0010
0000
0010
0000
0100
0000
0001
0100
0010
0100
0001
0000
1000
0000
1000
0000
,
0100
0000
0100
0000
0010
0000
0001
0010
0100
0010
0001
0000
1000
0000
1000
0000
,
0100
0010
0001
1000
0010
0100
0001
1000
0100
0010
0001
1000
0010
0100
0001
1000
,
0100
0010
0001
1000
0010
0100
0001
1000
0100
0000
0100
0000
0010
0000
0010
0000
,
0001
0000
1000
0000
0010
1000
0010
0000
0100
0001
0100
0000
0010
1000
0010
0000
,
1000
0000
0100
0000
0010
0001
0010
0000
0100
1000
0100
0000
0010
0001
0010
0000
,
0001
0000
1000
0000
0010
0100
0010
0000
1000
0001
1000
0001
0100
0010
1000
0010
,
0100
0001
1000
0000
0100
0010
0100
0000
1000
0001
1000
0000
0100
0010
0001
0000
,
1000
0000
0010
0000
0100
0001
0100
0000
0010
1000
0001
0000
0100
0010
0100
0000
,
0001
0000
1000
0000
0001
0010
0001
0000
1000
0100
0010
0000
0001
1000
0001
0000
,
0100
0000
0010
0000
1000
0001
1000
0000
0100
0010
0100
1000
0001
0010
0001
1000
,
0001
0100
0010
0000
1000
0010
0100
0000
0001
1000
0001
0000
1000
0100
1000
0000
,
1001
0110
0100
0000
,
1001
0110
0010
0000
,
1001
0000
0001
0000
0100
0010
1000
0010
0100
0001
1000
0001
0010
0100
0010
0000
,
0001
1000
0001
0000
1000
0100
1000
0000
0001
0100
0010
0000
1000
0001
1000
0000
,
0010
0000
0100
0000
0001
1000
0001
0000
0010
0100
1000
0000
0001
0010
0001
0010
,
0100
1000
0001
1000
0001
0100
0010
0000
1000
0001
1000
0000
0010
0100
0001
0000
,
1000
0000
0100
0000
0010
0001
0010
0000
0100
1000
0100
0000
0010
0001
1000
0000
,
0001
0100
0010
1000
0010
0100
0001
1000
0001
0010
0001
1000
0100
1000
0001
1000
,
0001
0100
0010
1000
0100
0010
0001
0100
,
0010
1000
0100
0010
0001
0100
0010
1000
,
0100
0010
0001
0100
0010
1000
0100
0010
,
0001
0100
0010
1000
0100
0010
0001
0100
,
0010
1000
0100
0010
0001
0100
0010
1000
,
0100
0010
0001
0100
0010
1000
0100
0010
,
0001
0100
0010
1000
0100
0010
0001
0100
,
0010
1000
0100
0010
0001
0100
0010
1000
,
0001
2000
3001
0200
0000
0301
0100
0010
,
1010
1000
0001
0020
0000
0200
0000
0330
,
1001
0002
1003
0200
0000
1300
0100
0010
,
0011
0000
0001
0000
1000
0000
0001
0000
0100
0010
1000
0001
1000
0000
0000
0000
,
1MM1
2000
3001
0200
0000
0301
0100
0010
,
1010
1000
0001
0020
0000
0200
0030
0310
,
0011
0001
1000
0100
1000
0010
0100
0001
,
1000
0000
0000
0000
0001
0000
0000
0000
0010
0000
0000
0000
0001
0000
0000
0000
0200
0300
0000
0000
0020
0000
0030
0000
2000
0000
0000
0000
3000
0000
0000
0000
,
1MM1
0002
1003
0020
0000
1030
0010
0100
,
0101
0001
1000
0200
0000
0020
0000
0330
,
1001
2000
3001
0020
0000
0031
0010
0100
,
1100
0000
1000
0000
0001
0000
1000
0000
0010
0100
0001
1000
0001
0000
0000
0000
,
1MM1
0002
1003
0020
0000
1030
0010
0100
,
0101
0001
1000
0200
0000
0020
0300
0032
,
0103
0010
1000
0001
0010
0100
1000
0001
0100
0010
1000
0001
0010
0100
1000
0001
,
0100
0010
1000
0001
0010
0100
1000
0001
0100
0000
0100
0000
0010
0000
0010
0000
,
1000
0000
0001
0000
0100
0001
0100
0000
0010
1000
0010
0000
0100
0001
0100
0000
,
0001
0000
0010
0000
0100
1000
0100
0000
0010
0001
0010
0000
0100
1000
0100
0000
,
1000
0000
0001
0000
0100
0010
0100
0000
0001
1000
0001
1000
0010
0100
0001
0100
,
0010
1000
0001
0000
0010
0100
0010
0000
0001
1000
0001
0000
0010
0100
1000
0000
,
0001
0000
0100
0000
0010
1000
0010
0000
0100
0001
1000
0000
0010
0100
0010
0000
,
1000
0000
0001
0000
1000
0100
1000
0000
0001
0010
0100
0000
1000
0001
1000
0000
,
0010
0000
0100
0000
0001
1000
0001
0000
0010
0100
0010
0001
1000
0100
1000
0001
,
1000
0010
0100
0000
0001
0100
0010
0000
1000
0001
1000
0000
0001
0010
0001
0000
,
1001
0110
0010
0000
,
1001
0110
0100
0000
,
1001
0000
1000
0000
0010
0100
0001
0100
0010
1000
0001
1000
0100
0010
0100
0000
,
1000
0001
1000
0000
0001
0010
0001
0000
1000
0010
0100
0000
0001
1000
0001
0000
,
0100
0000
0010
0000
1000
0001
1000
0000
0100
0010
0001
0000
1000
0100
1000
0100
,
0010
0001
1000
0001
1000
0010
0100
0000
0001
1000
0001
0000
0100
0010
1000
0000
,
0001
0000
0010
0000
0100
1000
0100
0000
0010
0001
0010
0000
0100
1000
0001
0000
,
1000
0010
0100
0001
0100
0010
1000
0001
1000
0100
1000
0001
0010
0001
1000
0001
,
1000
0010
0100
0001
0010
0100
1000
0010
,
0100
0001
0010
0100
1000
0010
0100
0001
,
0010
0100
1000
0010
0100
0001
0010
0100
,
1000
0010
0100
0001
0010
0100
1000
0010
,
0100
0001
0010
0100
1000
0010
0100
0001
,
0010
0100
1000
0010
0100
0001
0010
0100
,
1000
0010
0100
0001
0010
0100
1000
0010
,
0100
0000
0001
0000
0010
0000
0100
0000
1000
0000
0010
0000
0100
0000
0001
1000
,
0001
0100
0010
1000
0100
0010
0001
0100
,
0010
1000
0100
0010
0001
0100
0010
1000
,
0100
0010
0001
0100
0010
1000
0100
0010
,
0001
0100
0010
1000
0100
0010
0001
0100
,
0010
1000
0100
0010
0001
0100
0010
1000
,
0100
0010
0001
0100
0010
1000
0100
0010
,
0001
0100
0010
1000
0100
0010
0001
0100
,
0010
0000
1000
0000
0100
0000
0010
0000
0001
0000
0100
0000
0010
0000
1000
0001
,
2000
0000
0000
0000
,
0000
0000
0000
0000
,
0000
0000
0000
0000
,
0000
0000
0000
0000
0000
0000
0000
0000
0000
0000
0000
0000
0000
0000
0000
0000
0000
0000
0000
0000
0000
0000
0000
0000
3000
0000
0000
000M
00M0
0M00
M000
0000
,
0000
0000
0000
0000
,
0000
0000
0000
0000
,
M000
0000
0000
0000
,
M000
0000
0000
0000
,
0M00
0000
0M00
0000
,
00M0
0000
00M0
0000
,
000M
0000
000M
0000
,
000M
0000
000M
0000
,
0M00
0M00
0M00
0M00
,
00M0
00M0
00M0
00M0
,
M000
M000
M000
M000
,
M000
M000
M000
M000
,
0M00
0M00
0M00
0M00
0M00
0M00
0M00
0M00
,
00M0
00M0
00M0
00M0
00M0
00M0
00M0
00M0
,
000M
000M
M000
0M00
0M00
0M00
0M00
0M00
,
0M00
0M00
0M00
0M00
0M00
0M00
0M00
0M00
,
1010
0000
0000
0010
0000
0000
0100
0000
0000
0000
0000
0000
0010
0000
1000
0010
0000
0000
0100
0000
0000
0000
0000
0000
,
1010
0000
0000
0010
0000
0000
0100
0000
0010
1000
0000
0001
1000
0000
0001
1000
0000
0000
0100
0000
0000
0000
0000
0000
,
0011
0000
0000
0010
0000
0000
0100
0000
0000
0000
0000
0000
0010
0000
0001
0010
0000
0000
0100
0000
0000
0000
0000
0000
,
0011
0000
0000
0010
0000
0000
0100
0000
0010
0001
0000
1000
0001
0000
1000
0001
0000
0000
0100
0000
0000
0110
0000
0000
,
0101
0000
0000
0100
0000
0000
0010
0000
0000
0000
0000
0000
0100
0000
0001
0100
0000
0000
0010
0000
0000
0000
0000
0000
,
0101
0000
0000
0100
0000
0000
0010
0000
0100
0001
0000
1000
0001
0000
1000
0001
0000
0000
0010
0000
0000
0000
0000
0000
,
0100
0010
0001
1000
0010
0100
0001
1000
0100
0010
0001
1000
0010
0100
0001
1000
,
0100
0010
0001
1000
0010
0100
0001
1000
0100
0000
0100
0000
0010
0000
0010
0000
,
0001
0000
1000
0000
0010
1000
0010
0000
0100
0001
0100
0000
0010
1000
0010
0000
,
1000
0000
0100
0000
0010
0001
0010
0000
0100
1000
0100
0000
0010
0001
0010
0000
,
0001
0000
1000
0000
0010
0100
0010
0000
1000
0001
1000
0001
0100
0010
1000
0010
,
0100
0001
1000
0000
0100
0010
0100
0000
1000
0001
1000
0000
0100
0010
0001
0000
,
1000
0000
0010
0000
0100
0001
0100
0000
0010
1000
0001
0000
0100
0010
0100
0000
,
0001
0000
1000
0000
0001
0010
0001
0000
1000
0100
0010
0000
0001
1000
0001
0000
,
1001
0000
0000
0000
,
0000
0000
0000
0000
,
1001
0110
0100
0000
,
1001
0110
0010
0000
,
1001
0000
0001
0000
0100
0010
1000
0010
0100
0001
1000
0001
0010
0100
0010
0000
,
0001
1000
0001
0000
1000
0100
1000
0000
0001
0100
0010
0000
1000
0001
1000
0000
,
0010
0000
0100
0000
0001
1000
0001
0000
0010
0100
1000
0000
0001
0010
0001
0010
,
0100
1000
0001
1000
0001
0100
0010
0000
1000
0001
1000
0000
0010
0100
0001
0000
,
1000
0000
0100
0000
0010
0001
0010
0000
0100
1000
0100
0000
0010
0001
1000
0000
,
0001
0100
0010
1000
0010
0100
0001
1000
0001
0010
0001
1000
0100
1000
0001
1000
,
0001
0010
0100
1000
0010
0100
0001
0010
,
0100
1000
0010
0100
0001
0010
0100
1000
,
0010
0100
0001
0010
0100
1000
0010
0100
,
0001
0010
0100
1000
0010
0100
0001
0010
,
0100
1000
0010
0100
0001
0010
0100
1000
,
0010
0100
0001
0010
0100
1000
0010
0100
,
0001
0010
0100
1000
0010
0100
0001
0010
,
0100
0000
1000
0000
0010
0000
0100
0000
0001
0000
0010
0000
0100
0000
1000
0001
,
1000
0100
0010
0001
0100
0010
1000
0100
,
0010
0001
0100
0010
1000
0100
0010
0001
,
0100
0010
1000
0100
0010
0001
0100
0010
,
1000
0100
0010
0001
0100
0010
1000
0100
,
0010
0001
0100
0010
1000
0100
0010
0001
,
0100
0010
1000
0100
0010
0001
0100
0010
,
2002
0000
0000
0000
,
0000
0000
0000
0000
,
0000
0000
0000
0000
,
0000
0000
0000
0000
,
3003
0000
0000
0000
,
0000
0000
0000
0000
,
0000
0000
0000
0000
,
0000
0000
0000
0000
,
000M
0000
0000
0000
;
