#TITLE:Time To Rest;
#SUBTITLE:(Extended Mix);
#ARTIST:Andy Blueman;
#TITLETRANSLIT:;
#SUBTITLETRANSLIT:;
#ARTISTTRANSLIT:;
#CREDIT:Owem;
#BANNER:../banner.png;
#BACKGROUND:../bg.png;
#LYRICSPATH:;
#CDTITLE:../CDTitleOwem.png;
#MUSIC:Andy Blueman - Time To Rest (Extended Mix).ogg;
#OFFSET:-0.173;
#SAMPLESTART:370.608;
#SAMPLELENGTH:13.913;
#SELECTABLE:YES;
#BPMS:0.000=138.000;
#STOPS:;
#BGCHANGES:;
// cache tags:
#FIRSTBEAT:4.000;
#LASTBEAT:1466.750;
#SONGFILENAME:Songs/Owem's Simfiles 08 - 1.2/Time To Rest - [Owem] v1.0.0/Time To Rest.sm;
#HASMUSIC:1;
#HASBANNER:1;
#MUSICLENGTH:643.644;
// end cache tags

//---------------dance-single - 14- (Owem)----------------
#NOTES:
     dance-single:
     14- (Owem):
     Challenge:
     14:
     1.000,0.940,0.002,0.028,1.000,4979.000,1.000,18.000,92.000,0.000:
0000
0000
0000
0000
,
0001
0010
0000
0100
1000
0000
0010
0000
1000
0000
0001
0000
1000
0100
1000
0010
,
0100
0000
0001
1000
0001
0010
0100
1000
0001
0000
0100
0010
1000
0001
1000
0100
,
0010
0000
0001
0100
0001
1000
0010
0100
0001
0000
1000
0001
0010
0001
1000
0100
,
0010
0000
0001
0100
0010
1000
0001
1000
0100
0000
0010
0001
1000
0100
1000
0001
,
0100
0000
0010
1000
0001
0100
0001
1000
0100
0000
0010
0100
1000
0001
0100
0001
,
0010
0000
0100
1000
0001
1000
0010
0100
0001
0000
1000
0010
1000
0001
1000
0100
,
0010
0000
0001
0100
0001
1000
0100
0010
0001
0000
1000
0100
1000
0010
0100
0001
,
0010
0000
0100
0010
0001
1000
0100
1000
0010
0000
0100
0001
1000
0001
0010
0100
,
1000
0000
0001
0100
0001
0010
0100
1000
0001
0000
0100
0010
1000
0001
0100
0001
,
1000
0000
0100
0010
0100
1000
0001
0100
0010
0000
1000
0001
1000
0100
0010
0001
,
1000
0000
0010
0100
0001
1000
0001
0010
0100
0000
1000
0001
0100
0001
0100
0010
,
1000
0000
0001
0100
0010
0100
0001
1000
0001
0000
0010
0100
1000
0100
0010
0001
,
1000
0000
0010
0100
0001
1000
0010
1000
0001
0000
0010
0001
1000
0100
0010
0100
,
1000
0000
0001
0100
0010
0100
0001
1000
0010
0000
0100
0001
1000
0001
0010
0100
,
1000
0000
0001
0100
0001
0010
0100
1000
0100
0000
0010
0001
1000
0001
0100
0010
,
1000
0000
0001
0100
0001
1000
0100
0010
0100
0000
1000
0001
0010
0001
0100
0010
,
1000
0001
0100
0010
0100
0001
1000
0100
0010
0001
1000
0001
0100
0010
1000
0001
,
0100
0001
0010
0100
1000
0001
0010
0001
1000
0100
0010
0001
1000
0100
1000
0001
,
1000
0010
0100
0001
1000
0100
1000
0001
0100
0001
0010
0100
1000
0001
0010
0001
,
1000
0100
1000
0001
1000
0010
0100
0001
1000
0100
1000
0001
0100
0001
0010
0100
,
1000
0001
0010
0001
0100
0010
1000
0001
0100
0010
0100
0001
1000
0100
0010
0001
,
1000
0100
1000
0001
0010
0001
1000
0100
0010
0001
1000
0100
1000
0001
0010
0001
,
0100
0010
1000
0001
0100
0001
1000
0010
1000
0001
0100
0010
0100
0001
1000
0100
,
0010
0100
1000
0001
0010
0001
1000
0100
0010
0001
1000
0100
1000
0001
1000
0010
,
0100
0001
1000
0010
1000
0001
0100
0001
0010
0100
1000
0001
0010
0001
0100
0010
,
1000
0001
0100
0001
1000
0100
0010
0100
1000
0001
0010
0001
0100
0010
1000
0001
,
0100
0001
0010
0100
1000
0001
0010
0001
0100
0010
1000
0001
0100
0010
0100
0001
,
1000
0010
1000
0001
1000
0100
0010
0100
1000
0001
0010
0001
0100
0010
1000
0100
,
1000
0001
1000
0010
0100
0001
1000
0100
0010
0100
1000
0001
1000
0100
0010
0100
,
1000
0001
0010
0001
1000
0010
1000
0001
0100
0010
0100
0001
1000
0100
0010
0100
,
1000
0001
0010
0001
0100
0010
1000
0001
0100
0001
1000
0100
0010
0001
1000
0100
,
0000
0010
0001
1000
0000
0010
0100
0001
1000
0010
1000
0100
0010
0001
1000
0010
,
1000
0001
0100
0010
1000
0001
0100
0001
0010
0100
1000
0001
0010
0001
1000
0100
,
1000
0001
1000
0010
0100
0001
1000
0100
1000
0001
0100
0001
0010
0100
1000
0001
,
0010
0001
1000
0100
0010
0001
1000
0100
1000
0001
1000
0010
0100
0001
1000
0010
,
1000
0001
0100
0001
1000
0001
0100
0010
0100
0001
1000
0100
1000
0100
0010
0001
,
1000
0001
0100
0010
1000
0001
0100
0001
1000
0001
0010
0100
1000
0001
0010
0001
,
1000
0010
1000
0001
0100
0010
1000
0001
0010
0001
1000
0001
0100
0010
1000
0100
,
1000
0001
1000
0100
0010
0100
1000
0001
0010
0001
0100
0001
1000
0010
1000
0100
,
0010
0001
1000
0100
1000
0001
1000
0010
0100
0001
1000
0100
0010
0001
1000
0001
,
0100
0010
1000
0001
0010
0001
1000
0100
1000
0001
0100
0001
0010
0100
1000
0001
,
1000
0010
0100
0001
1000
0100
1000
0001
1000
0010
0100
0001
0100
0010
1000
0001
,
1000
0100
0010
0001
1000
0100
1000
0001
1000
0010
0100
0001
1000
0100
1000
0001
,
0100
0001
0010
0100
1000
0001
0010
0001
1000
0100
0010
0001
1000
0001
0100
0010
,
1000
0001
0010
0100
0010
0001
1000
0100
1000
0001
1000
0010
0100
0001
1000
0010
,
1000
0100
0010
0001
1000
0100
1000
0001
0010
0001
1000
0010
0100
0001
1000
0010
,
0100
0010
1000
0001
0100
0010
0100
0001
0010
0001
1000
0100
0010
0001
1000
0100
,
1000
0001
0100
0001
0010
0100
1000
0001
0010
0001
1000
0010
0100
0001
1000
0100
,
1000
0001
0100
0001
0010
0100
1000
0001
1000
0010
0100
0001
1000
0100
1000
0001
,
0100
0001
0010
0100
1000
0001
0010
0001
1000
0010
1000
0001
1000
0100
0010
0100
,
1000
0001
0010
0001
1000
0100
0010
0001
1000
0010
1000
0001
0100
0010
1000
0001
,
1000
0100
0010
0001
1000
0001
0010
0100
1000
0001
0010
0001
0100
0010
1000
0001
,
0100
0001
1000
0100
1000
0001
0100
0010
1000
0001
0100
0001
0010
0100
1000
0001
,
0010
0001
1000
0100
0010
0001
0100
0001
1000
0100
1000
0001
0010
0100
1000
0001
,
0010
0001
0100
0010
1000
0001
0100
0001
0010
0100
1000
0100
1000
0001
0100
0010
,
0100
0001
1000
0100
0010
0100
1000
0001
0010
0001
1000
0100
1000
0001
1000
0010
,
0100
0001
1000
0100
1000
0001
0010
0001
1000
0100
0010
0001
0100
0001
1000
0100
,
0010
0001
1000
0100
1000
0001
0100
0010
1000
0001
0100
0001
0010
0100
1000
0001
,
0010
0001
0100
0010
1000
0001
0100
0001
1000
0100
0010
0100
1000
0001
0010
0001
,
0100
0010
1000
0100
1000
0001
1000
0100
0010
0100
1000
0001
0010
0001
0010
0100
,
1000
0001
1000
0010
0100
0001
1000
0100
1000
0001
0100
0001
0010
0100
1000
0001
,
1000
0010
1000
0001
0100
0001
0010
0100
1000
0001
0010
0001
0100
0010
1000
0001
,
0100
0010
0100
0001
1000
0100
1000
0001
0010
0001
0100
0010
1000
0001
0100
0001
,
0010
0100
1000
0001
1000
0010
0100
0001
1000
0001
0100
0010
1000
0100
1000
0001
,
0010
0001
0100
0001
1000
0100
0010
0100
1000
0001
0010
0001
0100
0010
1000
0001
,
0100
0001
0010
0100
1000
0001
0010
0001
1000
0100
0010
0001
1000
0100
1000
0001
,
0100
0010
1000
0001
0100
0010
0100
0001
1000
0100
0010
0100
1000
0001
0010
0001
,
1000
0001
0100
0010
1000
0001
0100
0001
0010
0100
1000
0001
1000
0100
0010
0100
,
1000
0001
0010
0001
1000
0100
1000
0001
1000
0010
0100
0001
1000
0100
1000
0001
,
1000
0100
0010
0001
0100
0001
0010
0100
1000
0001
1000
0001
0100
0010
0100
0001
,
1000
0100
0010
0100
1000
0001
0010
0001
0100
0010
1000
0001
0100
0001
1000
0010
,
0100
0001
1000
0100
0010
0001
1000
0100
1000
0001
0010
0001
0100
0010
1000
0001
,
0010
0001
0010
0100
1000
0001
0010
0001
1000
0100
0010
0001
1000
0100
1000
0001
,
1000
0100
0010
0100
1000
0001
0010
0001
0100
0010
1000
0001
0100
0010
0100
0001
,
1000
0010
1000
0001
0010
0001
0100
0010
1000
0100
1000
0001
0100
0001
0010
0100
,
1000
0001
0010
0001
0100
0010
1000
0001
0100
0001
1000
0100
0010
0001
1000
0100
,
1000
0010
1000
0001
0100
0001
0010
0100
1000
0001
0010
0001
1000
0100
0010
0001
,
1000
0100
1000
0010
0100
0001
1000
0100
1000
0001
0010
0001
0100
0010
1000
0001
,
0100
0001
0010
0100
1000
0100
1000
0001
0100
0001
0010
0100
1000
0001
1000
0010
,
0100
0001
1000
0100
1000
0001
0100
0001
0010
0100
1000
0001
1000
0010
0100
0001
,
1000
0100
1000
0001
0010
0001
0100
0010
1000
0001
0100
0001
1000
0100
1000
0001
,
1000
0100
0010
0001
1000
0100
1000
0001
0010
0001
0100
0010
1000
0001
0010
0100
,
0010
0001
1000
0100
0010
0100
1000
0001
1000
0010
0100
0010
0100
0001
0010
0001
,
1000
0100
1000
0001
0100
0010
1000
0001
0100
0001
0010
0100
1000
0001
0010
0001
,
1000
0100
1000
0001
1000
0010
0100
0001
0100
0010
1000
0001
0010
0001
0100
0010
,
1000
0001
0100
0010
0100
0001
1000
0100
0010
0100
1000
0001
0010
0001
0100
0010
,
1000
0001
0100
0001
0010
0100
1000
0001
0010
0001
0100
0010
1000
0100
1000
0001
,
0010
0001
0100
0010
0100
0001
0100
0010
1000
0100
1000
0001
1000
0100
0010
0100
,
1000
0001
0010
0001
0100
0010
1000
0001
0100
0001
1000
0100
1000
0001
0100
0010
,
0100
0001
1000
0100
0010
0100
1000
0001
0010
0001
0100
0010
0100
0001
1000
0100
,
0010
0100
1000
0001
0010
0001
0100
0010
1000
0001
0100
0010
0100
0001
1000
0100
,
0010
0001
1000
0100
1000
0001
0010
0100
1000
0001
0010
0001
1000
0100
0010
0100
,
1000
0001
1000
0010
0100
0001
1000
0010
1000
0001
0100
0001
1000
0001
0010
0100
,
1000
0001
0010
0001
0100
0010
0100
0001
1000
0100
0010
0001
1000
0100
1000
0001
,
0010
0001
0100
0010
1000
0001
1000
0100
0010
0100
1000
0001
1000
0100
0010
0100
,
1000
0001
0010
0001
0100
0001
1000
0100
0010
0100
1000
0001
0010
0001
0100
0010
,
1000
0001
0100
0001
1000
0010
1000
0001
0100
0010
0100
0001
1000
0100
0010
0100
,
1000
0001
0010
0001
0100
0010
1000
0001
0100
0010
0100
0001
1000
0100
0010
0001
,
1000
0100
1000
0010
1000
0001
0100
0001
0010
0100
1000
0001
0010
0001
0100
0010
,
1000
0001
0100
0010
0100
0001
1000
0100
0010
0001
1000
0100
1000
0001
0010
0001
,
0100
0010
1000
0001
0100
0010
0100
0001
1000
0100
0010
0100
1000
0001
0010
0001
,
0100
0010
1000
0100
1000
0001
1000
0100
0010
0100
1000
0001
0010
0001
0100
0010
,
1000
0001
0100
0001
1000
0010
1000
0001
0100
0010
0100
0001
1000
0100
0010
0001
,
1000
0100
1000
0010
0100
0001
0010
0001
1000
0001
0100
0010
0100
0001
1000
0100
,
0010
0100
1000
0001
0010
0001
1000
0100
0010
0001
1000
0010
1000
0001
0100
0010
,
1000
0001
0100
0010
0100
0001
1000
0100
0010
0100
1000
0001
0010
0001
1000
0100
,
1000
0001
1000
0100
0010
0001
1000
0100
1000
0001
0100
0010
1000
0001
1000
0010
,
0100
0001
0100
0010
1000
0001
0010
0001
0010
0100
1000
0100
0010
0001
1000
0100
,
1000
0001
0100
0010
0100
0001
1000
0100
0010
0001
1000
0100
1000
0010
0100
0001
,
1000
0010
1000
0001
0100
0001
1000
0100
0010
0100
1000
0001
0010
0001
1000
0001
,
0100
0010
1000
0001
0010
0001
1000
0100
0010
0001
1000
0010
1000
0001
0100
0010
,
0000
0100
0001
1000
0000
0100
0010
0001
0000
0100
0010
1000
0000
0001
0010
0100
,
100M
0010
1000
0001
0000
0010
0100
1000
0000
0001
0100
0010
0000
1000
0100
0010
,
0000
0001
1000
0001
0000
0100
0010
1000
0000
0001
0100
0001
0000
0010
0100
1000
,
0000
0001
0010
0001
0000
1000
0100
0010
0000
0001
0100
0010
0000
1000
0100
1000
,
0000
0001
0100
0010
0000
1000
0001
0100
0000
0010
1000
0010
0000
0100
0001
1000
,
0000
0100
0010
0001
0000
1000
0100
1000
0000
0001
0100
0010
0000
1000
0010
0100
,
0000
0001
1000
0001
0000
0010
0100
1000
0000
0001
0010
0001
0000
1000
0100
0010
,
0000
0001
1000
0010
0000
0100
0001
1000
0000
0100
0010
0001
0000
1000
0100
1000
,
0000
0001
0100
0010
0000
1000
0100
1000
0000
0001
0010
0001
0000
0100
0010
1000
,
0000
0001
0100
0001
0000
0010
0100
1000
0000
0001
0010
0001
0000
0100
0010
1000
,
0000
0100
0010
0001
0000
1000
0100
1000
00M0
0001
0100
0001
0000
0010
0100
1000
,
00M0
0001
1000
0010
0000
0100
0001
1000
0000
0100
0010
0001
0000
1000
0100
1000
,
0000
0010
0100
0001
0000
1000
0100
1000
0010
0100
0001
1000
0000
0100
0010
0001
,
10M0
0001
0100
0010
0000
1000
0100
0010
0000
0001
0100
0010
0000
1000
0001
1000
,
0200
0000
0000
0000
,
0000
0000
0000
0000
0000
0320
0000
0000
0000
0032
0000
0000
0000
0000
0000
0000
,
2003
0000
0000
00M0
0000
0000
0000
0000
,
30M0
0000
0000
0000
0000
0000
0M00
0000
0000
0000
0000
00M0
0000
0000
0200
0000
,
0000
0000
0000
0000
,
0000
0000
0000
0000
M000
0000
0000
0000
0000
0000
0000
0000
M000
0000
0000
0000
0000
0000
0000
0000
0000
0000
0000
0000
0000
0000
M000
0000
0000
0000
0000
M000
,
0000
0320
M000
0000
,
0000
0030
0000
000M
,
M000
0000
0000
0000
0000
00M0
0M00
0000
,
0000
0000
0000
0000
,
MMMM
MMMM
MMMM
MMM0
MMM0
M000
M000
M000
,
MM00
0000
0000
0000
M000
0M00
0000
0000
0000
0000
0002
0000
0000
0000
0000
0000
,
0000
0000
0000
0000
,
0000
0000
0000
0000
0000
0000
0000
0000
0000
0M00
0000
00M0
0000
0000
0000
0000
,
0000
2003
0000
0000
0000
0000
0M00
00M0
,
0000
0000
00M0
3000
,
0000
0000
0002
0000
0000
0000
0000
0000
M000
0M00
00M0
0M00
M000
0M00
00M0
0M00
,
2003
0000
0000
0000
,
0000
0000
0000
0000
00M0
0000
0000
00M0
0000
0000
00M0
0000
0000
00M0
0000
0000
,
3020
0000
0000
0M00
0000
0000
0M00
0000
0000
0000
0000
0000
0000
0000
0000
0000
,
0000
M00M
0000
0000
,
0230
0000
0000
0000
0000
0000
0000
0000
0000
0000
0000
000M
0000
0000
000M
0000
,
0000
000M
0000
0000
0000
0000
0000
0000
0000
0000
0000
0000
0000
0000
0000
0000
,
0302
0000
0000
0000
0000
0000
0000
0000
0000
0000
0000
0000
0000
0000
0000
0000
0000
0000
0000
0000
0M00
0000
0000
0000
0000
0M00
0000
0000
0000
0000
0M00
0000
,
0000
0000
0000
0M00
0000
0000
0000
0000
0000
0000
0000
0000
0000
0000
0000
0000
0000
0000
0000
0000
0000
0000
0000
0000
0000
0000
0000
0000
0000
0000
0000
0000
,
2003
0000
0000
0000
0000
0000
0000
0000
0000
0000
0000
0000
0000
0000
0000
0000
0000
0000
0000
0000
0000
0000
0000
0000
00M0
0000
0000
0000
0000
00M0
0000
0000
,
0000
0000
00M0
0000
0000
0000
0000
00M0
0000
0M00
0000
0000
000M
0M00
0000
0000
00M0
0000
0M00
0000
0000
000M
0000
0000
0000
0000
0000
0000
0000
0000
0000
0000
,
0000
3020
0000
0000
0000
0000
0000
0000
0000
0000
0000
0000
0000
0000
0000
0000
,
0000
0230
0000
0000
,
0302
0000
0000
0000
,
0000
0000
0000
M000
0000
0000
0000
0000
,
4003
0000
0000
0000
0000
0000
0000
3001
,
0000
0100
0000
0010
0000
1000
0000
0001
,
0000
1000
0000
0100
0000
0010
0000
0001
,
0000
1000
0000
0001
0000
0010
0000
0100
,
1000
0001
0000
1000
0000
0010
0000
0100
,
0000
0001
0000
1000
0000
0100
0000
0010
,
0001
0000
1000
0100
0000
0010
0001
1000
0001
0000
0100
0010
0000
1000
0100
1000
,
0010
0000
0100
0001
0000
0010
0100
1000
0001
0000
0100
0001
0000
1000
0001
1000
,
0010
0000
0100
0001
0000
0100
0001
1000
0010
0000
0100
0010
0000
0100
0001
1000
,
0100
0000
1000
0100
0000
0010
0001
1000
0001
0000
0100
0001
0000
0100
0010
1000
,
0010
0000
0100
0001
0000
1000
0100
0010
0001
0000
0100
0010
0000
1000
0010
0100
,
0001
0000
1000
0001
0000
1000
0100
0010
0001
0000
0100
0001
0000
1000
0010
0100
,
0001
0000
1000
0010
0000
0100
0010
0100
0001
0000
1000
0100
0000
0010
0001
1000
,
0001
0000
0100
0010
0000
1000
0100
1000
0001
0000
0100
0001
0000
0100
0001
1000
,
0M20
0000
1030
0100
1000
0000
0100
0000
0010
0000
0001
0100
0010
1000
0001
1000
,
0010
0000
0100
0001
1000
0010
1000
0001
1000
0000
0100
0010
0001
0010
0100
1000
,
0001
0000
0100
0010
0000
1000
0001
1000
0100
0010
0000
0001
1000
0001
0010
0100
,
1000
0000
0100
1000
0000
0010
0100
0001
0100
0000
0010
1000
0000
0010
0100
0001
,
0100
0000
0010
1000
0000
0100
1000
0001
1000
0000
0100
0010
0000
0001
0100
0001
,
0010
0000
0100
1000
0000
0001
1000
0010
1000
0000
0100
0010
0000
0001
0010
0001
,
0100
0000
0010
1000
0000
0001
1000
0001
0010
0000
0100
1000
0000
0010
1000
0001
,
1000
0000
0100
0010
0000
0001
1000
0001
0010
0000
0100
1000
0000
0100
1000
0010
,
0100
0000
0001
0100
0000
0010
1000
0001
1000
0000
0100
0010
0000
0001
0010
0001
,
0100
0000
0010
1000
0000
0001
1000
0100
1000
0000
0010
0100
0000
0001
1000
0100
,
1000
0000
0010
0100
0000
0001
1000
0001
0010
0000
0100
1000
0000
0001
0010
0001
,
1000
0000
0010
1000
0000
0001
0100
0010
1000
0000
0001
1000
0000
0100
0010
0001
,
1000
0100
1000
0010
0100
0001
0010
0001
1000
0100
1000
0001
1000
0010
0100
0001
,
0100
0010
1000
0001
1000
0100
0010
0001
0010
0100
1000
0001
1000
0010
0100
0001
,
1000
0100
0010
0001
1000
0100
1000
0001
0010
0001
0100
0010
1000
0001
0100
0010
,
1000
0001
0010
0100
0010
0001
1000
0100
1000
0001
0010
0100
0010
0001
1000
0010
,
1000
0001
0100
0010
1000
0001
0100
0001
1000
0001
0010
0100
1000
0100
0010
0001
,
1000
0100
1000
0001
1000
0010
0100
0010
0100
0001
1000
0100
1000
0010
0100
0001
,
1000
0010
1000
0100
0010
0001
1000
0100
1000
0001
1000
0010
0100
0001
0100
0010
,
1000
0001
1000
0001
0010
0100
1000
0001
0010
0001
0100
0010
1000
0001
0100
0010
,
0100
0001
1000
0100
0010
0001
1000
0100
1000
0010
0100
0001
1000
0100
1000
0001
,
0010
0001
0100
0010
1000
0001
0100
0001
0010
0100
1000
0001
0010
0001
1000
0100
,
0010
0001
1000
0100
1000
0001
0010
0001
0100
0010
1000
0001
0100
0010
0100
0001
,
1000
0100
0010
0001
1000
0100
1000
0001
0010
0001
0100
0010
1000
0001
0100
0010
,
0100
0001
1000
0100
0010
0100
1000
0001
0010
0001
1000
0100
0010
0001
1000
0001
,
0100
0010
1000
0001
0100
0001
0010
0100
1000
0001
0010
0001
1000
0100
0010
0001
,
1000
0100
1000
0010
1000
0001
0100
0001
0010
0100
0010
0001
1000
0100
1000
0010
,
0100
0001
1000
0100
1000
0001
0100
0001
0010
0100
1000
0001
0010
0001
0100
0010
,
1000
0001
0100
0010
0100
0001
1000
0100
0010
0001
1000
0100
1000
0010
0100
0001
,
1000
0100
1000
0001
0010
0001
0100
0010
1000
0001
0100
0001
0010
0100
1000
0001
,
0010
0001
0100
0010
0100
0001
1000
0100
0010
0100
1000
0001
0010
0001
1000
0100
,
0010
0001
1000
0100
1000
0001
1000
0010
0100
0001
1000
0100
1000
0001
0100
0001
,
0010
0100
1000
0001
0010
0001
0100
0010
1000
0001
0100
0001
0010
0100
1000
0001
,
0010
0001
0100
0010
1000
0001
1000
0100
0010
0100
1000
0001
0010
0001
1000
0100
,
0010
0001
1000
0100
1000
0001
0010
0001
0100
0010
1000
0001
0100
0001
1000
0100
,
0010
0100
1000
0001
0010
0001
0100
0010
1000
0001
0100
0001
1000
0100
0010
0001
,
1000
0100
1000
0001
0010
0001
1000
0100
0010
0100
1000
0001
0100
0001
0010
0100
,
1000
0001
1000
0010
0100
0001
1000
0010
1000
0001
0010
0001
1000
0100
0010
0100
,
1000
0001
1000
0010
0100
0001
1000
0100
1000
0010
0100
0001
0010
0001
1000
0100
,
1000
0001
1000
0010
0100
0010
1000
0001
0100
0001
0010
0100
1000
0001
0010
0001
,
1000
0100
1000
0010
0100
0001
1000
0100
0010
0001
1000
0100
1000
0010
0100
0001
,
0000
0100
0010
1000
0000
0001
0010
0100
0000
1000
0100
0010
0000
0001
1000
0010
,
1000
0100
0010
0001
1000
0100
1000
0001
0100
0001
0010
0100
1000
0001
1000
0010
,
0100
0001
1000
0100
1000
0010
1000
0001
0100
0001
0010
0100
1000
0001
0010
0001
,
1000
0010
1000
0001
0100
0010
0100
0001
1000
0100
0010
0100
1000
0001
0010
0100
,
1000
0001
1000
0100
1000
0001
0010
0001
0100
0010
1000
0010
0100
0001
0100
0010
,
1000
0001
0010
0001
1000
0100
0010
0100
1000
0001
0010
0001
0100
0010
1000
0001
,
0100
0001
1000
0010
0100
0001
1000
0100
1000
0001
0010
0001
1000
0100
0010
0001
,
1000
0100
1000
0001
0010
0001
0100
0010
1000
0001
0100
0001
1000
0100
0010
0001
,
0100
0001
1000
0100
0010
0001
1000
0100
1000
0001
0010
0001
0100
0010
1000
0001
,
0100
0010
1000
0100
1000
0001
0100
0001
0010
0100
1000
0001
0010
0001
1000
0100
,
0010
0001
1000
0100
1000
0001
1000
0010
0100
0001
1000
0100
1000
0010
0100
0001
,
0100
0010
1000
0001
0010
0001
1000
0100
0010
0001
1000
0100
1000
0001
1000
0010
,
0100
0001
1000
0100
1000
0010
0100
0010
1000
0001
0100
0001
0010
0100
1000
0001
,
0010
0001
0100
0010
1000
0001
0100
0001
1000
0100
0010
0100
1000
0001
0010
0001
,
0100
0010
1000
0010
0100
0001
1000
0001
0010
0100
1000
0001
0010
0001
0100
0010
,
1000
0001
0100
0010
0100
0001
1000
0100
0010
0001
1000
0100
1000
0001
0010
0001
,
1000
0100
0010
0100
1000
0001
0010
0001
1000
0001
0100
0010
0100
0001
1000
0010
,
1000
0100
0010
0001
1000
0100
1000
0001
0100
0010
1000
0001
0010
0001
0100
0010
,
0100
0001
1000
0100
1000
0010
0100
0001
1000
0001
0010
0100
1000
0001
0010
0001
,
0100
0010
0100
0001
1000
0100
0010
0100
1000
0001
0010
0001
1000
0100
0010
0001
,
1000
0001
0100
0010
1000
0001
0100
0001
1000
0001
0010
0100
1000
0001
0010
0001
,
0100
0010
1000
0001
1000
0100
0010
0100
1000
0001
0100
0001
1000
0100
1000
0001
,
0010
0001
1000
0100
1000
0001
1000
0010
0100
0001
0100
0010
1000
0100
1000
0001
,
1000
0100
0010
0001
1000
0100
1000
0001
0010
0100
1000
0001
1000
0010
0100
0001
,
1000
0010
1000
0001
0100
0001
1000
0001
0010
0100
1000
0001
0010
0001
1000
0100
,
0010
0100
1000
0001
0010
0001
1000
0001
0100
0010
0100
0001
0010
0001
1000
0100
,
0010
0100
1000
0001
0010
0001
1000
0001
0100
0010
1000
0001
0100
0001
1000
0100
,
0010
0001
1000
0100
1000
0001
0010
0001
0100
0010
1000
0001
0100
0001
0010
0100
,
1000
0001
0010
0001
0100
0010
1000
0001
0100
0001
1000
0010
1000
0001
0100
0001
,
1000
0100
0010
0100
1000
0001
0010
0001
0100
0010
0100
0001
1000
0100
0010
0001
,
1000
0100
1000
0001
1000
0100
0010
0001
0100
0001
0010
0100
1000
0001
0100
0001
,
1000
0010
0100
0001
0100
0010
1000
0001
0010
0001
0010
0100
1000
0010
1000
0001
,
0000
0010
0100
1000
0000
0001
1000
0010
0000
1000
0100
0010
0000
0001
1000
0001
,
0100
0000
0010
1000
0000
0001
1000
0001
0010
0100
1000
0010
0000
0100
0001
1000
,
0000
0100
0010
0001
0000
1000
0010
0100
0001
0000
1000
0001
0000
0010
0100
1000
,
0001
0000
0100
0001
0000
1000
0010
1000
0001
0000
0010
0100
0000
1000
0100
1000
,
0010
0000
0100
0001
0000
1000
0010
1000
0001
0000
0100
0001
0000
0010
0100
1000
,
0001
0000
0010
0001
0000
0100
0010
0100
0001
0000
1000
0100
0000
0010
0001
1000
,
0001
0000
0100
0010
0000
0100
0001
1000
0010
0000
0100
0001
0000
1000
0100
0010
,
0001
0000
1000
0100
0000
1000
0010
1000
0001
0000
0100
0010
0000
0100
0001
1000
,
0100
0000
0010
0001
0000
1000
0001
0010
0001
0000
0100
0010
0000
1000
0010
0100
,
0001
0000
1000
0100
0000
1000
0100
1000
0010
0000
0100
0001
0000
1000
0001
1000
,
0100
0000
0010
0001
0000
0010
0100
1000
0001
0000
0100
0001
0000
1000
0100
1000
,
0010
0000
0100
0001
0000
1000
0001
0010
0100
0000
1000
0100
0000
1000
0100
0010
,
0001
0000
0100
0010
0000
1000
0001
1000
0100
0000
0010
0001
0000
1000
0010
0100
,
0001
1000
0001
0010
0100
1000
0100
0010
0001
1000
0001
0100
0010
1000
0010
0100
,
0001
1000
0100
1000
0001
1000
0100
0010
0001
0010
0100
1000
0001
0010
0001
1000
,
0010
0100
0001
1000
0010
1000
0100
0010
0001
1000
0100
1000
0001
0010
0001
0100
,
0010
1000
0001
0100
0010
0100
0001
1000
0100
0010
0100
1000
0001
0010
0001
1000
,
0100
0010
0100
1000
0001
0010
0001
0100
0001
1000
0010
1000
0100
0010
0001
1000
,
0100
1000
0010
0100
0001
0100
0010
1000
0001
1000
0100
0010
0001
1000
0100
1000
,
0001
0010
0001
0100
0010
1000
0001
0100
0001
0010
0100
1000
0001
0010
0001
1000
,
0100
0010
0001
1000
0100
1000
0001
0100
0010
1000
0010
0100
0001
1000
0100
1000
,
0001
0100
0001
0010
0100
1000
0001
0010
0001
0100
0010
1000
0010
0100
0001
1000
,
0100
0010
0100
1000
0001
0010
0100
0010
0001
1000
0001
1000
0010
0100
0001
0100
,
0010
1000
0100
1000
0001
0010
0001
0100
0010
1000
0100
1000
0001
0010
0100
1000
,
0001
1000
0010
0100
0001
0100
0010
1000
0100
1000
0001
0100
0010
1000
0001
0100
,
0001
0010
0100
1000
0001
0010
0001
0100
0010
1000
0001
0100
0001
1000
0100
1000
,
0010
1000
0001
0100
0010
0100
0001
1000
0100
0010
0001
1000
0100
1000
0001
0010
,
0001
0100
0010
1000
0010
0100
0001
1000
0100
0010
0001
1000
0100
1000
0001
0010
,
0001
0100
0010
1000
0010
0100
0001
1000
0100
0010
0001
1000
0100
1000
0001
0010
,
0001
0100
0010
1000
0001
1000
0100
0010
0100
1000
0001
0010
0001
1000
0100
0010
,
0001
1000
0100
1000
0001
1000
0010
0100
0010
1000
0100
1000
0001
0010
0001
1000
,
0100
0010
0001
1000
0001
0100
0010
1000
0001
0100
0001
0010
0100
1000
0001
0010
,
0001
1000
0100
0010
0001
1000
0001
0100
0010
0100
0001
0010
0001
1000
0100
0010
,
0100
1000
0001
0010
0001
1000
0001
0100
0010
1000
0001
1000
0100
0010
0001
1000
,
0100
1000
0010
1000
0001
0100
0001
1000
0100
1000
0001
0100
0010
1000
0001
0100
,
0010
0100
0001
1000
0100
0010
0001
1000
0001
0100
0010
1000
0001
0010
0100
1000
,
0001
0010
0001
0100
0010
1000
0001
0100
0001
1000
0100
1000
0010
0100
0001
1000
,
0100
0010
0001
1000
0100
1000
0001
0010
0001
0100
0010
1000
0001
0010
0001
1000
,
0100
1000
0001
0100
0010
1000
0001
0010
0001
0100
0010
0100
0001
1000
0100
1000
,
0010
0100
0001
1000
0100
0010
0001
1000
0100
1000
0001
1000
0010
0100
0010
1000
,
0100
1000
0001
0100
0001
0010
0100
1000
0001
0010
0001
0100
0010
1000
0001
0100
,
0001
1000
0100
1000
0010
0100
0001
1000
0100
0010
0100
1000
0001
0010
0001
1000
,
0100
0010
0100
1000
0001
1000
0100
1000
0010
0100
0001
0100
0010
1000
0001
0010
,
0001
1000
0100
0010
0001
1000
0100
1000
0010
0100
0001
1000
0100
1000
0001
0100
,
0001
0010
0100
1000
0100
0010
0001
1000
0100
1000
0001
0010
0001
0100
0010
1000
,
0001
0100
0001
0010
0100
1000
0001
0010
0001
0100
0010
1000
0010
0100
0001
1000
,
0100
0010
0001
1000
0100
1000
0001
0010
0001
0100
0010
1000
0001
0100
0001
1000
,
0001
0010
0100
1000
0100
0010
0100
1000
0001
0010
0001
0100
0010
1000
0001
0100
,
0001
1000
0010
1000
0100
0010
0001
1000
0100
1000
0001
0100
0010
0100
0001
1000
,
0100
0010
0001
0100
0001
0010
0100
1000
0001
1000
0010
0100
0001
1000
0100
1000
,
0010
1000
0001
0100
0001
0010
0100
1000
0010
0100
0001
1000
0100
1000
0010
0100
,
0001
1000
0001
0100
0010
0100
0001
1000
0100
0010
0001
1000
0100
1000
0010
0100
,
0001
1000
0100
1000
0001
0010
0001
0100
0010
1000
0001
0100
0001
1000
0010
1000
,
0001
0100
0010
1000
0100
1000
0100
0010
0001
1000
0100
0010
0100
1000
0001
0010
,
0001
0100
0010
1000
0001
0100
0001
0010
0100
1000
0001
0010
0001
0100
0010
1000
,
0001
0100
0010
0100
0001
1000
0010
1000
0001
1000
0100
0010
0001
1000
0010
0100
,
0000
0010
1000
0001
0000
0100
0010
0100
0000
0001
1000
0001
0000
0010
0100
1000
,
0010
1000
0001
0100
0010
0100
0001
1000
0100
1000
0010
0100
0001
0100
0010
1000
,
0001
0010
0001
1000
0100
0010
0001
1000
0100
1000
0001
0010
0001
0100
0010
1000
,
0001
0100
0001
1000
0010
1000
0001
1000
0100
0010
0100
1000
0001
0010
0001
0100
,
0010
1000
0001
0100
0010
0100
0001
1000
0100
0010
0001
1000
0100
1000
0010
1000
,
0001
0100
0001
0010
0100
1000
0100
0010
0001
1000
0100
1000
0010
0100
0001
1000
,
0100
1000
0010
0100
0001
0100
0010
1000
0001
0100
0001
0010
0100
1000
0001
0010
,
0001
0100
0010
1000
0001
1000
0100
0010
0001
1000
0100
1000
0010
1000
0001
0100
,
0010
1000
0001
0010
0100
1000
0001
0010
0001
0100
0010
1000
0001
0100
0010
1000
,
0100
1000
0001
0100
0010
1000
0001
1000
0100
0010
0001
1000
0100
1000
0010
1000
,
0001
0100
0010
1000
0001
0010
0001
1000
0010
1000
0001
0010
0100
1000
0001
0010
,
0001
0100
0010
1000
0001
0100
0010
0100
0001
1000
0100
0010
0100
1000
0001
1000
,
0100
1000
0010
0100
0010
1000
0001
0100
0001
0100
0010
1000
0001
0010
0100
0010
,
0001
1000
0100
1000
0010
0100
0001
1000
0100
1000
0001
1000
0100
0010
0100
1000
,
0001
0010
0001
0100
0010
1000
0100
1000
0001
1000
0010
0100
0010
1000
0001
0100
,
0001
0010
0100
1000
0001
0010
0001
1000
0100
1000
0001
0100
0010
1000
0001
0100
,
0001
0010
0100
1000
0001
0010
0001
1000
0100
0010
0100
1000
0001
0100
0001
1000
,
0100
1000
0010
1000
0001
0100
0010
1000
0001
0100
0001
0010
0100
1000
0001
0010
,
0001
0100
0010
1000
0001
0100
0010
0100
0001
1000
0100
0010
0001
1000
0100
1000
,
0010
0100
0010
1000
0001
0100
0010
0100
0001
1000
0100
0010
0001
1000
0100
1000
,
0010
1000
0100
0010
0001
0010
0100
1000
0001
0010
0001
0100
0010
1000
0001
0100
,
0001
1000
0100
0010
0100
1000
0001
1000
0010
0100
0010
1000
0001
0010
0100
0010
,
0001
1000
0100
1000
0001
0010
0100
1000
0100
0010
0001
1000
0010
0100
0001
0100
,
0010
1000
0001
0100
0001
0010
0100
1000
0001
0010
0001
1000
0100
0010
0001
1000
,
0100
1000
0001
0100
0010
0100
0001
1000
0100
1000
0010
1000
0100
0010
0001
1000
,
0100
1000
0001
0010
0001
0100
0010
1000
0100
1000
0001
0010
0001
0100
0010
1000
,
0001
0100
0001
0010
0100
1000
0001
0010
0001
0100
0010
1000
0001
1000
0100
0010
,
0100
1000
0001
0010
0001
0100
0010
1000
0001
0100
0001
1000
0010
1000
0100
0010
,
0001
1000
0100
1000
0001
1000
0100
0010
0100
1000
0001
0010
0001
0100
0010
1000
,
0001
0100
0001
1000
0010
1000
0001
0100
0010
0100
0001
1000
0100
0010
0100
1000
,
0001
0010
0001
0100
0010
1000
0001
0100
0001
1000
0100
1000
0010
0100
0010
1000
,
0001
1000
0100
0010
0001
1000
0100
1000
0001
0100
0001
1000
0010
0100
0001
0100
,
0010
1000
0001
0010
0001
1000
0001
0100
0010
0100
0001
1000
0100
0010
0100
1000
,
0001
0010
0001
1000
0100
0010
0001
1000
0100
1000
0010
1000
0001
0100
0010
0100
,
0001
1000
0100
1000
0010
0100
0010
1000
0001
0100
0001
0010
0100
1000
0001
0010
,
0001
0100
0010
1000
0010
0100
0001
1000
0100
1000
0001
0010
0001
0100
0010
1000
,
0001
0010
0001
0100
0001
0010
0100
1000
0100
0010
0001
1000
0100
1000
0001
0100
,
0010
0100
0001
1000
0100
1000
0010
1000
0001
0100
0010
1000
0001
0100
0001
1000
,
0001
0010
0100
1000
0100
0010
0001
0100
0010
0100
0010
1000
0100
1000
0001
0010
,
0001
0100
0010
1000
0001
0100
0001
1000
0100
0010
0001
0010
0100
1000
0001
1000
,
0010
1000
0100
0010
0001
0100
0001
1000
0010
0100
0001
1000
0100
1000
0010
0100
,
0001
1000
0010
1000
0001
0100
0010
1000
0100
1000
0001
0010
0001
1000
0010
0100
,
0010
1000
0100
1000
0001
1000
0100
0010
0001
0010
0001
0100
0010
1000
0010
0100
,
0001
1000
0100
1000
0001
0010
0001
0100
0010
1000
0001
0100
0010
0100
0001
1000
,
0100
0010
0001
1000
0100
1000
0001
0010
0001
0100
0010
1000
0001
0100
0001
0010
,
0100
1000
0100
1000
0001
0010
0001
0100
0010
1000
0001
0100
0001
1000
0010
0100
,
0010
1000
0001
0100
0001
1000
0001
0010
0100
1000
0100
1000
0001
0010
0001
0100
,
0010
1000
0001
0100
0010
0100
0001
1000
0100
0010
0001
1000
0100
1000
0010
0100
,
0000
0001
1000
0010
0000
0100
0001
1000
0010
1000
0100
0010
0001
0100
0010
1000
,
0010
0100
0001
0000
1000
0010
1000
0000
0100
0010
0001
0000
0100
0010
1000
0000
,
0001
0010
0100
0000
1000
0010
0100
0000
0001
0100
0001
0000
0010
0100
1000
0000
,
0010
0100
0001
0000
1000
0010
0100
0000
0001
1000
0100
0000
0010
0001
1000
0000
,
0001
0010
0001
0000
0100
0010
0100
0000
0001
1000
0010
0000
0100
0001
1000
0000
,
0100
0010
0001
0000
1000
0010
0100
0000
0001
1000
0100
0000
1000
0010
1000
0000
,
0001
0100
0001
0000
0010
0100
1000
0000
0100
0010
0001
0000
1000
0100
1000
0000
,
0010
0100
0001
0000
0100
0010
1000
0000
0001
0010
0001
0000
0100
0010
1000
0000
,
0001
0010
0001
0000
1000
0100
0010
0000
0001
0100
0001
0000
1000
0100
1000
0000
,
0001
1000
0001
0000
0100
0010
0100
0000
0001
0010
0100
0000
1000
0010
0100
0000
,
0001
0100
0010
0000
1000
0100
1000
0000
0001
0100
0010
0000
1000
0100
0010
0000
,
0001
1000
0010
0000
0100
0001
0100
0000
0010
1000
0001
0000
0100
0001
1000
0000
,
0100
0010
0001
0000
1000
0100
1000
0000
0010
0100
0001
0000
1000
0100
1000
0000
,
0001
0010
0001
0000
0100
0010
1000
0000
0001
0010
0100
0000
1000
0100
0010
0000
,
0001
1000
0010
0000
0100
0001
0100
0000
0010
1000
0001
0000
1000
0100
1000
0000
,
0010
0100
0001
0000
0010
0001
0010
0000
0100
1000
0001
0000
0100
0001
0010
0000
,
0100
1000
0010
0000
0100
0001
1000
0000
0100
1000
0010
0000
0100
0001
1000
0000
,
000M
0000
0000
0M00
0000
0000
00M0
0000
0000
0M00
0000
0000
000M
0000
0000
M000
,
0000
0000
0M00
0000
0000
00M0
0000
0000
000M
0000
0000
0M00
0000
0000
0000
0000
;
