#TITLE:Six;
#SUBTITLE:;
#ARTIST:All That Remains;
#TITLETRANSLIT:;
#SUBTITLETRANSLIT:;
#ARTISTTRANSLIT:;
#CREDIT:;
#BANNER:Six 2.jpg;
#BACKGROUND:Six 1.jpg;
#LYRICSPATH:;
#CDTITLE:;
#MUSIC:Six.ogg;
#OFFSET:-0.123;
#SAMPLESTART:30.123;
#SAMPLELENGTH:12.000;
#SELECTABLE:YES;
#BPMS:0.000=200.000,160.000=190.000,192.000=200.000,256.000=190.000,564.000=200.000;
#STOPS:315.500=1.263
;
#BGCHANGES:;
// cache tags:
#FIRSTBEAT:0.000;
#LASTBEAT:637.000;
#SONGFILENAME:Songs/toune 5/Six/Six.sm;
#HASMUSIC:1;
#HASBANNER:1;
#MUSICLENGTH:105.000;
// end cache tags

//---------------dance-single - V01D----------------
#NOTES:
     dance-single:
     V01D:
     Challenge:
     15:
     1.000,1.000,1.000,0.438,1.000,1637.000,180.000,46.000,0.000,0.000:

2000
0000
3001
0000
0100
0010
0100
0001
1000
0000
0100
0000
0010
0001
0010
0001
,
0010
0000
0001
0000
0100
0010
1000
0100
0010
0000
0001
0000
0011
0000
0010
0000
,
0001
0100
0100
0010
1000
1000
0100
0010
,
0001
0010
0100
0010
0001
1000
0100
0010
0100
1000
0001
1000
0010
0000
0100
0000
,
0110
0000
0010
0000
1000
0001
1000
0001
1000
0000
0010
0000
0100
0000
0001
0000
,
1001
0000
1000
0000
0010
0100
0010
0100
0010
0000
0100
0000
0100
0000
0001
0000
,
1000
1000
0100
0010
0010
0001
0100
0010
,
0400
0004
0000
0000
0000
0000
0000
0000
0000
0000
0000
0000
0000
0303
1000
0000
,
0010
0100
0010
0100
0001
1000
0001
1000
0100
0010
0100
0010
0100
1000
0100
1000
,
0100
0010
0001
1000
0001
1000
0001
0100
0010
0100
0010
0100
0001
0100
0001
0100
,
0010
1000
0010
1000
0100
0010
0001
1000
0001
0010
0100
1000
0010
0100
0001
1000
,
0100
0010
0001
1000
0010
0100
0001
1000
0002
0103
0010
0100
0001
1000
0001
1000
,
0100
0010
0001
1000
0001
0010
0100
1000
0010
0100
0001
0100
0010
1000
0100
1000
,
0010
0100
0001
0010
0001
0100
0010
1000
0001
1000
0010
0100
0010
1000
0010
1000
,
0100
0010
0100
0010
0100
1000
0100
1000
0100
1000
0010
0100
0001
1000
0100
0010
,
0001
0010
0100
1000
0001
0010
0100
1000
0001
1000
0100
0010
0001
1000
0100
0010
,
0001
0100
0010
0100
0001
0010
0001
0010
0100
1000
0100
1000
0100
0010
0100
0010
,
0100
1000
0100
1000
0100
0010
0001
0100
0010
1000
0010
0100
0001
0010
0001
0100
,
0010
1000
0100
0010
0001
1000
0001
0010
0100
1000
0010
0100
0001
0100
0010
1000
,
0100
0010
0001
1000
0100
1000
0001
0010
0001
1000
0100
0010
0100
1000
0001
0010
,
0100
0010
0001
1000
0010
0100
0001
1000
0010
1000
0010
1000
0100
0010
0001
0100
,
0001
0100
0010
1000
0100
0010
0001
1000
0001
1000
0100
1000
0001
0010
0001
0100
,
0010
1000
0100
1000
0010
0100
0001
0010
0001
0100
0010
1000
0100
1000
0001
0010
,
0001
0100
0010
1000
1100
0100
0010
0002
,
0000
1003
0001
0100
0110
0010
1010
0100
,
0110
0000
0100
0000
0101
0000
0010
0000
1000
0000
0100
0000
0010
0001
0010
0001
,
0010
0001
0100
0010
0110
0100
0101
0010
,
1010
0000
0100
0000
0110
0000
0010
0000
1000
0000
0100
0000
0010
0001
0100
0001
,
0100
0000
0010
0000
1000
0010
0100
0000
0001
0000
1000
0000
0100
0010
0001
0000
,
1000
0000
0001
0000
0010
0001
0100
0000
0010
0000
1010
0000
1000
0010
0100
0010
,
0100
0000
0001
0000
1000
0100
0010
0000
0001
0000
0100
0000
0010
1000
0010
0000
,
0100
0000
0001
0000
1000
0100
0010
0001
1000
0000
0010
0000
1010
0000
0100
0000
,
0010
0000
1000
0000
0100
0010
0001
1000
0010
0100
0001
1000
0100
1000
0001
0010
,
0001
1000
0100
0010
0100
1000
0001
0010
0100
0010
0001
1000
0010
0100
0001
0100
,
0010
1000
0001
0010
0100
1000
0001
1000
0100
0010
0001
1000
0010
0100
0010
1000
,
0001
0010
0001
0100
0010
1000
0100
1000
0010
0100
0001
0010
0001
0100
0010
1000
,
0100
0010
0001
1000
0001
0010
0100
1000
0001
0010
0001
1000
0100
1000
0010
0100
,
0001
0010
0100
1000
0010
0100
0001
1000
0010
0100
0001
1000
0010
1000
0010
1000
,
0100
0010
0001
0100
0001
0100
0010
0100
0010
1000
0100
0010
0001
1000
0010
0100
,
0001
1000
0100
0010
0001
1000
0001
0010
0100
1000
0001
0100
0010
1000
0010
0100
,
0002
0103
0010
0100
0101
0010
1000
0100
,
0100
0000
0010
0000
0010
0000
0001
0000
1000
0001
1000
0000
0010
0000
0100
0000
,
0101
0010
1010
1000
0010
0110
0100
0101
,
0010
0000
0010
0000
0100
0000
0100
0000
0001
1000
0010
0000
0100
0000
0100
0000
,
0101
0010
0110
0100
0101
0001
0100
0010
,
1000
0000
1000
0000
0100
0000
0100
0000
0010
0001
0100
0000
0010
0000
0010
0000
,
0110
0100
0101
0010
1010
1000
0100
0010
,
0001
0000
0001
0000
0100
0000
0100
0000
0010
0100
0001
0000
1000
0100
0010
0001
,
2000
0000
3001
0000
0100
0010
0100
0000
0010
0000
0100
0000
0001
1000
0001
0000
,
0100
0000
0010
0000
1000
0001
0100
0000
0010
0000
0110
0000
0100
0010
0100
0001
,
1000
0000
0100
0000
0010
0001
0100
0000
0010
0000
1000
0000
0100
0010
0001
0000
,
1000
0000
0001
0000
0100
0010
1000
0000
0010
0000
0101
0000
0100
0010
0100
0001
,
1000
0000
0100
0000
0010
0001
0100
0000
0010
0000
1000
0000
0001
0010
0001
0000
,
1000
0000
0010
0000
0100
0010
0100
0000
0010
0000
0110
0000
0100
0001
1000
0010
,
0100
0000
0010
0000
1000
0100
0010
0000
0001
0000
0100
0000
0010
1000
0100
0000
,
0010
0000
0001
0000
0100
0010
1000
0000
0110
0000
0010
0000
1010
0000
0100
0000
,
0001
0000
1000
0000
0001
0010
0100
1000
0100
0010
0001
1000
0010
0100
0001
1000
,
0100
1000
0001
0010
0001
1000
0100
0010
0001
1000
0001
0010
0100
1000
0010
0100
,
0001
0100
0010
1000
0010
0100
0001
0010
0001
0100
0010
1000
0100
0010
0001
1000
,
0100
0010
0100
1000
0001
0010
0100
0010
0001
1000
0010
0100
0001
1000
0100
0010
,
0001
1000
0001
0010
0100
1000
0010
0100
0001
0100
0010
1000
0001
0100
0010
0100
,
0001
1000
0100
0010
0001
1000
0010
0100
0001
0100
0010
1000
0010
1000
0100
0010
,
0001
1000
0001
0010
0100
1000
0010
0100
0001
1000
0100
1000
0001
0010
0001
0100
,
0010
1000
0100
1000
0010
0100
0001
0010
0001
1000
0100
1000
0010
0100
0001
1000
,
0010
0100
0001
0100
0110
0010
1010
0100
,
0101
0000
0001
0000
0011
0000
0001
0000
0100
0001
0010
0000
0001
0000
1000
0000
,
1010
0100
0110
0010
1010
0100
0101
0010
,
0100
0000
0100
0000
0001
0000
0001
0000
0100
0001
0100
0000
0010
0000
0010
0000
,
1010
1000
1100
0100
0110
0010
0011
0001
,
0101
0000
0010
0000
0010
0000
1000
0000
1000
0001
0100
0000
0010
0000
0010
0000
,
0110
0100
0101
0001
0011
0010
0011
0001
,
0101
0011
0101
0110
1010
0110
0101
0110
,
1001
0010
0100
0001
1001
1000
0100
0010
,
0011
0000
0001
0000
0101
0000
0010
0000
0100
0010
1000
0000
0001
0000
0001
0000
,
0011
0001
0100
0010
0110
0100
0101
0010
,
1010
0000
0100
0000
0110
0000
0010
0000
1000
0100
0010
0000
0001
0000
0100
0000
,
0110
0010
1010
0100
0010
1000
0100
0010
,
0011
0000
0001
0000
0101
0000
0100
0000
0010
0100
0010
0000
0100
0000
0100
0000
,
0101
0010
0110
0000
0000
0100
0110
0010
,
1000
0100
0010
0001
0100
0020
0100
0130
,
0000
0001
1000
0100
0001
0100
2000
0100
,
3100
1000
0100
0010
0001
0200
0010
0310
,
0000
0100
0001
0100
1000
0200
0001
0301
,
1000
0100
0010
0001
1000
0020
0100
0130
,
0000
0001
1000
0010
0001
0010
0200
0001
,
0301
1000
0100
0010
0001
2000
0001
3001
,
0000
0100
0010
0100
0001
2000
0100
3100
,
1100
0000
0100
0010
0001
1000
0010
0110
,
0000
0101
0000
0110
0000
1010
0000
2000
,
0002
0000
0000
0000
0000
0000
3003
0000
1000
0010
0100
0000
0010
0100
0001
0000
,
1000
0100
0010
0000
0001
0010
0100
0000
1000
0000
0100
0000
0010
0000
0001
0000
,
0100
0000
0010
1000
0001
0001
0001
0101
,
0000
0110
0000
1010
0000
1001
0000
0202
,
0000
0000
0000
0000
0000
0000
0000
0303
0010
0000
1000
0000
0100
0000
0011
0000
,
0000
0000
0101
0000
0000
0000
1010
0000
0000
0000
0100
0001
1000
0000
0010
0000
,
0220
0000
0000
0000
0000
0000
0000
0330
0100
0000
0100
0000
0100
0000
0101
0000
,
0000
1010
0000
0110
0000
0101
0000
0020
,
0200
0000
0000
0000
0000
0000
0000
0330
0010
1000
0100
0000
0010
0001
0010
0000
,
0001
0100
0001
0000
0100
0010
0100
0000
0010
0000
1000
0000
0002
0000
0000
0000
,
0000
0000
1003
0010
0100
0100
0100
0110
,
0000
1010
0000
0110
0000
0101
0000
2002
,
0000
0000
0000
0000
0000
0000
0000
3003
1000
0000
0010
0000
0100
0000
0110
0000
,
0000
1010
0000
1001
0000
0100
0110
0010
,
2020
0000
0000
0000
0000
3030
1000
0000
0001
0000
0100
0000
0010
0000
1000
0000
,
0000
0011
0000
0110
0000
1010
1000
0010
,
0110
0010
1010
0100
0001
1001
0001
0011
,
0010
0001
0100
0010
0100
0010
1000
0100
,
0020
0000
0000
0031
0100
0010
1000
2002
,
0000
0000
0000
3003
0010
0000
0000
0000
0110
0000
0100
0000
0010
0000
1000
0000
,
0100
0000
0010
0000
0001
0000
0100
0000
0010
1000
0001
0000
1000
0000
1100
0000
,
0000
0011
0001
0100
0110
0010
1010
0100
,
0202
0000
0000
0000
0000
0303
0010
0000
0100
0000
0001
0000
1000
0000
1001
0000
,
0000
0011
0000
1010
0100
0010
0100
0001
,
0011
0001
0101
0010
0100
0110
0010
1010
,
0100
0010
1000
0100
0110
0010
0001
0100
,
0202
0000
0000
0000
0000
0303
0001
0000
0100
0000
0010
0000
1000
0000
2020
0000
,
0000
0000
0000
3030
0100
0000
0000
0000
0101
0000
0010
0000
1000
0000
0100
0000
,
0010
0001
0100
0000
0010
0000
1000
0000
0001
0000
0100
0000
0010
0000
1000
0000
,
0100
0010
0001
0000
1000
0000
0010
0000
1000
0100
0010
0001
1000
0000
0001
0000
,
0022
0000
0000
0000
0000
0033
0100
0000
0010
0100
0001
1000
0200
0000
0000
0000
,
0000
0310
0001
0100
0010
1000
0100
0010
,
0001
0000
0000
0100
0000
0000
0010
0000
0000
0000
0000
0000
0110
0000
0000
0000
0000
0000
0000
0000
0000
0000
0000
0000
0010
0000
0000
0000
1000
0000
0000
0000
0100
0000
0000
0000
0010
0000
0000
0000
0001
0000
0000
0000
1000
0000
0000
0000
,
0010
0100
0001
0100
0010
1000
0100
0010
0001
0100
1000
0100
,
0002
0000
0000
0000
0000
0000
0000
0000
1003
0100
0010
0001
0100
0010
0100
0001
,
1000
0100
0010
0001
1000
0001
0010
0001
0100
0010
1000
0100
1000
0010
0100
0001
,
1000
0001
1000
2002
0000
3003
0101
0010
,
0110
0000
0000
1010
0000
0000
1001
0000
2002
0000
0000
0000
0000
0000
0000
3003
,
0100
0010
1000
0010
0110
0100
0101
0010
,
1010
0000
1000
0000
1100
0000
1000
0000
0010
1000
0100
0000
1000
0000
0001
0000
,
0101
0010
0110
0100
0101
0010
1010
0100
,
0010
0000
0010
0000
1000
0000
1000
0000
0010
1000
0010
0000
0100
0000
0100
0000
,
0101
0001
0011
0010
0110
0100
1100
1000
,
1010
0000
0100
0000
0100
0000
0001
0000
0001
1000
0010
0000
0100
0000
0100
0000
,
0110
0010
1010
1000
1100
0100
1100
1000
,
1010
1100
1010
0110
0101
0110
1010
0110
,
1001
0100
0010
1000
1001
0001
0010
0100
,
1100
0000
1000
0000
1010
0000
0100
0000
0010
0100
0001
0000
1000
0000
1000
0000
,
1100
1000
0010
0100
0110
0010
1010
0100
,
0101
0000
0010
0000
0110
0000
0100
0000
0001
0010
0100
0000
1000
0000
0010
0000
,
0110
0100
0101
0010
0100
0001
0010
0100
,
1100
0000
1000
0000
1010
0000
0010
0000
0100
0010
0100
0000
0010
0000
0010
0000
,
1010
0100
0110
0000
0101
0000
1010
0000
,
4000
0004
0000
0000
0000
0000
0000
3003
1001
0000
0010
0000
0100
0000
0001
0000
,
0100
0010
0100
0010
1000
0001
1000
0001
0010
0100
0010
0100
0010
0001
0010
0001
,
0010
0100
1000
0001
1000
0001
1000
0010
0100
0010
0100
0010
1000
0010
1000
0010
,
0100
0001
0100
0001
0010
0100
1000
0001
1000
0100
0010
0001
0100
0010
1000
0001
,
0010
0100
1000
0001
0100
0010
1000
0001
2000
3010
0100
0010
1000
0001
1000
0001
,
0010
0100
1000
0001
1000
0100
0010
0001
0100
0010
1000
0010
0100
0001
0010
0001
,
0100
0010
1000
0100
1000
0010
0100
0001
1000
0001
0100
0010
0100
0001
0100
0001
,
0010
0100
0010
0100
0010
0001
0010
0001
0010
0001
0100
0010
1000
0001
0010
0100
,
1000
0100
0010
0001
1000
0100
0010
0001
1000
0001
0010
0100
1000
0001
0010
0100
,
1000
0010
0100
0010
1000
0100
1000
0100
0010
0001
0010
0001
0010
0100
0010
0100
,
0010
0001
0010
0001
0010
0100
1000
0010
0100
0001
0100
0010
1000
0100
1000
0010
,
0100
0001
0010
0100
1000
0001
1000
0100
0010
0001
0100
0010
1000
0010
0100
0001
,
0010
0100
1000
0001
0010
0001
1000
0100
1000
0001
0010
0100
0010
0001
1000
0100
,
0010
0100
1000
0001
0100
0010
1000
0001
0100
0001
0100
0001
0010
0100
1000
0010
,
1000
0010
0100
0001
0010
0100
1000
0001
1000
0001
0010
0001
1000
0100
1000
0010
,
0100
0001
0010
0001
0100
0010
1000
0100
1000
0010
0100
0001
0010
0001
1000
0010
,
0100
0001
1000
0100
0110
0010
0011
0022
,
0000
0033
0000
0000
;
